(Techno) [CD] Surgeon - Luminosity Device - 2018, FLAC (tracks+.cue), lossless

Ответить на тему
Статистика раздачи [Обновить пиров]
Размер:  299 MB   |    Зарегистрирован:  2 месяца 15 дней   |    Скачан:  0 раз

Полного источника не было: Никогда

 
   
 
 
 
Автор Сообщение

islamvillage.com

Создавать темы 06-Ноя-2018 23:50

[Цитировать]

Surgeon / Luminosity Device[img=right]http://b.radikal.ru/b42/1811/28/fc11c43cb772.jpg[/img]
Жанр: Techno
Носитель: CD
Страна-производитель диска (релиза): UK
Год издания: 2018
Издатель (лейбл): Dynamic Tension Records
Номер по каталогу: DTRCD4
Страна исполнителя (группы): UK
Аудиокодек: FLAC (*.flac)
Тип рипа: tracks+.cue
Битрейт аудио: lossless
Продолжительность: 00:48:30
Источник (релизер): Собственныи Диск (Poupsicot88)
Наличие сканов в содержимом раздачи: нет

Треклист

01. Seven Peaceful Deities
02. The Primary Clear Light
03. Courage to Face Up To
04. Earth-Sinking-into-Water
05. Master of All Visible Shapes
06. The Vibratory Waves of External Unity
07. Eight Wrathful Deities
08. The Etheric Body
09. The Source

Лог создания рипа

Exact Audio Copy V1.3 from 2. September 2016
EAC extraction logfile from 4. November 2018, 19:17
Surgeon / Luminosity Device
Used drive : PLEXTOR DVDR PX-891SA Adapter: 1 ID: 0
Read mode : SecureUtilize accurate stream : YesDefeat audio cache : YesMake use of C2 pointers : No
Read offset correction : 6Overread into Lead-In and Lead-Out : NoFill up missing offset samples with silence : YesDelete leading and trailing silent blocks : NoNull samples used in CRC calculations : YesUsed interface : Native Win32 interface for Win NT & 2000Gap handling : Appended to previous track
Used output format : User Defined EncoderSelected bitrate : 1024 kBit/sQuality : HighAdd ID3 tag : NoCommand line compressor : C:\Program Files (x86)\Exact Audio Copy\FLAC\FLAC.EXEAdditional command line options : -8 -V -T "ARTIST=%artist%" -T "TITLE=%title%" -T "ALBUM=%albumtitle%" -T "DATE=%year%" -T "TRACKNUMBER=%tracknr%" -T "GENRE=%genre%" -T "COMMENT=%comment%" -T "BAND=%albuminterpret%" -T "ALBUMARTIST=%albuminterpret%" -T "COMPOSER=%composer%" %haslyrics%--tag-from-file=LYRICS="%lyricsfile%"%haslyrics% -T "DISCNUMBER=%cdnumber%" -T "TOTALDISCS=%totalcds%" -T "TOTALTRACKS=%numtracks%" %hascover%--picture="%coverfile%"%hascover% %source% -o %dest%
TOC of the extracted CD
Track | Start | Length | Start sector | End sector --------------------------------------------------------- 1 | 0:00.00 | 2:18.53 | 0 | 10402 2 | 2:18.53 | 5:51.01 | 10403 | 36728 3 | 8:09.54 | 5:11.26 | 36729 | 60079 4 | 13:21.05 | 5:47.47 | 60080 | 86151 5 | 19:08.52 | 6:27.72 | 86152 | 115248 6 | 25:36.49 | 6:39.33 | 115249 | 145206 7 | 32:16.07 | 5:37.50 | 145207 | 170531 8 | 37:53.57 | 6:07.28 | 170532 | 198084 9 | 44:01.10 | 4:29.30 | 198085 | 218289
Track 1
Filename H:\Torrents\Surgeon\Surgeon (2018) [DTRCD4] Luminosity Device\01. Seven Peaceful Deities.wav
Pre-gap length 0:00:02.00
Peak level 89.3 % Extraction speed 4.7 X Track quality 100.0 % Test CRC D9353FC4 Copy CRC D9353FC4 Accurately ripped (confidence 3) [BC5D2B64] (AR v2) Copy OK
Track 2
Filename H:\Torrents\Surgeon\Surgeon (2018) [DTRCD4] Luminosity Device\02. The Primary Clear Light.wav
Peak level 96.7 % Extraction speed 6.0 X Track quality 100.0 % Test CRC 322AA835 Copy CRC 322AA835 Accurately ripped (confidence 3) [C81FF8FC] (AR v2) Copy OK
Track 3
Filename H:\Torrents\Surgeon\Surgeon (2018) [DTRCD4] Luminosity Device\03. Courage to Face Up To.wav
Peak level 96.7 % Extraction speed 6.7 X Track quality 100.0 % Test CRC 272A45B1 Copy CRC 272A45B1 Accurately ripped (confidence 3) [2197183C] (AR v2) Copy OK
Track 4
Filename H:\Torrents\Surgeon\Surgeon (2018) [DTRCD4] Luminosity Device\04. Earth-Sinking-into-Water.wav
Peak level 96.7 % Extraction speed 7.4 X Track quality 100.0 % Test CRC D88673BC Copy CRC D88673BC Accurately ripped (confidence 3) [61FB0654] (AR v2) Copy OK
Track 5
Filename H:\Torrents\Surgeon\Surgeon (2018) [DTRCD4] Luminosity Device\05. Master of All Visible Shapes.wav
Peak level 96.7 % Extraction speed 8.2 X Track quality 100.0 % Test CRC AC0550B2 Copy CRC AC0550B2 Accurately ripped (confidence 3) [596788D0] (AR v2) Copy OK
Track 6
Filename H:\Torrents\Surgeon\Surgeon (2018) [DTRCD4] Luminosity Device\06. The Vibratory Waves of External Unity.wav
Peak level 96.7 % Extraction speed 8.9 X Track quality 100.0 % Test CRC B6DE10BE Copy CRC B6DE10BE Accurately ripped (confidence 3) [2FF2EF88] (AR v2) Copy OK
Track 7
Filename H:\Torrents\Surgeon\Surgeon (2018) [DTRCD4] Luminosity Device\07. Eight Wrathful Deities.wav
Peak level 96.7 % Extraction speed 8.0 X Track quality 99.9 % Test CRC EF382295 Copy CRC EF382295 Accurately ripped (confidence 3) [1B02BCB0] (AR v2) Copy OK
Track 8
Filename H:\Torrents\Surgeon\Surgeon (2018) [DTRCD4] Luminosity Device\08. The Etheric Body.wav
Peak level 96.7 % Extraction speed 9.9 X Track quality 100.0 % Test CRC E86AFAF2 Copy CRC E86AFAF2 Accurately ripped (confidence 3) [7AAE0A84] (AR v2) Copy OK
Track 9
Filename H:\Torrents\Surgeon\Surgeon (2018) [DTRCD4] Luminosity Device\09. The Source.wav
Peak level 96.7 % Extraction speed 10.0 X Track quality 100.0 % Test CRC 7AC8B7E8 Copy CRC 7AC8B7E8 Accurately ripped (confidence 3) [2FA85583] (AR v2) Copy OK
All tracks accurately ripped
No errors occurred
End of status report
==== Log checksum 5F298E48CFD2E5C972043DD798F13110A7A802C945150466DD9F23524F774EAF ====

Содержание индексной карты (.CUE)

REM GENRE ElectronicREM DATE 2018REM DISCID 6C0B5E09REM COMMENT "ExactAudioCopy v1.3"PERFORMER "Surgeon"TITLE "Luminosity Device"REM COMPOSER ""FILE "01. Seven Peaceful Deities.wav" WAVE TRACK 01 AUDIO TITLE "Seven Peaceful Deities" PERFORMER "Surgeon" REM COMPOSER "Anthony Child" ISRC GB6SP1800001 FLAGS DCP INDEX 01 00:00:00FILE "02. The Primary Clear Light.wav" WAVE TRACK 02 AUDIO TITLE "The Primary Clear Light" PERFORMER "Surgeon" REM COMPOSER "Anthony Child" ISRC GB6SP1800002 FLAGS DCP INDEX 01 00:00:00FILE "03. Courage to Face Up To.wav" WAVE TRACK 03 AUDIO TITLE "Courage to Face Up To" PERFORMER "Surgeon" REM COMPOSER "Anthony Child" ISRC GB6SP1800003 FLAGS DCP INDEX 01 00:00:00FILE "04. Earth-Sinking-into-Water.wav" WAVE TRACK 04 AUDIO TITLE "Earth-Sinking-into-Water" PERFORMER "Surgeon" REM COMPOSER "Anthony Child" ISRC GB6SP1800004 FLAGS DCP INDEX 01 00:00:00FILE "05. Master of All Visible Shapes.wav" WAVE TRACK 05 AUDIO TITLE "Master of All Visible Shapes" PERFORMER "Surgeon" REM COMPOSER "Anthony Child" ISRC GB6SP1800005 FLAGS DCP INDEX 01 00:00:00FILE "06. The Vibratory Waves of External Unity.wav" WAVE TRACK 06 AUDIO TITLE "The Vibratory Waves of External Unity" PERFORMER "Surgeon" REM COMPOSER "Anthony Child" ISRC GB6SP1800006 FLAGS DCP INDEX 01 00:00:00FILE "07. Eight Wrathful Deities.wav" WAVE TRACK 07 AUDIO TITLE "Eight Wrathful Deities" PERFORMER "Surgeon" REM COMPOSER "Anthony Child" ISRC GB6SP1800007 FLAGS DCP INDEX 01 00:00:00FILE "08. The Etheric Body.wav" WAVE TRACK 08 AUDIO TITLE "The Etheric Body" PERFORMER "Surgeon" REM COMPOSER "Anthony Child" ISRC GB6SP1800008 FLAGS DCP INDEX 01 00:00:00FILE "09. The Source.wav" WAVE TRACK 09 AUDIO TITLE "The Source" PERFORMER "Surgeon" REM COMPOSER "Anthony Child" ISRC GB6SP1800009 FLAGS DCP INDEX 01 00:00:00

Об исполнителе (группе)

http://www.discogs.com/artist/1114-Surgeon


[islamvillage.com]_t_5639578.torrent
Торрент: Зарегистрирован ·  [ 2018-11-06 23:47 ] ·  0f2f214c6042e6a98eab36298fdaee6f16d9538b

13 KB

Статус: проверено
Скачан: 0 раз
Размер: 299 MB
Оценка: 
(Голосов: 0)
Сказали спасибо: 0  Спасибо
Похожие темы
[Профиль]    [ЛС]
Показать сообщения:    
Ответить на тему

Текущее время: Сегодня 07:23

Часовой пояс: GMT + 7



Вы не можете начинать темы
Вы не можете отвечать на сообщения
Вы не можете редактировать свои сообщения
Вы не можете удалять свои сообщения
Вы не можете голосовать в опросах
Вы не можете прикреплять файлы к сообщениям
Вы можете скачивать файлы


Patrice Harri... | Capitaine Morten Et La Reine Des Araignées | Prix les moins chers