(Minimal Techno, Dub Techno) [CDr] Downscope - Remnants - 2016, FLAC (tracks+.cue), lossless

Ответить на тему
Статистика раздачи [Обновить пиров]
Размер:  371 MB   |    Зарегистрирован:  2 месяца 15 дней   |    Скачан:  0 раз

Полного источника не было: Никогда

 
   
 
 
 
Автор Сообщение

islamvillage.com

Создавать темы 06-Ноя-2018 23:50

[Цитировать]

Downscope / Remnants
[img=right]http://i5.imageban.ru/out/2018/11/04/d64d1af9584e3...7fe3a2.jpg[/img]
Жанр: Minimal Techno, Dub Techno
Носитель: CDr
Год издания: 2016
Издатель (лейбл): alternating.bit music – DS13
Аудиокодек: FLAC (*.flac)
Тип рипа: tracks+.cue
Битрейт аудио: lossless
Продолжительность: 53:18.73
Источник (релизер): обмен
Наличие сканов в содержимом раздачи: нет
Треклист:
1. Benediction (06:04)
2. Ice Lab (05:23)
3. Ming Dynasty (11:32)
4. Tangent (07:36)
5. Solar (09:07)
6. Solarized (04:05)
7. The Fall Of Yuan (09:14)
8. Ice Lab (Liquid) (06:02)-http://www.discogs.com/Downscope-Remnants/release/8280981

Лог создания рипа

Exact Audio Copy V1.1 from 23. June 2015
EAC extraction logfile from 12. August 2016, 18:02
Downscope / Remnants
Used drive : ASUS DRW-24B1ST c Adapter: 1 ID: 0
Read mode : SecureUtilize accurate stream : YesDefeat audio cache : YesMake use of C2 pointers : No
Read offset correction : 6Overread into Lead-In and Lead-Out : NoFill up missing offset samples with silence : YesDelete leading and trailing silent blocks : NoNull samples used in CRC calculations : YesUsed interface : Native Win32 interface for Win NT & 2000Gap handling : Appended to previous track
Used output format : User Defined EncoderSelected bitrate : 1024 kBit/sQuality : HighAdd ID3 tag : NoCommand line compressor : C:\Program Files (x86)\Exact Audio Copy\Flac\flac.exeAdditional command line options : -8 -e -V -T "ARTIST=%artist%" -T "TITLE=%title%" -T "ALBUM=%albumtitle%" -T "DATE=%year%" -T "TRACKNUMBER=%tracknr%" -T "GENRE=%genre%" -T "PERFORMER=%albuminterpret%" -T "COMPOSER=%composer%" %haslyrics%--tag-from-file=LYRICS="%lyricsfile%"%haslyrics% -T "ALBUMARTIST=%albumartist%" -T "DISCNUMBER=%cdnumber%" -T "TOTALDISCS=%totalcds%" -T "TOTALTRACKS=%numtracks%" -T "COMMENT=%comment%" %source% -o %dest%
TOC of the extracted CD
Track | Start | Length | Start sector | End sector --------------------------------------------------------- 1 | 0:00.00 | 6:18.54 | 0 | 28403 2 | 6:18.54 | 5:23.23 | 28404 | 52651 3 | 11:42.02 | 11:31.54 | 52652 | 104530 4 | 23:13.56 | 7:36.25 | 104531 | 138755 5 | 30:50.06 | 9:07.07 | 138756 | 179787 6 | 39:57.13 | 4:06.08 | 179788 | 198245 7 | 44:03.21 | 9:15.52 | 198246 | 239922 8 | 53:18.73 | 6:02.66 | 239923 | 267138
Track 1
Filename H:\Music\Whatcd\01 Benediction.wav
Pre-gap length 0:00:02.00
Peak level 79.3 % Extraction speed 6.1 X Track quality 100.0 % Test CRC 9911240D Copy CRC 9911240D Track not present in AccurateRip database Copy OK
Track 2
Filename H:\Music\Whatcd\02 Ice Lab.wav
Peak level 76.1 % Extraction speed 6.7 X Track quality 100.0 % Test CRC 85DDA92E Copy CRC 85DDA92E Track not present in AccurateRip database Copy OK
Track 3
Filename H:\Music\Whatcd\03 Ming Dynasty.wav
Peak level 69.6 % Extraction speed 8.0 X Track quality 100.0 % Test CRC E59E9F7F Copy CRC E59E9F7F Track not present in AccurateRip database Copy OK
Track 4
Filename H:\Music\Whatcd\04 Tangent.wav
Peak level 72.5 % Extraction speed 8.7 X Track quality 100.0 % Test CRC F089B584 Copy CRC F089B584 Track not present in AccurateRip database Copy OK
Track 5
Filename H:\Music\Whatcd\05 Solar.wav
Peak level 73.3 % Extraction speed 8.5 X Track quality 99.9 % Test CRC 2D3B5023 Copy CRC 2D3B5023 Track not present in AccurateRip database Copy OK
Track 6
Filename H:\Music\Whatcd\06 Solarized.wav
Peak level 60.9 % Extraction speed 9.2 X Track quality 100.0 % Test CRC 9F084243 Copy CRC 9F084243 Track not present in AccurateRip database Copy OK
Track 7
Filename H:\Music\Whatcd\07 The Fall of Yuan.wav
Peak level 60.7 % Extraction speed 10.4 X Track quality 100.0 % Test CRC E202E77E Copy CRC E202E77E Track not present in AccurateRip database Copy OK
Track 8
Filename H:\Music\Whatcd\08 Ice Lab [Liquid].wav
Peak level 59.9 % Extraction speed 9.1 X Track quality 99.9 % Test CRC 2A78A766 Copy CRC 2A78A766 Track not present in AccurateRip database Copy OK
None of the tracks are present in the AccurateRip database
No errors occurred
End of status report
---- CUETools DB Plugin V2.1.6
[CTDB TOCID: 8tfUiHbMk6suatBIGgOzWNIHotE-] disk not present in databaseSubmit result: 8tfUiHbMk6suatBIGgOzWNIHotE- has been uploaded
==== Log checksum B1288F88ECF690759AF690A2A248AC40870973917B695F422F985F524EDD7390 ====

Содержание индексной карты (.CUE)

REM GENRE ElectronicREM DATE 2016REM DISCID 670DE908REM COMMENT "ExactAudioCopy v1.1"PERFORMER "Downscope"TITLE "Remnants "FILE "01 Benediction.wav" WAVE TRACK 01 AUDIO TITLE "Benediction" PERFORMER "Downscope" FLAGS DCP INDEX 01 00:00:00FILE "02 Ice Lab.wav" WAVE TRACK 02 AUDIO TITLE "Ice Lab" PERFORMER "Downscope" FLAGS DCP INDEX 01 00:00:00FILE "03 Ming Dynasty.wav" WAVE TRACK 03 AUDIO TITLE "Ming Dynasty" PERFORMER "Downscope" FLAGS DCP INDEX 01 00:00:00FILE "04 Tangent.wav" WAVE TRACK 04 AUDIO TITLE "Tangent" PERFORMER "Downscope" FLAGS DCP INDEX 01 00:00:00FILE "05 Solar.wav" WAVE TRACK 05 AUDIO TITLE "Solar" PERFORMER "Downscope" FLAGS DCP INDEX 01 00:00:00FILE "06 Solarized.wav" WAVE TRACK 06 AUDIO TITLE "Solarized" PERFORMER "Downscope" FLAGS DCP INDEX 01 00:00:00FILE "07 The Fall of Yuan.wav" WAVE TRACK 07 AUDIO TITLE "The Fall of Yuan" PERFORMER "Downscope" FLAGS DCP INDEX 01 00:00:00FILE "08 Ice Lab [Liquid].wav" WAVE TRACK 08 AUDIO TITLE "Ice Lab [Liquid]" PERFORMER "Downscope" FLAGS DCP INDEX 01 00:00:00


[islamvillage.com]_t_5639295.torrent
Торрент: Зарегистрирован ·  [ 2018-11-06 23:47 ] ·  4b4b185f3a272b61cc82ef62101491d11a43165f

16 KB

Статус: проверено
Скачан: 0 раз
Размер: 371 MB
Оценка: 
(Голосов: 0)
Сказали спасибо: 0  Спасибо
Похожие темы
[Профиль]    [ЛС]
Показать сообщения:    
Ответить на тему

Текущее время: Сегодня 06:52

Часовой пояс: GMT + 7



Вы не можете начинать темы
Вы не можете отвечать на сообщения
Вы не можете редактировать свои сообщения
Вы не можете удалять свои сообщения
Вы не можете голосовать в опросах
Вы не можете прикреплять файлы к сообщениям
Вы можете скачивать файлы


Running Man Episode 349 | Saber Marionette J to X | MS Ladies Long Sleeve Crew Neck T Shirt Pure Cotton,sz 6-24,free postage