(Techno, Hard Trance) [CD] Commander Tom - Damn Trance - 2002, FLAC (tracks+.cue), lossless

Ответить на тему
Статистика раздачи [Обновить пиров]
Размер:  459 MB   |    Зарегистрирован:  2 месяца 15 дней   |    Скачан:  0 раз

Полного источника не было: Никогда

 
   
 
 
 
Автор Сообщение

islamvillage.com

Создавать темы 06-Ноя-2018 23:50

[Цитировать]

Commander Tom - Damn Trance-[img=right]http://d.radikal.ru/d13/1811/a9/b47b6eb85b2a.jpg[/img]
Жанр: Techno, Hard Trance
Носитель: CD
Страна-производитель диска (релиза): USA
Год издания: 2002
Издатель (лейбл): Topaz
Номер по каталогу: TZ-2638-2
Аудиокодек: FLAC (*.flac)
Тип рипа: tracks+.cue
Битрейт аудио: lossless
Продолжительность: 01:07:33
Источник (релизер): RED
Наличие сканов в содержимом раздачи: нет
Треклист:
01. Nexus 6 - Trés Chic (Commander Tom Remix) [00:05:43]
02. Alexander K. Katz - Hellgenugzudunkel [00:02:35]
03. D.A.V.E. The Drummer - Hydraulix 09 A [00:06:02]
04. Raimond Ford & Steve Land - Guerilla [00:03:21]
05. Redhead - Vulcano [00:02:36]
06. Si Begg - Discotool [00:02:26]
07. D.A.V.E. The Drummer - Hydraulix 011 A [00:02:47]
08. Commander Tom - Sweet Thang [00:08:32]
09. Sterling Moss vs. Ant - Impulz 23 [00:02:42]
10. D.A.V.E. The Drummer - Hydraulix 09 AA [00:03:29]
11. Henrik B - Recollections Ltd. [00:02:50]
12. Gayle San - Chill [00:01:38]
13. Commander Tom - 185000 Miles Per Second [00:02:02]
14. Cores & Vernes - Fugestives [00:02:57]
15. Loco - Ibiza [00:04:57]
16. Commander Tom - I Don't Need Ya Anymore (feat. OS/2) [00:05:55]
17. Commander Tom - Blast! (W.E.M.F. Touring Edition) [00:06:52]

Лог создания рипа

Exact Audio Copy V1.0 beta 3 from 29. August 2011
EAC extraction logfile from 8. December 2013, 14:47
Commander Tom / Damn Trance
Used drive : TSSTcorpCDDVDW SH-S223F Adapter: 4 ID: 0
Read mode : SecureUtilize accurate stream : YesDefeat audio cache : YesMake use of C2 pointers : No
Read offset correction : 6Overread into Lead-In and Lead-Out : NoFill up missing offset samples with silence : YesDelete leading and trailing silent blocks : NoNull samples used in CRC calculations : YesUsed interface : Native Win32 interface for Win NT & 2000Gap handling : Appended to previous track
Used output format : User Defined EncoderSelected bitrate : 1024 kBit/sQuality : HighAdd ID3 tag : NoCommand line compressor : C:\Program Files (x86)\Exact Audio Copy\FLAC\FLAC.EXEAdditional command line options : -8 -V -T "ARTIST=%artist%" -T "TITLE=%title%" -T "ALBUM=%albumtitle%" -T "DATE=%year%" -T "TRACKNUMBER=%tracknr%" -T "GENRE=%genre%" -T "COMMENT=%comment%" -T "BAND=%albuminterpret%" -T "ALBUMARTIST=%albuminterpret%" -T "COMPOSER=%composer%" %haslyrics%--tag-from-file=LYRICS="%lyricsfile%"%haslyrics% -T "DISCNUMBER=%cdnumber%" -T "TOTALDISCS=%totalcds%" -T "TOTALTRACKS=%numtracks%" %hascover%--picture="%coverfile%"%hascover% %source% -o %dest%
TOC of the extracted CD
Track | Start | Length | Start sector | End sector --------------------------------------------------------- 1 | 0:00.00 | 5:43.66 | 0 | 25790 2 | 5:43.66 | 2:35.51 | 25791 | 37466 3 | 8:19.42 | 6:02.12 | 37467 | 64628 4 | 14:21.54 | 3:21.55 | 64629 | 79758 5 | 17:43.34 | 2:36.61 | 79759 | 91519 6 | 20:20.20 | 2:26.35 | 91520 | 102504 7 | 22:46.55 | 2:47.28 | 102505 | 115057 8 | 25:34.08 | 8:32.60 | 115058 | 153517 9 | 34:06.68 | 2:42.74 | 153518 | 165741 10 | 36:49.67 | 3:29.00 | 165742 | 181416 11 | 40:18.67 | 2:50.00 | 181417 | 194166 12 | 43:08.67 | 1:38.73 | 194167 | 201589 13 | 44:47.65 | 2:02.19 | 201590 | 210758 14 | 46:50.09 | 2:57.55 | 210759 | 224088 15 | 49:47.64 | 4:57.38 | 224089 | 246401 16 | 54:45.27 | 5:55.33 | 246402 | 273059 17 | 60:40.60 | 6:52.22 | 273060 | 303981
Track 1
Filename D:\EAC\Commander Tom - Damn Trance\01 - Nexus 6 - Trés Chic (Commander Tom Remix).wav
Pre-gap length 0:00:02.00
Peak level 100.0 % Extraction speed 2.2 X Track quality 100.0 % Test CRC 35D1916B Copy CRC 35D1916B Accurately ripped (confidence 1) [A7602CB5] (AR v2) Copy OK
Track 2
Filename D:\EAC\Commander Tom - Damn Trance\02 - Alexander K. Katz - Hellgenugzudunkel.wav
Peak level 100.0 % Extraction speed 1.6 X Track quality 99.9 % Test CRC DAE8FB17 Copy CRC DAE8FB17 Accurately ripped (confidence 1) [490B5DB1] (AR v2) Copy OK
Track 3
Filename D:\EAC\Commander Tom - Damn Trance\03 - D.A.V.E. The Drummer - Hydraulix 09 A.wav
Peak level 100.0 % Extraction speed 2.2 X Track quality 100.0 % Test CRC AB7602D0 Copy CRC AB7602D0 Accurately ripped (confidence 1) [184C9EF8] (AR v2) Copy OK
Track 4
Filename D:\EAC\Commander Tom - Damn Trance\04 - Raimond Ford & Steve Land - Guerilla.wav
Peak level 100.0 % Extraction speed 2.0 X Track quality 100.0 % Test CRC 798871FE Copy CRC 798871FE Accurately ripped (confidence 1) [39166157] (AR v2) Copy OK
Track 5
Filename D:\EAC\Commander Tom - Damn Trance\05 - Redhead - Vulcano.wav
Peak level 100.0 % Extraction speed 2.0 X Track quality 100.0 % Test CRC C050AF99 Copy CRC C050AF99 Accurately ripped (confidence 1) [51BFBA9C] (AR v2) Copy OK
Track 6
Filename D:\EAC\Commander Tom - Damn Trance\06 - Si Begg - Discotool.wav
Peak level 100.0 % Extraction speed 1.9 X Track quality 100.0 % Test CRC 551C06C2 Copy CRC 551C06C2 Accurately ripped (confidence 1) [F4122ACC] (AR v2) Copy OK
Track 7
Filename D:\EAC\Commander Tom - Damn Trance\07 - D.A.V.E. The Drummer - Hydraulix 011 A.wav
Peak level 100.0 % Extraction speed 2.0 X Track quality 100.0 % Test CRC AA875451 Copy CRC AA875451 Accurately ripped (confidence 1) [8A7FE26A] (AR v2) Copy OK
Track 8
Filename D:\EAC\Commander Tom - Damn Trance\08 - Commander Tom - Sweet Thang.wav
Peak level 100.0 % Extraction speed 2.3 X Track quality 100.0 % Test CRC 276281C5 Copy CRC 276281C5 Accurately ripped (confidence 1) [F3075976] (AR v2) Copy OK
Track 9
Filename D:\EAC\Commander Tom - Damn Trance\09 - Sterling Moss vs. Ant - Impulz 23.wav
Peak level 100.0 % Extraction speed 1.6 X Track quality 99.9 % Test CRC 8260C5F5 Copy CRC 8260C5F5 Accurately ripped (confidence 1) [CD9AAAB9] (AR v2) Copy OK
Track 10
Filename D:\EAC\Commander Tom - Damn Trance\10 - D.A.V.E. The Drummer - Hydraulix 09 AA.wav
Peak level 100.0 % Extraction speed 2.0 X Track quality 100.0 % Test CRC 6D97CE59 Copy CRC 6D97CE59 Accurately ripped (confidence 1) [06E92BBA] (AR v2) Copy OK
Track 11
Filename D:\EAC\Commander Tom - Damn Trance\11 - Henrik B - Recollections Ltd..wav
Peak level 100.0 % Extraction speed 1.7 X Track quality 99.9 % Test CRC 75B1138F Copy CRC 75B1138F Accurately ripped (confidence 1) [C0214146] (AR v2) Copy OK
Track 12
Filename D:\EAC\Commander Tom - Damn Trance\12 - Gayle San - Chill.wav
Peak level 100.0 % Extraction speed 1.7 X Track quality 100.0 % Test CRC 5C3083E6 Copy CRC 5C3083E6 Accurately ripped (confidence 1) [9DBAE96A] (AR v2) Copy OK
Track 13
Filename D:\EAC\Commander Tom - Damn Trance\13 - Commander Tom - 185000 Miles Per Second.wav
Peak level 100.0 % Extraction speed 1.8 X Track quality 100.0 % Test CRC 3BAA8942 Copy CRC 3BAA8942 Accurately ripped (confidence 1) [4409B086] (AR v2) Copy OK
Track 14
Filename D:\EAC\Commander Tom - Damn Trance\14 - Cores & Vernes - Fugestives.wav
Peak level 100.0 % Extraction speed 2.0 X Track quality 100.0 % Test CRC F18D9FEB Copy CRC F18D9FEB Accurately ripped (confidence 1) [D3B0FF45] (AR v2) Copy OK
Track 15
Filename D:\EAC\Commander Tom - Damn Trance\15 - Loco - Ibiza.wav
Peak level 100.0 % Extraction speed 2.1 X Track quality 100.0 % Test CRC CF9D8498 Copy CRC CF9D8498 Accurately ripped (confidence 1) [27162AF3] (AR v2) Copy OK
Track 16
Filename D:\EAC\Commander Tom - Damn Trance\16 - Commander Tom - I Don't Need Ya Anymore.wav
Peak level 100.0 % Extraction speed 2.2 X Track quality 100.0 % Test CRC 01D61F4F Copy CRC 01D61F4F Accurately ripped (confidence 1) [C8D5584A] (AR v2) Copy OK
Track 17
Filename D:\EAC\Commander Tom - Damn Trance\17 - Commander Tom - Blast! (W.E.M.F. Touring Edition).wav
Peak level 100.0 % Extraction speed 2.2 X Track quality 100.0 % Test CRC 6C63CB68 Copy CRC 6C63CB68 Accurately ripped (confidence 1) [0165AAA3] (AR v2) Copy OK
All tracks accurately ripped
No errors occurred
End of status report
==== Log checksum 9839CFD904F629BDBF7EEABC47D4A30CCA110385812831DB6D22A4E885FE30CC ====

Содержание индексной карты (.CUE)

REM GENRE TranceREM DATE 2002REM DISCID EA0FD511REM COMMENT "ExactAudioCopy v1.0b3"PERFORMER "Commander Tom"TITLE "Damn Trance"FILE "01 - Nexus 6 - Trйs Chic (Commander Tom Remix).wav" WAVE TRACK 01 AUDIO TITLE "Trйs Chic (Commander Tom Remix)" PERFORMER "Nexus 6" INDEX 01 00:00:00FILE "02 - Alexander K. Katz - Hellgenugzudunkel.wav" WAVE TRACK 02 AUDIO TITLE "Hellgenugzudunkel" PERFORMER "Alexander K. Katz" INDEX 01 00:00:00FILE "03 - D.A.V.E. The Drummer - Hydraulix 09 A.wav" WAVE TRACK 03 AUDIO TITLE "Hydraulix 09 A" PERFORMER "D.A.V.E. The Drummer" INDEX 01 00:00:00FILE "04 - Raimond Ford & Steve Land - Guerilla.wav" WAVE TRACK 04 AUDIO TITLE "Guerilla" PERFORMER "Raimond Ford & Steve Land" INDEX 01 00:00:00FILE "05 - Redhead - Vulcano.wav" WAVE TRACK 05 AUDIO TITLE "Vulcano" PERFORMER "Redhead" INDEX 01 00:00:00FILE "06 - Si Begg - Discotool.wav" WAVE TRACK 06 AUDIO TITLE "Discotool" PERFORMER "Si Begg" INDEX 01 00:00:00FILE "07 - D.A.V.E. The Drummer - Hydraulix 011 A.wav" WAVE TRACK 07 AUDIO TITLE "Hydraulix 011 A" PERFORMER "D.A.V.E. The Drummer" INDEX 01 00:00:00FILE "08 - Commander Tom - Sweet Thang.wav" WAVE TRACK 08 AUDIO TITLE "Sweet Thang" PERFORMER "Commander Tom" INDEX 01 00:00:00FILE "09 - Sterling Moss vs. Ant - Impulz 23.wav" WAVE TRACK 09 AUDIO TITLE "Impulz 23" PERFORMER "Sterling Moss vs. Ant" INDEX 01 00:00:00FILE "10 - D.A.V.E. The Drummer - Hydraulix 09 AA.wav" WAVE TRACK 10 AUDIO TITLE "Hydraulix 09 AA" PERFORMER "D.A.V.E. The Drummer" INDEX 01 00:00:00FILE "11 - Henrik B - Recollections Ltd..wav" WAVE TRACK 11 AUDIO TITLE "Recollections Ltd." PERFORMER "Henrik B" INDEX 01 00:00:00FILE "12 - Gayle San - Chill.wav" WAVE TRACK 12 AUDIO TITLE "Chill" PERFORMER "Gayle San" INDEX 01 00:00:00FILE "13 - Commander Tom - 185000 Miles Per Second.wav" WAVE TRACK 13 AUDIO TITLE "185000 Miles Per Second" PERFORMER "Commander Tom" INDEX 01 00:00:00FILE "14 - Cores & Vernes - Fugestives.wav" WAVE TRACK 14 AUDIO TITLE "Fugestives" PERFORMER "Cores & Vernes" INDEX 01 00:00:00FILE "15 - Loco - Ibiza.wav" WAVE TRACK 15 AUDIO TITLE "Ibiza" PERFORMER "Loco" INDEX 01 00:00:00FILE "16 - Commander Tom - I Don't Need Ya Anymore.wav" WAVE TRACK 16 AUDIO TITLE "I Don't Need Ya Anymore" PERFORMER "Commander Tom" INDEX 01 00:00:00FILE "17 - Commander Tom - Blast! (W.E.M.F. Touring Edition).wav" WAVE TRACK 17 AUDIO TITLE "Blast! (W.E.M.F. Touring Edition)" PERFORMER "Commander Tom" INDEX 01 00:00:00


[islamvillage.com]_t_5639284.torrent
Торрент: Зарегистрирован ·  [ 2018-11-06 23:47 ] ·  b45bbc73a0368dec863f32173b9ee277bc7d6a14

20 KB

Статус: проверено
Скачан: 0 раз
Размер: 459 MB
Оценка: 
(Голосов: 0)
Сказали спасибо: 0  Спасибо
Похожие темы
[Профиль]    [ЛС]
Показать сообщения:    
Ответить на тему

Текущее время: Сегодня 06:39

Часовой пояс: GMT + 7



Вы не можете начинать темы
Вы не можете отвечать на сообщения
Вы не можете редактировать свои сообщения
Вы не можете удалять свои сообщения
Вы не можете голосовать в опросах
Вы не можете прикреплять файлы к сообщениям
Вы можете скачивать файлы


Lukasver online | 猫モード | 1x01 Tate no Yuusha no Nariagari