(Vocal Jazz) [CD] Billy Eckstine - Jazz \'Round Midnight (1949-1954) - 1995, FLAC (tracks+.cue), lossless

Ответить на тему
Статистика раздачи [Обновить пиров]
Размер:  173 MB   |    Зарегистрирован:  2 месяца 4 дня   |    Скачан:  0 раз

Полного источника не было: Никогда

 
   
 
 
 
Автор Сообщение

islamvillage.com

Создавать темы 13-Ноя-2018 23:54

[Цитировать]

Billy Eckstine - Jazz 'Round Midnight
Жанр: Vocal Jazz
Носитель: CD
Страна-производитель диска (релиза): США
Год издания: 1995
Издатель (лейбл): Verve Records
Номер по каталогу: 314 521 652-2
Аудиокодек: FLAC (*.flac)
Тип рипа: tracks+.cue
Битрейт аудио: lossless
Продолжительность: 49:49
Источник (релизер): redacted
Наличие сканов в содержимом раздачи: нет
Треклист:
01. Someone to Watch over Me (3:17)
02. My Old Flame (3:19)
03. The Song Is You (2:53)
04. Star Dust (2:58)
05. That Old Feeling (2:58)
06. You Leave Me Breathless (3:02)
07. What Will I Tell My Heart? (2:45)
08. September Song (3:08)
09. I've Never Been in Love Before (3:04)
10. Love Me (2:55)
11. Oh, You Crazy Moon (3:16)
12. Weaver of Dreams (3:27)
13. You're Mine, You! (3:27)
14. Coquette (3:10)
15. It Can't Be Wrong (3:09)
16. Love Me or Leave Me (3:01)

Лог создания рипа

Exact Audio Copy V1.0 beta 3 from 29. August 2011
EAC extraction logfile from 15. March 2014, 17:45
Billy Eckstine / Jazz 'Round Midnight
Used drive : HL-DT-STDVDRWBD CA10N Adapter: 1 ID: 1
Read mode : SecureUtilize accurate stream : YesDefeat audio cache : YesMake use of C2 pointers : No
Read offset correction : 667Overread into Lead-In and Lead-Out : NoFill up missing offset samples with silence : YesDelete leading and trailing silent blocks : NoNull samples used in CRC calculations : YesUsed interface : Native Win32 interface for Win NT & 2000Gap handling : Appended to previous track
Used output format : User Defined EncoderSelected bitrate : 1024 kBit/sQuality : HighAdd ID3 tag : NoCommand line compressor : C:\Program Files (x86)\Exact Audio Copy\FLAC\FLAC.EXEAdditional command line options : -8 -V -T "ARTIST=%artist%" -T "TITLE=%title%" -T "ALBUM=%albumtitle%" -T "DATE=%year%" -T "TRACKNUMBER=%tracknr1%" -T "GENRE=%genre%" -T "PERFORMER=%albuminterpret%" -T "COMPOSER=%composer%" %haslyrics%--tag-from-file=LYRICS="%lyricsfile%"%haslyrics% -T "ALBUMARTIST=%albumartist%" -T "DISCNUMBER=%cdnumber%" -T "TOTALDISCS=%totalcds%" -T "TOTALTRACKS=%numtracks%" -T "COMMENT=%comment%" %source% -o %dest%
TOC of the extracted CD
Track | Start | Length | Start sector | End sector --------------------------------------------------------- 1 | 0:00.32 | 3:17.10 | 32 | 14816 2 | 3:17.42 | 3:19.00 | 14817 | 29741 3 | 6:36.42 | 2:53.15 | 29742 | 42731 4 | 9:29.57 | 2:57.50 | 42732 | 56056 5 | 12:27.32 | 2:58.25 | 56057 | 69431 6 | 15:25.57 | 3:01.70 | 69432 | 83076 7 | 18:27.52 | 2:45.23 | 83077 | 95474 8 | 21:13.00 | 3:07.62 | 95475 | 109561 9 | 24:20.62 | 3:04.28 | 109562 | 123389 10 | 27:25.15 | 2:54.65 | 123390 | 136504 11 | 30:20.05 | 3:16.27 | 136505 | 151231 12 | 33:36.32 | 3:26.48 | 151232 | 166729 13 | 37:03.05 | 3:26.57 | 166730 | 182236 14 | 40:29.62 | 3:10.25 | 182237 | 196511 15 | 43:40.12 | 3:08.43 | 196512 | 210654 16 | 46:48.55 | 3:00.52 | 210655 | 224206
Track 1
Filename H:\What.CD\My FLAC\01 - Someone to Watch Over Me.wav
Pre-gap length 0:00:02.42
Peak level 86.8 % Extraction speed 2.8 X Track quality 100.0 % Test CRC 64169C51 Copy CRC 64169C51 Accurately ripped (confidence 3) [3CFF31E6] (AR v2) Copy OK
Track 2
Filename H:\What.CD\My FLAC\02 - My Old Fame.wav
Pre-gap length 0:00:02.82
Peak level 100.0 % Extraction speed 3.1 X Track quality 100.0 % Test CRC 240D0E41 Copy CRC 240D0E41 Accurately ripped (confidence 3) [2FF0CE65] (AR v2) Copy OK
Track 3
Filename H:\What.CD\My FLAC\03 - The Song is You.wav
Pre-gap length 0:00:02.82
Peak level 93.8 % Extraction speed 3.2 X Track quality 100.0 % Test CRC 7EECE015 Copy CRC 7EECE015 Accurately ripped (confidence 3) [11214EF1] (AR v2) Copy OK
Track 4
Filename H:\What.CD\My FLAC\04 - Star Dust.wav
Pre-gap length 0:00:02.82
Peak level 75.5 % Extraction speed 3.4 X Track quality 100.0 % Test CRC 7E5A0373 Copy CRC 7E5A0373 Accurately ripped (confidence 3) [31231172] (AR v2) Copy OK
Track 5
Filename H:\What.CD\My FLAC\05 - That Old Feeling.wav
Pre-gap length 0:00:02.82
Peak level 74.4 % Extraction speed 3.5 X Track quality 100.0 % Test CRC 8BD69266 Copy CRC 8BD69266 Accurately ripped (confidence 3) [B79004C5] (AR v2) Copy OK
Track 6
Filename H:\What.CD\My FLAC\06 - You Leave Me Breathless.wav
Pre-gap length 0:00:02.82
Peak level 67.7 % Extraction speed 3.0 X Track quality 99.9 % Test CRC 50C5F661 Copy CRC 50C5F661 Accurately ripped (confidence 3) [E296F12E] (AR v2) Copy OK
Track 7
Filename H:\What.CD\My FLAC\07 - What Will I Tell My Heart.wav
Pre-gap length 0:00:02.82
Peak level 64.5 % Extraction speed 3.1 X Track quality 99.9 % Test CRC 2883C4E1 Copy CRC 2883C4E1 Accurately ripped (confidence 3) [5C0E8C86] (AR v2) Copy OK
Track 8
Filename H:\What.CD\My FLAC\08 - September Song.wav
Pre-gap length 0:00:02.84
Peak level 79.2 % Extraction speed 4.1 X Track quality 100.0 % Test CRC F7AECDB1 Copy CRC F7AECDB1 Accurately ripped (confidence 3) [F72356DE] (AR v2) Copy OK
Track 9
Filename H:\What.CD\My FLAC\09 - I've Never Been in Love Before.wav
Pre-gap length 0:00:02.82
Peak level 86.5 % Extraction speed 4.3 X Track quality 100.0 % Test CRC 53F39E54 Copy CRC 53F39E54 Accurately ripped (confidence 3) [0CEF2C02] (AR v2) Copy OK
Track 10
Filename H:\What.CD\My FLAC\10 - Love Me.wav
Pre-gap length 0:00:02.84
Peak level 77.2 % Extraction speed 4.3 X Track quality 100.0 % Test CRC 490306CC Copy CRC 490306CC Accurately ripped (confidence 3) [10509C63] (AR v2) Copy OK
Track 11
Filename H:\What.CD\My FLAC\11 - Oh, You Crazy Moon.wav
Pre-gap length 0:00:02.84
Peak level 73.7 % Extraction speed 4.6 X Track quality 100.0 % Test CRC CAA1D967 Copy CRC CAA1D967 Accurately ripped (confidence 3) [A93BDA6E] (AR v2) Copy OK
Track 12
Filename H:\What.CD\My FLAC\12 - Weaver of Dreams.wav
Pre-gap length 0:00:02.82
Peak level 72.1 % Extraction speed 4.8 X Track quality 100.0 % Test CRC 4A0FC905 Copy CRC 4A0FC905 Accurately ripped (confidence 3) [1E2D330A] (AR v2) Copy OK
Track 13
Filename H:\What.CD\My FLAC\13 - You're Mine, You!.wav
Pre-gap length 0:00:02.84
Peak level 70.0 % Extraction speed 4.9 X Track quality 100.0 % Test CRC CED5899D Copy CRC CED5899D Accurately ripped (confidence 3) [B6435BE0] (AR v2) Copy OK
Track 14
Filename H:\What.CD\My FLAC\14 - Coquette.wav
Pre-gap length 0:00:02.82
Peak level 84.6 % Extraction speed 5.0 X Track quality 100.0 % Test CRC D23EA394 Copy CRC D23EA394 Accurately ripped (confidence 3) [A9254B4E] (AR v2) Copy OK
Track 15
Filename H:\What.CD\My FLAC\15 - It Can't Be Wrong.wav
Pre-gap length 0:00:02.82
Peak level 80.8 % Extraction speed 4.2 X Track quality 99.9 % Test CRC 68580943 Copy CRC 68580943 Accurately ripped (confidence 2) [85D61DCF] (AR v2) Copy OK
Track 16
Filename H:\What.CD\My FLAC\16 - Love Me or Leave Me.wav
Pre-gap length 0:00:02.84
Peak level 79.4 % Extraction speed 5.2 X Track quality 100.0 % Test CRC 1B4F083A Copy CRC 1B4F083A Accurately ripped (confidence 3) [D75C203F] (AR v2) Copy OK
All tracks accurately ripped
No errors occurred
End of status report
==== Log checksum 7C104E827343122DFA1EA3BEA1FBA409C160C4AE28D231C68A9718482F91BB30 ====

Содержание индексной карты (.CUE)

REM GENRE JazzREM DATE 1994REM DISCID D90BAD10REM COMMENT "ExactAudioCopy v1.0b3"PERFORMER "Billy Eckstine"TITLE "Jazz 'Round Midnight"FILE "01 - Someone to Watch over Me.wav" WAVE TRACK 01 AUDIO TITLE "Someone to Watch over Me" PERFORMER "Billy Eckstine" ISRC USPR39401188 PREGAP 00:00:32 INDEX 01 00:00:00 TRACK 02 AUDIO TITLE "My Old Flame" PERFORMER "Billy Eckstine" ISRC USPR39401189 INDEX 00 03:14:23FILE "02 - My Old Flame.wav" WAVE INDEX 01 00:00:00 TRACK 03 AUDIO TITLE "The Song Is You" PERFORMER "Billy Eckstine" ISRC USPR39401190 INDEX 00 03:16:13FILE "03 - The Song Is You.wav" WAVE INDEX 01 00:00:00 TRACK 04 AUDIO TITLE "Star Dust" PERFORMER "Billy Eckstine" ISRC USPR39401191 INDEX 00 02:50:28FILE "04 - Star Dust.wav" WAVE INDEX 01 00:00:00 TRACK 05 AUDIO TITLE "That Old Feeling" PERFORMER "Billy Eckstine" ISRC USPR39401192 INDEX 00 02:54:63FILE "05 - That Old Feeling.wav" WAVE INDEX 01 00:00:00 TRACK 06 AUDIO TITLE "You Leave Me Breathless" PERFORMER "Billy Eckstine" ISRC USPR39401193 INDEX 00 02:55:38FILE "06 - You Leave Me Breathless.wav" WAVE INDEX 01 00:00:00 TRACK 07 AUDIO TITLE "What Will I Tell My Heart?" PERFORMER "Billy Eckstine" ISRC USPR39401194 INDEX 00 02:59:08FILE "07 - What Will I Tell My Heart.wav" WAVE INDEX 01 00:00:00 TRACK 08 AUDIO TITLE "September Song" PERFORMER "Billy Eckstine" ISRC USPR39401195 INDEX 00 02:42:35FILE "08 - September Song.wav" WAVE INDEX 01 00:00:00 TRACK 09 AUDIO TITLE "I've Never Been in Love Before" PERFORMER "Billy Eckstine" ISRC USPR39401196 INDEX 00 03:05:00FILE "09 - I've Never Been in Love Before.wav" WAVE INDEX 01 00:00:00 TRACK 10 AUDIO TITLE "Love Me" PERFORMER "Billy Eckstine" ISRC USPR39401197 INDEX 00 03:01:40FILE "10 - Love Me.wav" WAVE INDEX 01 00:00:00 TRACK 11 AUDIO TITLE "Oh, You Crazy Moon" PERFORMER "Billy Eckstine" ISRC USPR39401198 INDEX 00 02:52:02FILE "11 - Oh, You Crazy Moon.wav" WAVE INDEX 01 00:00:00 TRACK 12 AUDIO TITLE "Weaver of Dreams" PERFORMER "Billy Eckstine" ISRC USPR39401199 INDEX 00 03:13:40FILE "12 - Weaver of Dreams.wav" WAVE INDEX 01 00:00:00 TRACK 13 AUDIO TITLE "You're Mine, You!" PERFORMER "Billy Eckstine" ISRC USPR39401200 INDEX 00 03:23:60FILE "13 - You're Mine, You!.wav" WAVE INDEX 01 00:00:00 TRACK 14 AUDIO TITLE "Coquette" PERFORMER "Billy Eckstine" ISRC USPR39401201 INDEX 00 03:23:70FILE "14 - Coquette.wav" WAVE INDEX 01 00:00:00 TRACK 15 AUDIO TITLE "It Can't Be Wrong" PERFORMER "Billy Eckstine" ISRC USPR39401202 INDEX 00 03:07:38FILE "15 - It Can't Be Wrong.wav" WAVE INDEX 01 00:00:00 TRACK 16 AUDIO TITLE "Love Me or Leave Me" PERFORMER "Billy Eckstine" ISRC USPR39401203 INDEX 00 03:05:55FILE "16 - Love Me or Leave Me.wav" WAVE INDEX 01 00:00:00

Отчет CUETools

[CUETools log; Date: 11.11.2018 20:35:42; Version: 2.1.5]Pregap length 00:00:32.[CTDB TOCID: vaAFvTicrWUZZdjszQt2Xe7voAE-] found.Track | CTDB Status 1 | (7/7) Accurately ripped 2 | (7/7) Accurately ripped 3 | (7/7) Accurately ripped 4 | (7/7) Accurately ripped 5 | (7/7) Accurately ripped 6 | (7/7) Accurately ripped 7 | (7/7) Accurately ripped 8 | (7/7) Accurately ripped 9 | (7/7) Accurately ripped 10 | (7/7) Accurately ripped 11 | (7/7) Accurately ripped 12 | (7/7) Accurately ripped 13 | (7/7) Accurately ripped 14 | (7/7) Accurately ripped 15 | (7/7) Accurately ripped 16 | (7/7) Accurately ripped[AccurateRip ID: 001ce02a-015aa194-d90bad10] found.Track [ CRC | V2 ] Status 01 [03ce1e10|3cff31e6] (05+06/11) Accurately ripped 02 [36cf2149|2ff0ce65] (05+07/12) Accurately ripped 03 [91423559|11214ef1] (05+07/12) Accurately ripped 04 [15c3fca0|31231172] (05+07/12) Accurately ripped 05 [e24242e2|b79004c5] (05+07/12) Accurately ripped 06 [4bd48cab|e296f12e] (05+06/11) Accurately ripped 07 [e1d68639|5c0e8c86] (04+07/11) Accurately ripped 08 [2a6005c9|f72356de] (05+07/12) Accurately ripped 09 [17f0d421|0cef2c02] (05+06/11) Accurately ripped 10 [a8fed93c|10509c63] (04+07/11) Accurately ripped 11 [78b90a3a|a93bda6e] (05+07/12) Accurately ripped 12 [870f6b87|1e2d330a] (05+06/11) Accurately ripped 13 [f2b971c3|b6435be0] (05+07/12) Accurately ripped 14 [427b1459|a9254b4e] (05+06/11) Accurately ripped 15 [f8eba5bf|85d61dcf] (05+06/11) Accurately ripped 16 [2c0909f7|d75c203f] (05+07/12) Accurately ripped
Track Peak [ CRC32 ] [W/O NULL] [ LOG ] -- 100,0 [EE6B4A81] [AD29E861] 01 86,7 [64169C51] [E648C62F] CRC32 02 100,0 [240D0E41] [B223ADF7] CRC32 03 93,8 [7EECE015] [BCAF6E0B] CRC32 04 75,5 [7E5A0373] [A6A44F1B] CRC32 05 74,4 [8BD69266] [A4F6A7DC] CRC32 06 67,7 [50C5F661] [2EFA82AD] CRC32 07 64,5 [2883C4E1] [8B2AC5B0] CRC32 08 79,2 [F7AECDB1] [815FFFD4] CRC32 09 86,5 [53F39E54] [459A9654] CRC32 10 77,2 [490306CC] [2CC58EE6] CRC32 11 73,7 [CAA1D967] [951D4C55] CRC32 12 72,1 [4A0FC905] [CDE1CDDB] CRC32 13 70,0 [CED5899D] [FA6DE730] CRC32 14 84,6 [D23EA394] [62E2EF8A] CRC32 15 80,8 [68580943] [D3217040] CRC32 16 79,4 [1B4F083A] [2836B47F] CRC32


[islamvillage.com]_t_5643140.torrent
Торрент: Зарегистрирован ·  [ 2018-11-13 23:52 ] ·  a44c065ef16453909859f7ba6cd6c4cefb91fc00

15 KB

Статус: проверено
Скачан: 0 раз
Размер: 173 MB
Оценка: 
(Голосов: 0)
Сказали спасибо: 0  Спасибо
Похожие темы
[Профиль]    [ЛС]
Показать сообщения:    
Ответить на тему

Текущее время: Сегодня 06:27

Часовой пояс: GMT + 7



Вы не можете начинать темы
Вы не можете отвечать на сообщения
Вы не можете редактировать свои сообщения
Вы не можете удалять свои сообщения
Вы не можете голосовать в опросах
Вы не можете прикреплять файлы к сообщениям
Вы можете скачивать файлы


Azerbaijan | Marcos digitales | BABY BORN DOLLS CLOTHES RED or WHITE SUMMER WITH HEARTS OUTFIT