(Vocal Jazz) [CD] Anita O\'Day - Jazz \'Round Midnight (1954-1962) - 1997, FLAC (tracks+.cue), lossless

Ответить на тему
Статистика раздачи [Обновить пиров]
Размер:  251 MB   |    Зарегистрирован:  2 месяца 4 дня   |    Скачан:  0 раз

Полного источника не было: Никогда

 
   
 
 
 
Автор Сообщение

islamvillage.com

Создавать темы 13-Ноя-2018 23:54

[Цитировать]

Anita O'Day - Jazz 'Round Midnight
Жанр: Vocal Jazz
Носитель: CD
Страна-производитель диска (релиза): США
Год издания: 1997
Издатель (лейбл): Verve Records
Номер по каталогу: 314 537 703-2
Аудиокодек: FLAC (*.flac)
Тип рипа: tracks+.cue
Битрейт аудио: lossless
Продолжительность: 55:29
Источник (релизер): talzer
Наличие сканов в содержимом раздачи: нет
Треклист:
01. Angel Eyes (3:41)
02. A Nightingale Sang in Berkeley Square (4:04)
03. We'll Be Together Again (3:39)
04. I Cover the Waterfront (3:50)
05. If the Moon Turns Green (2:56)
06. Early Autumn (3:11)
07. I'm Not Lonely (3:07)
08. A Lover Is Blue (3:03)
09. Tenderly (3:22)
10. I'm Not Supposed to Be Blue Blues (2:30)
11. You Came a Long Way from St. Louis (4:15)
12. Trav'lin' Light (3:37)
13. Man with a Horn (3:57)
14. I Can't Get Started (3:55)
15. You Don't Know What Love Is (2:57)
16. Crazy, He Calls Me (3:25)

Лог создания рипа

Exact Audio Copy V1.3 from 2. September 2016
EAC extraction logfile from 3. November 2018, 9:59
Anita O’Day / Jazz 'Round Midnight
Used drive : Dell DVD+/-RW DW316 Adapter: 1 ID: 0
Read mode : SecureUtilize accurate stream : YesDefeat audio cache : YesMake use of C2 pointers : No
Read offset correction : 6Overread into Lead-In and Lead-Out : NoFill up missing offset samples with silence : YesDelete leading and trailing silent blocks : NoNull samples used in CRC calculations : YesUsed interface : Native Win32 interface for Win NT & 2000Gap handling : Appended to previous track
Used output format : User Defined EncoderSelected bitrate : 1024 kBit/sQuality : HighAdd ID3 tag : NoCommand line compressor : C:\Program Files (x86)\Exact Audio Copy\Flac\flac.exeAdditional command line options : -8 -e -p -V -T "ARTIST=%artist%" -T "TITLE=%title%" -T "ALBUM=%albumtitle%" -T "DATE=%year%" -T "TRACKNUMBER=%tracknr%" -T "GENRE=%genre%" -T "PERFORMER=%albuminterpret%" -T "COMPOSER=%composer%" %haslyrics%--tag-from-file=LYRICS="%lyricsfile%"%haslyrics% -T "ALBUMARTIST=%albumartist%" -T "DISCNUMBER=%cdnumber%" -T "TOTALDISCS=%totalcds%" -T "TOTALTRACKS=%numtracks%" -T "COMMENT=%comment%" %source% -o %dest%
TOC of the extracted CD
Track | Start | Length | Start sector | End sector --------------------------------------------------------- 1 | 0:00.00 | 3:40.52 | 0 | 16551 2 | 3:40.52 | 4:03.45 | 16552 | 34821 3 | 7:44.22 | 3:38.40 | 34822 | 51211 4 | 11:22.62 | 3:49.48 | 51212 | 68434 5 | 15:12.35 | 2:56.25 | 68435 | 81659 6 | 18:08.60 | 3:10.52 | 81660 | 95961 7 | 21:19.37 | 3:06.45 | 95962 | 109956 8 | 24:26.07 | 3:02.60 | 109957 | 123666 9 | 27:28.67 | 3:22.10 | 123667 | 138826 10 | 30:51.02 | 2:29.45 | 138827 | 150046 11 | 33:20.47 | 4:14.73 | 150047 | 169169 12 | 37:35.45 | 3:36.62 | 169170 | 185431 13 | 41:12.32 | 3:57.13 | 185432 | 203219 14 | 45:09.45 | 3:55.35 | 203220 | 220879 15 | 49:05.05 | 2:56.70 | 220880 | 234149 16 | 52:02.00 | 3:24.45 | 234150 | 249494
Track 1
Filename C:\Dropbox\EAC\Anita O'Day - Jazz 'Round Midnight (1997) [FLAC] {314 537 703-2}\01. Angel Eyes.wav
Pre-gap length 0:00:02.00
Peak level 96.8 % Extraction speed 1.1 X Track quality 100.0 % Test CRC 9B549C77 Copy CRC 9B549C77 Accurately ripped (confidence 3) [044BB786] (AR v2) Copy OK
Track 2
Filename C:\Dropbox\EAC\Anita O'Day - Jazz 'Round Midnight (1997) [FLAC] {314 537 703-2}\02. A Nightingale Sang in Berkeley Square.wav
Pre-gap length 0:00:01.89
Peak level 86.2 % Extraction speed 1.2 X Track quality 100.0 % Test CRC FC51F7B9 Copy CRC FC51F7B9 Accurately ripped (confidence 3) [4F8870DE] (AR v2) Copy OK
Track 3
Filename C:\Dropbox\EAC\Anita O'Day - Jazz 'Round Midnight (1997) [FLAC] {314 537 703-2}\03. We'll Be Together Again.wav
Pre-gap length 0:00:02.36
Peak level 79.2 % Extraction speed 1.3 X Track quality 100.0 % Test CRC F126ECC8 Copy CRC F126ECC8 Accurately ripped (confidence 3) [D691F274] (AR v2) Copy OK
Track 4
Filename C:\Dropbox\EAC\Anita O'Day - Jazz 'Round Midnight (1997) [FLAC] {314 537 703-2}\04. I Cover the Waterfront.wav
Pre-gap length 0:00:01.33
Peak level 80.3 % Extraction speed 1.4 X Track quality 100.0 % Test CRC DA4662DB Copy CRC DA4662DB Accurately ripped (confidence 3) [D63BB2CE] (AR v2) Copy OK
Track 5
Filename C:\Dropbox\EAC\Anita O'Day - Jazz 'Round Midnight (1997) [FLAC] {314 537 703-2}\05. If the Moon Turns Green.wav
Pre-gap length 0:00:04.17
Peak level 100.0 % Extraction speed 1.5 X Track quality 100.0 % Test CRC C2CBA9A0 Copy CRC C2CBA9A0 Accurately ripped (confidence 3) [52645B05] (AR v2) Copy OK
Track 6
Filename C:\Dropbox\EAC\Anita O'Day - Jazz 'Round Midnight (1997) [FLAC] {314 537 703-2}\06. Early Autumn.wav
Pre-gap length 0:00:02.37
Peak level 100.0 % Extraction speed 1.6 X Track quality 100.0 % Test CRC 607818B6 Copy CRC 607818B6 Accurately ripped (confidence 3) [2273D938] (AR v2) Copy OK
Track 7
Filename C:\Dropbox\EAC\Anita O'Day - Jazz 'Round Midnight (1997) [FLAC] {314 537 703-2}\07. I'm Not Lonely.wav
Pre-gap length 0:00:01.36
Peak level 88.0 % Extraction speed 1.6 X Track quality 100.0 % Test CRC C3F77E4E Copy CRC C3F77E4E Accurately ripped (confidence 3) [A1B97E5E] (AR v2) Copy OK
Track 8
Filename C:\Dropbox\EAC\Anita O'Day - Jazz 'Round Midnight (1997) [FLAC] {314 537 703-2}\08. A Lover Is Blue.wav
Pre-gap length 0:00:02.36
Peak level 94.0 % Extraction speed 1.7 X Track quality 100.0 % Test CRC 407D44ED Copy CRC 407D44ED Accurately ripped (confidence 3) [66334FDF] (AR v2) Copy OK
Track 9
Filename C:\Dropbox\EAC\Anita O'Day - Jazz 'Round Midnight (1997) [FLAC] {314 537 703-2}\09. Tenderly.wav
Pre-gap length 0:00:02.16
Peak level 99.9 % Extraction speed 1.8 X Track quality 100.0 % Test CRC 3D5923BC Copy CRC 3D5923BC Accurately ripped (confidence 3) [472325EA] (AR v2) Copy OK
Track 10
Filename C:\Dropbox\EAC\Anita O'Day - Jazz 'Round Midnight (1997) [FLAC] {314 537 703-2}\10. I'm Not Supposed to Be Blue Blues.wav
Pre-gap length 0:00:01.82
Peak level 88.2 % Extraction speed 1.7 X Track quality 100.0 % Test CRC 09C229A8 Copy CRC 09C229A8 Accurately ripped (confidence 3) [4EC884FF] (AR v2) Copy OK
Track 11
Filename C:\Dropbox\EAC\Anita O'Day - Jazz 'Round Midnight (1997) [FLAC] {314 537 703-2}\11. You Came a Long Way From St Louis.wav
Pre-gap length 0:00:02.16
Peak level 99.9 % Extraction speed 1.7 X Track quality 99.9 % Test CRC D49F061F Copy CRC D49F061F Accurately ripped (confidence 3) [F0B4817E] (AR v2) Copy OK
Track 12
Filename C:\Dropbox\EAC\Anita O'Day - Jazz 'Round Midnight (1997) [FLAC] {314 537 703-2}\12. Trav'lin' Light.wav
Pre-gap length 0:00:02.20
Peak level 94.8 % Extraction speed 2.0 X Track quality 100.0 % Test CRC 8CA2B65A Copy CRC 8CA2B65A Accurately ripped (confidence 3) [9EEA9B0A] (AR v2) Copy OK
Track 13
Filename C:\Dropbox\EAC\Anita O'Day - Jazz 'Round Midnight (1997) [FLAC] {314 537 703-2}\13. Man With a Horn.wav
Pre-gap length 0:00:01.73
Peak level 77.1 % Extraction speed 2.1 X Track quality 100.0 % Test CRC FC5A056C Copy CRC FC5A056C Accurately ripped (confidence 3) [F7336836] (AR v2) Copy OK
Track 14
Filename C:\Dropbox\EAC\Anita O'Day - Jazz 'Round Midnight (1997) [FLAC] {314 537 703-2}\14. I Can't Get Started.wav
Pre-gap length 0:00:01.93
Peak level 84.7 % Extraction speed 2.1 X Track quality 100.0 % Test CRC 81668CFA Copy CRC 81668CFA Accurately ripped (confidence 3) [C4C4D4B2] (AR v2) Copy OK
Track 15
Filename C:\Dropbox\EAC\Anita O'Day - Jazz 'Round Midnight (1997) [FLAC] {314 537 703-2}\15. You Don't Know What Love Is.wav
Pre-gap length 0:00:02.33
Peak level 100.0 % Extraction speed 1.8 X Track quality 99.9 % Test CRC 238F0766 Copy CRC 238F0766 Accurately ripped (confidence 3) [5290BB32] (AR v2) Copy OK
Track 16
Filename C:\Dropbox\EAC\Anita O'Day - Jazz 'Round Midnight (1997) [FLAC] {314 537 703-2}\16. Crazy, He Calls Me.wav
Pre-gap length 0:00:02.06
Peak level 85.2 % Extraction speed 2.2 X Track quality 100.0 % Test CRC 7E7810D5 Copy CRC 7E7810D5 Accurately ripped (confidence 3) [695DCBE7] (AR v2) Copy OK
All tracks accurately ripped
No errors occurred
End of status report
---- CUETools DB Plugin V2.1.6
[CTDB TOCID: lV0HhTnXmuRfAcT.cirw4zGb6_4-] foundSubmit result: lV0HhTnXmuRfAcT.cirw4zGb6_4- has been confirmedTrack | CTDB Status 1 | (6/6) Accurately ripped 2 | (6/6) Accurately ripped 3 | (6/6) Accurately ripped 4 | (6/6) Accurately ripped 5 | (6/6) Accurately ripped 6 | (6/6) Accurately ripped 7 | (6/6) Accurately ripped 8 | (6/6) Accurately ripped 9 | (6/6) Accurately ripped 10 | (6/6) Accurately ripped 11 | (6/6) Accurately ripped 12 | (6/6) Accurately ripped 13 | (6/6) Accurately ripped 14 | (6/6) Accurately ripped 15 | (6/6) Accurately ripped 16 | (6/6) Accurately ripped
==== Log checksum E1E6B36E36D57C1FAA20C47160C80898F6060467856F20144ECE97CC71E71F58 ====

Содержание индексной карты (.CUE)

REM GENRE JazzREM DATE 1997REM DISCID CE0CFE10REM COMMENT "ExactAudioCopy v1.3"PERFORMER "Anita O'Day"TITLE "Jazz 'Round Midnight"FILE "01 - Angel Eyes.wav" WAVE TRACK 01 AUDIO TITLE "Angel Eyes" PERFORMER "Anita O'Day" INDEX 01 00:00:00 TRACK 02 AUDIO TITLE "A Nightingale Sang in Berkeley Square" PERFORMER "Anita O'Day" INDEX 00 03:38:60FILE "02 - A Nightingale Sang in Berkeley Square.wav" WAVE INDEX 01 00:00:00 TRACK 03 AUDIO TITLE "We'll Be Together Again" PERFORMER "Anita O'Day" INDEX 00 04:01:18FILE "03 - We'll Be Together Again.wav" WAVE INDEX 01 00:00:00 TRACK 04 AUDIO TITLE "I Cover the Waterfront" PERFORMER "Anita O'Day" INDEX 00 03:37:15FILE "04 - I Cover the Waterfront.wav" WAVE INDEX 01 00:00:00 TRACK 05 AUDIO TITLE "If the Moon Turns Green" PERFORMER "Anita O'Day" INDEX 00 03:45:35FILE "05 - If the Moon Turns Green.wav" WAVE INDEX 01 00:00:00 TRACK 06 AUDIO TITLE "Early Autumn" PERFORMER "Anita O'Day" INDEX 00 02:53:72FILE "06 - Early Autumn.wav" WAVE INDEX 01 00:00:00 TRACK 07 AUDIO TITLE "I'm Not Lonely" PERFORMER "Anita O'Day" INDEX 00 03:09:25FILE "07 - I'm Not Lonely.wav" WAVE INDEX 01 00:00:00 TRACK 08 AUDIO TITLE "A Lover Is Blue" PERFORMER "Anita O'Day" INDEX 00 03:04:18FILE "08 - A Lover Is Blue.wav" WAVE INDEX 01 00:00:00 TRACK 09 AUDIO TITLE "Tenderly" PERFORMER "Anita O'Day" INDEX 00 03:00:48FILE "09 - Tenderly.wav" WAVE INDEX 01 00:00:00 TRACK 10 AUDIO TITLE "I'm Not Supposed to Be Blue Blues" PERFORMER "Anita O'Day" INDEX 00 03:20:23FILE "10 - I'm Not Supposed to Be Blue Blues.wav" WAVE INDEX 01 00:00:00 TRACK 11 AUDIO TITLE "You Came a Long Way from St. Louis" PERFORMER "Anita O'Day" INDEX 00 02:27:33FILE "11 - You Came a Long Way from St. Louis.wav" WAVE INDEX 01 00:00:00 TRACK 12 AUDIO TITLE "Trav'lin' Light" PERFORMER "Anita O'Day" INDEX 00 04:12:58FILE "12 - Trav'lin' Light.wav" WAVE INDEX 01 00:00:00 TRACK 13 AUDIO TITLE "Man with a Horn" PERFORMER "Anita O'Day" INDEX 00 03:35:07FILE "13 - Man with a Horn.wav" WAVE INDEX 01 00:00:00 TRACK 14 AUDIO TITLE "I Can't Get Started" PERFORMER "Anita O'Day" INDEX 00 03:55:18FILE "14 - I Can't Get Started.wav" WAVE INDEX 01 00:00:00 TRACK 15 AUDIO TITLE "You Don't Know What Love Is" PERFORMER "Anita O'Day" INDEX 00 03:53:10FILE "15 - You Don't Know What Love Is.wav" WAVE INDEX 01 00:00:00 TRACK 16 AUDIO TITLE "Crazy, He Calls Me" PERFORMER "Anita O'Day" INDEX 00 02:54:65FILE "16 - Crazy, He Calls Me.wav" WAVE INDEX 01 00:00:00

Отчет CUETools

[CUETools log; Date: 11.11.2018 17:48:21; Version: 2.1.5][CTDB TOCID: lV0HhTnXmuRfAcT.cirw4zGb6_4-] found.Track | CTDB Status 1 | (7/7) Accurately ripped 2 | (7/7) Accurately ripped 3 | (7/7) Accurately ripped 4 | (7/7) Accurately ripped 5 | (7/7) Accurately ripped 6 | (7/7) Accurately ripped 7 | (7/7) Accurately ripped 8 | (7/7) Accurately ripped 9 | (7/7) Accurately ripped 10 | (7/7) Accurately ripped 11 | (7/7) Accurately ripped 12 | (7/7) Accurately ripped 13 | (7/7) Accurately ripped 14 | (7/7) Accurately ripped 15 | (7/7) Accurately ripped 16 | (7/7) Accurately ripped[AccurateRip ID: 00208df0-01848ea5-ce0cfe10] found.Track [ CRC | V2 ] Status 01 [ce69b157|044bb786] (3+3/6) Accurately ripped 02 [6d1158ae|4f8870de] (3+3/6) Accurately ripped 03 [891e4506|d691f274] (3+3/6) Accurately ripped 04 [c5079c08|d63bb2ce] (3+3/6) Accurately ripped 05 [0a71d473|52645b05] (3+3/6) Accurately ripped 06 [6da48538|2273d938] (3+3/6) Accurately ripped 07 [b95802b6|a1b97e5e] (3+3/6) Accurately ripped 08 [f56c6c9a|66334fdf] (3+3/6) Accurately ripped 09 [dc3450f7|472325ea] (3+3/6) Accurately ripped 10 [7936b116|4ec884ff] (3+3/6) Accurately ripped 11 [7bbb7179|f0b4817e] (3+3/6) Accurately ripped 12 [b3d2557f|9eea9b0a] (3+3/6) Accurately ripped 13 [3fbbfa07|f7336836] (3+3/6) Accurately ripped 14 [5613046e|c4c4d4b2] (3+3/6) Accurately ripped 15 [34115fb8|5290bb32] (3+3/6) Accurately ripped 16 [d83fc8c8|695dcbe7] (3+3/6) Accurately ripped
Track Peak [ CRC32 ] [W/O NULL] [ LOG ] -- 99,9 [2E80E80B] [68A942EB] 01 96,8 [9B549C77] [987B783B] CRC32 02 86,2 [FC51F7B9] [5152E672] CRC32 03 79,2 [F126ECC8] [37906EFF] CRC32 04 80,3 [DA4662DB] [89CD42E2] CRC32 05 99,9 [C2CBA9A0] [4C9533E5] CRC32 06 99,9 [607818B6] [3F533ACF] CRC32 07 88,0 [C3F77E4E] [22FA6E23] CRC32 08 94,0 [407D44ED] [FCB15392] CRC32 09 99,9 [3D5923BC] [28E08D1E] CRC32 10 88,2 [09C229A8] [8F2A44C0] CRC32 11 99,9 [D49F061F] [BD59C267] CRC32 12 94,8 [8CA2B65A] [F79C3DB0] CRC32 13 77,1 [FC5A056C] [F8C501BE] CRC32 14 84,7 [81668CFA] [70A38CF6] CRC32 15 99,9 [238F0766] [9C1FDA3D] CRC32 16 85,2 [7E7810D5] [4E387F18] CRC32

AllMusic Review by Stephen Cook

In keeping with the Jazz 'Round Midnight theme, this Anita O'Day sampler errs on the mellow side of things with 16 after-hours gems from the lady of bop vocal rhythm. For fans more interested in sampling all of O'Day's talents, though, there's such well-balanced Verve collection as Jazz Masters and Compact Jazz to check out. But, if your optimal inroad to jazz vocals is a smooth one, this disc -- with ballad highlights like "Man With a Horn," "I'm Not Lonely," and "Early Autumn" -- will make for ideal listening. And while O'Day is not the first word in jazz ballads (think June Christy or Ella Fitzgerald), her beguiling delivery -- along with the disc's wealth of top-notch charts and amazing cast of sidemen -- makes up for any lack of rarefied mood moments. Packed with gems from the singer's '50s and early-'60s prime, Jazz 'Round Midnight: Anita O'Day will make the familiarizing process as easy as sipping a glass of French red.


[islamvillage.com]_t_5643015.torrent
Торрент: Зарегистрирован ·  [ 2018-11-13 23:52 ] ·  eff2011e3d6b0af7b278ed1f41b93ea0c47ad9b9

21 KB

Статус: проверено
Скачан: 0 раз
Размер: 251 MB
Оценка: 
(Голосов: 0)
Сказали спасибо: 0  Спасибо
Похожие темы
[Профиль]    [ЛС]
Показать сообщения:    
Ответить на тему

Текущее время: Сегодня 06:07

Часовой пояс: GMT + 7



Вы не можете начинать темы
Вы не можете отвечать на сообщения
Вы не можете редактировать свои сообщения
Вы не можете удалять свои сообщения
Вы не можете голосовать в опросах
Вы не можете прикреплять файлы к сообщениям
Вы можете скачивать файлы


Tutar mı Tutar | Brad McMurray | GN Bundle for iWork – Templates 6.1