(Vocal Jazz) [CD] Coco Favre - Introducing Coco Favre - 2014, FLAC (tracks+.cue), lossless

Ответить на тему
Статистика раздачи [Обновить пиров]
Размер:  300 MB   |    Зарегистрирован:  2 месяца 4 дня   |    Скачан:  0 раз

Полного источника не было: Никогда

 
   
 
 
 
Автор Сообщение

islamvillage.com

Создавать темы 13-Ноя-2018 23:54

[Цитировать]

Coco Favre - Introducing Coco Favre
Жанр: Vocal Jazz
Носитель: CD
Страна-производитель диска (релиза): Новая Зеландия
Год издания: 2014
Издатель (лейбл): Self-Released
Аудиокодек: FLAC (*.flac)
Тип рипа: tracks+.cue
Битрейт аудио: lossless
Продолжительность: 49:38
Источник (релизер): herms
Наличие сканов в содержимом раздачи: нет
Треклист:
01. Devil May Care (2:45)
02. Fat Daddy (3:22)
03. Inolvidable (4:51)
04. Lullaby of Birdland (4:25)
05. Charmed Life (3:29)
06. Jodida Pero Conteta (5:18)
07. Down with Love (2:32)
08. East of the Sun (And West of the Moon) (4:20)
09. Who Will Comfort Me (5:44)
10. Mon Bel Amour (3:26)
11. It Don't Mean a Thing (If It Ain't Got That Swing) (5:58)
12. You're Gonna See a Lot of Me (3:28)
Состав:
Coco Favre - vocals
Ben Wilcock - piano, Fender Rhodes
Rowan Clark - double bass
Reuben Bradley - drums

Лог создания рипа

Exact Audio Copy V1.0 beta 3 from 29. August 2011
EAC extraction logfile from 8. October 2017, 18:30
Coco Favre / Introducing Coc Favre
Used drive : HL-DT-STBDDVDRW CH12NS30 Adapter: 0 ID: 0
Read mode : SecureUtilize accurate stream : YesDefeat audio cache : YesMake use of C2 pointers : No
Read offset correction : 6Overread into Lead-In and Lead-Out : NoFill up missing offset samples with silence : YesDelete leading and trailing silent blocks : NoNull samples used in CRC calculations : YesUsed interface : Native Win32 interface for Win NT & 2000Gap handling : Appended to previous track
Used output format : User Defined EncoderSelected bitrate : 1024 kBit/sQuality : HighAdd ID3 tag : NoCommand line compressor : C:\Program Files (x86)\Exact Audio Copy\Flac\flac.exeAdditional command line options : -8 -V -T "ARTIST=%artist%" -T "TITLE=%title%" -T "ALBUM=%albumtitle%" -T "DATE=%year%" -T "TRACKNUMBER=%tracknr%" -T "GENRE=%genre%" -T "PERFORMER=%albuminterpret%" -T "COMPOSER=%composer%" %haslyrics%--tag-from-file=LYRICS="%lyricsfile%"%haslyrics% -T "ALBUMARTIST=%albumartist%" -T "DISCNUMBER=%cdnumber%" -T "TOTALDISCS=%totalcds%" -T "TOTALTRACKS=%numtracks%" -T "COMMENT=%comment%" %source% -o %dest%
TOC of the extracted CD
Track | Start | Length | Start sector | End sector --------------------------------------------------------- 1 | 0:00.00 | 2:45.37 | 0 | 12411 2 | 2:45.37 | 3:21.46 | 12412 | 27532 3 | 6:07.08 | 4:50.58 | 27533 | 49340 4 | 10:57.66 | 4:24.64 | 49341 | 69204 5 | 15:22.55 | 3:28.47 | 69205 | 84851 6 | 18:51.27 | 5:18.09 | 84852 | 108710 7 | 24:09.36 | 2:31.53 | 108711 | 120088 8 | 26:41.14 | 4:20.36 | 120089 | 139624 9 | 31:01.50 | 5:43.47 | 139625 | 165396 10 | 36:45.22 | 3:25.69 | 165397 | 180840 11 | 40:11.16 | 5:58.17 | 180841 | 207707 12 | 46:09.33 | 3:28.28 | 207708 | 223335
Track 1
Filename G:\EAC Files\01 - Devil May Care.wav
Pre-gap length 0:00:02.00
Peak level 96.6 % Extraction speed 3.1 X Track quality 100.0 % Test CRC 4E069D0B Copy CRC 4E069D0B Track not present in AccurateRip database Copy OK
Track 2
Filename G:\EAC Files\02 - Fat Daddy.wav
Peak level 96.6 % Extraction speed 1.3 X Track quality 100.0 % Test CRC 959E6B96 Copy CRC 959E6B96 Track not present in AccurateRip database Copy OK
Track 3
Filename G:\EAC Files\03 - Inolvidable.wav
Peak level 96.6 % Extraction speed 1.3 X Track quality 100.0 % Test CRC 41081DDA Copy CRC 41081DDA Track not present in AccurateRip database Copy OK
Track 4
Filename G:\EAC Files\04 - Lullaby of Birdland.wav
Peak level 96.6 % Extraction speed 1.4 X Track quality 100.0 % Test CRC 9606585C Copy CRC 9606585C Track not present in AccurateRip database Copy OK
Track 5
Filename G:\EAC Files\05 - Charmed Life.wav
Peak level 96.6 % Extraction speed 1.4 X Track quality 100.0 % Test CRC A9862D10 Copy CRC A9862D10 Track not present in AccurateRip database Copy OK
Track 6
Filename G:\EAC Files\06 - Jodida Pero Conteta.wav
Peak level 96.6 % Extraction speed 1.6 X Track quality 100.0 % Test CRC AE68FFE6 Copy CRC AE68FFE6 Track not present in AccurateRip database Copy OK
Track 7
Filename G:\EAC Files\07 - Down With Love.wav
Peak level 96.6 % Extraction speed 1.3 X Track quality 99.9 % Test CRC 0160A373 Copy CRC 0160A373 Track not present in AccurateRip database Copy OK
Track 8
Filename G:\EAC Files\08 - East of the Sun (and West of the Moon).wav
Peak level 96.6 % Extraction speed 1.7 X Track quality 100.0 % Test CRC B0DD95F9 Copy CRC B0DD95F9 Track not present in AccurateRip database Copy OK
Track 9
Filename G:\EAC Files\09 - Who Will Comfort Me.wav
Peak level 96.6 % Extraction speed 1.7 X Track quality 99.9 % Test CRC ED1B3474 Copy CRC ED1B3474 Track not present in AccurateRip database Copy OK
Track 10
Filename G:\EAC Files\10 - Mon Bel Amour.wav
Peak level 96.6 % Extraction speed 1.8 X Track quality 100.0 % Test CRC 01AA7FBF Copy CRC 01AA7FBF Track not present in AccurateRip database Copy OK
Track 11
Filename G:\EAC Files\11 - It Don't Mean a Thing (If It Ain't Got That Swing).wav
Peak level 96.6 % Extraction speed 1.8 X Track quality 99.9 % Test CRC 681DE79B Copy CRC 681DE79B Track not present in AccurateRip database Copy OK
Track 12
Filename G:\EAC Files\12 - You're Gonna See a Lot of Me.wav
Peak level 96.6 % Extraction speed 2.0 X Track quality 100.0 % Test CRC 4214F3E9 Copy CRC 4214F3E9 Track not present in AccurateRip database Copy OK
None of the tracks are present in the AccurateRip database
No errors occurred
End of status report
==== Log checksum 88DBD77AD0AF3BE204C5185049C59FC7882801F6CBBED21B074A4E0EE508E5BA ====

Содержание индексной карты (.CUE)

REM GENRE JazzREM DATE 2014REM DISCID 9A0BA10CREM COMMENT "ExactAudioCopy v1.0b3"PERFORMER "Coco Favre"TITLE "Introducing Coco Favre"FILE "01 - Devil May Care.wav" WAVE TRACK 01 AUDIO TITLE "Devil May Care" PERFORMER "Coco Favre" ISRC NZQS11401907 INDEX 01 00:00:00FILE "02 - Fat Daddy.wav" WAVE TRACK 02 AUDIO TITLE "Fat Daddy" PERFORMER "Coco Favre" ISRC NZQS11401910 INDEX 01 00:00:00FILE "03 - Inolvidable.wav" WAVE TRACK 03 AUDIO TITLE "Inolvidable" PERFORMER "Coco Favre" ISRC NZQS11401909 INDEX 01 00:00:00FILE "04 - Lullaby of Birdland.wav" WAVE TRACK 04 AUDIO TITLE "Lullaby of Birdland" PERFORMER "Coco Favre" ISRC NZQS11401909 INDEX 01 00:00:00FILE "05 - Charmed Life.wav" WAVE TRACK 05 AUDIO TITLE "Charmed Life" PERFORMER "Coco Favre" ISRC NZQS11401914 INDEX 01 00:00:00FILE "06 - Jodida Pero Conteta.wav" WAVE TRACK 06 AUDIO TITLE "Jodida Pero Conteta" PERFORMER "Coco Favre" ISRC NZQS11401917 INDEX 01 00:00:00FILE "07 - Down with Love.wav" WAVE TRACK 07 AUDIO TITLE "Down with Love" PERFORMER "Coco Favre" ISRC NZQS11401908 INDEX 01 00:00:00FILE "08 - East of the Sun (And West of the Moon).wav" WAVE TRACK 08 AUDIO TITLE "East of the Sun (And West of the Moon)" PERFORMER "Coco Favre" ISRC NZQS11401911 INDEX 01 00:00:00FILE "09 - Who Will Comfort Me.wav" WAVE TRACK 09 AUDIO TITLE "Who Will Comfort Me" PERFORMER "Coco Favre" ISRC NZQS11401915 INDEX 01 00:00:00FILE "10 - Mon Bel Amour.wav" WAVE TRACK 10 AUDIO TITLE "Mon Bel Amour" PERFORMER "Coco Favre" ISRC NZQS11401913 INDEX 01 00:00:00FILE "11 - It Don't Mean a Thing (If It Ain't Got That Swing).wav" WAVE TRACK 11 AUDIO TITLE "It Don't Mean a Thing (If It Ain't Got That Swing)" PERFORMER "Coco Favre" ISRC NZQS11401913 INDEX 01 00:00:00FILE "12 - You're Gonna See a Lot of Me.wav" WAVE TRACK 12 AUDIO TITLE "You're Gonna See a Lot of Me" PERFORMER "Coco Favre" ISRC NZQS11401916 INDEX 01 00:00:00

Об альбоме (сборнике)

This is a solid debut album by Wellington vocalist Coco Favre that does a fine job of living up to its title. Accompanied by the Reuben Bradley Trio (Bradley on drums, Ben Wilcock piano/Rhodes and Rowan Clarke on bass), the Swiss-born Favre charms with a range of jazz standards, both old and new. Arranged by Bradley and well supported by the trio, her voice has a delicious range of show-style tonalities and inflections, from dark, deep and bluesy, to light and winsome. Favre further illustrates the range of her different vocal moods and tonal inflections by singing in English, Spanish and French on various tracks, adding another layer of appeal.
The Reuben Bradley Trio are equal partners in this, interweaving interesting and exciting lines and solos without overwhelming her vocals, nor disappearing into the background. Recorded at various Wellington studios including NZSM, with mixing and mastering by Mike Gibson at Munki Studios, this album has a broad palette and charming tone. A delightful take on popular and enduring jazz standards, with its laid back attitude Coco Favre’s introduction will appeal to listeners unfamiliar with the genre as much as it will jazz fans.
-- Aleisha Ward


[islamvillage.com]_t_5642654.torrent
Торрент: Зарегистрирован ·  [ 2018-11-13 23:52 ] ·  9002206423e5ed5ca78f0dd4c3a4004c46dc100a

13 KB

Статус: проверено
Скачан: 0 раз
Размер: 300 MB
Оценка: 
(Голосов: 0)
Сказали спасибо: 0  Спасибо
Похожие темы
[Профиль]    [ЛС]
Показать сообщения:    
Ответить на тему

Текущее время: Сегодня 05:51

Часовой пояс: GMT + 7



Вы не можете начинать темы
Вы не можете отвечать на сообщения
Вы не можете редактировать свои сообщения
Вы не можете удалять свои сообщения
Вы не можете голосовать в опросах
Вы не можете прикреплять файлы к сообщениям
Вы можете скачивать файлы


HDTV Micky Flanagan's Christmas (2018) | Goosebumps 2 Haunted Halloween | Ojisan to Marshmallow