(JRock, Visual Kei) [CD] Angelo - Cord - 2016, FLAC (image+.cue), lossless

Ответить на тему
Статистика раздачи [Обновить пиров]
Размер:  299 MB   |    Зарегистрирован:  2 месяца 2 дня   |    Скачан:  0 раз

Полного источника не было: Никогда

 
   
 
 
 
Автор Сообщение

islamvillage.com

Создавать темы 13-Ноя-2018 23:58

[Цитировать]

Angelo / Cord
Жанр: J-Rock, Visual Kei
Носитель: CD
Страна-производитель диска (релиза): Япония / Japan
Год издания: 2016
Издатель (лейбл): blowgrow(ブロウグロウ)
Номер по каталогу: IKCB-9549
Страна исполнителя (группы): Япония / Japan
Аудиокодек: FLAC (*.flac)
Тип рипа: image+.cue
Битрейт аудио: lossless
Продолжительность: 00:41:03
Источник (релизер): Собственный Audio CD
Наличие сканов в содержимом раздачи: нет
Треклист:
1. Umbilical cord
2. Cut
3. リテラシー
4. PROTOCOL
5. 嗤う月
6. Sorrow tomorrow
7. JUDGMENT
8. FIELD OF GOD
9. Daybreakers
10. CONNECT

Лог создания рипа

Exact Audio Copy V1.3 from 2. September 2016
EAC extraction logfile from 28. December 2017, 15:54
Angelo / CORD
Used drive : hp DVDRW SU208GB Adapter: 1 ID: 0
Read mode : SecureUtilize accurate stream : YesDefeat audio cache : YesMake use of C2 pointers : No
Read offset correction : 6Overread into Lead-In and Lead-Out : NoFill up missing offset samples with silence : YesDelete leading and trailing silent blocks : NoNull samples used in CRC calculations : YesUsed interface : Native Win32 interface for Win NT & 2000
Used output format : User Defined EncoderSelected bitrate : 896 kBit/sQuality : HighAdd ID3 tag : NoCommand line compressor : C:\Program Files (x86)\Exact Audio Copy\Flac\flac.exeAdditional command line options : -V -8 -T "Date=%year%" -T "Genre=%genre%" %source%
TOC of the extracted CD
Track | Start | Length | Start sector | End sector --------------------------------------------------------- 1 | 0:00.00 | 4:30.44 | 0 | 20293 2 | 4:30.44 | 4:09.49 | 20294 | 39017 3 | 8:40.18 | 3:42.08 | 39018 | 55675 4 | 12:22.26 | 3:46.38 | 55676 | 72663 5 | 16:08.64 | 4:19.57 | 72664 | 92145 6 | 20:28.46 | 4:37.12 | 92146 | 112932 7 | 25:05.58 | 3:12.23 | 112933 | 127355 8 | 28:18.06 | 4:51.60 | 127356 | 149240 9 | 33:09.66 | 4:25.03 | 149241 | 169118 10 | 37:34.69 | 3:27.71 | 169119 | 184714
Range status and errors
Selected range
Filename C:\Angelo - 2016 - CORD.wav
Peak level 99.8 % Extraction speed 3.5 X Range quality 100.0 % Test CRC 1DE72DD7 Copy CRC 1DE72DD7 Copy OK
No errors occurred
AccurateRip summary
Track 1 accurately ripped (confidence 3) [9EF380A6] (AR v2)Track 2 accurately ripped (confidence 3) [6E53F2CA] (AR v2)Track 3 accurately ripped (confidence 3) [7E1F45E0] (AR v2)Track 4 accurately ripped (confidence 3) [EBFD30BC] (AR v2)Track 5 accurately ripped (confidence 3) [7D11417C] (AR v2)Track 6 accurately ripped (confidence 3) [E0030238] (AR v2)Track 7 accurately ripped (confidence 3) [B8C6F4F5] (AR v2)Track 8 accurately ripped (confidence 3) [7F46DF02] (AR v2)Track 9 accurately ripped (confidence 3) [FA1C68AE] (AR v2)Track 10 accurately ripped (confidence 3) [4A4C8C4E] (AR v2)
All tracks accurately ripped
End of status report
==== Log checksum 09BE4E5882D578DC028BC163EB968488F39B5B5C2BB517D7848F7DA3A9639467 ====


[islamvillage.com]_t_5641975.torrent
Торрент: Зарегистрирован ·  [ 2018-11-13 23:52 ] ·  59e3e53e362490c36d2505254e6548b75cfed003

47 KB

Статус: проверено
Скачан: 0 раз
Размер: 299 MB
Оценка: 
(Голосов: 0)
Сказали спасибо: 0  Спасибо
Похожие темы
[Профиль]    [ЛС]
Показать сообщения:    
Ответить на тему

Текущее время: Сегодня 14:34

Часовой пояс: GMT + 7



Вы не можете начинать темы
Вы не можете отвечать на сообщения
Вы не можете редактировать свои сообщения
Вы не можете удалять свои сообщения
Вы не можете голосовать в опросах
Вы не можете прикреплять файлы к сообщениям
Вы можете скачивать файлы


Eerst afgelopen | Stupeň 8: Armageddon (2013) | Ben Loyd-Holmes