(Avant-garde Metal) [WEB] Flummox - Intellectual Hooliganism - 2018, FLAC (tracks), lossless

Ответить на тему
Статистика раздачи [Обновить пиров]
Размер:  503 MB   |    Зарегистрирован:  3 месяца 7 дней   |    Скачан:  0 раз

Полного источника не было: Никогда

 
   
 
 
 
Автор Сообщение

islamvillage.com

Создавать темы 13-Ноя-2018 23:58

[Цитировать]



Flummox

Intellectual Hooliganism





• Жанр: Avant-garde Metal
• Носитель: WEB
• Год издания: 2018
• Страна: USA
• Аудиокодек: FLAC (*.flac)
• Тип рипа: tracks
• Продолжительность: 01:12:58
• Источник (спасибо): GM
• WEB ссылка
• Наличие сканов: front

01 - Hey! (00:02:37)
02 - Summer Cold (00:04:09)
03 - Tom Walker Blues (00:03:29)
04 - Raven in a Crow's Nest (00:07:11)
05 - A Bundle of Styx (00:04:03)
06 - Dysania (00:05:18)
07 - Black Phillip (00:08:44)
08 - What Are You Up To (00:02:12)
09 - Rape Culture (00:02:48)
10 - Alligator People (00:03:19)
11 - Freedom Rooster (00:11:06)
12 - Oh, Possum (00:10:33)
13 - See Ya Around. (00:07:23)
-
-

• Замер динамического диапазона •

foobar2000 1.3.17 / Замер динамического диапазона (DR) 1.1.1Дата отчёта: 2018-11-06 20:53:38
--------------------------------------------------------------------------------Анализ: Flummox / Intellectual Hooliganism--------------------------------------------------------------------------------
DR Пики RMS Продолжительность трека--------------------------------------------------------------------------------DR12 -0.10 дБ -12.66 дБ 2:38 01-Hey!DR12 -0.10 дБ -12.99 дБ 4:10 02-Summer ColdDR11 -0.10 дБ -11.63 дБ 3:30 03-Tom Walker BluesDR10 -0.10 дБ -12.02 дБ 7:12 04-Raven in a Crow's NestDR10 -0.10 дБ -12.11 дБ 4:04 05-A Bundle of StyxDR10 -0.10 дБ -11.73 дБ 5:18 06-DysaniaDR11 -0.10 дБ -12.11 дБ 8:45 07-Black PhillipDR11 -0.10 дБ -12.65 дБ 2:12 08-What Are You Up To?DR10 -0.10 дБ -10.88 дБ 2:48 09-Rape CultureDR10 -0.10 дБ -12.92 дБ 3:20 10-Alligator PeopleDR12 -0.10 дБ -13.37 дБ 11:06 11-Freedom RoosterDR11 -0.10 дБ -13.98 дБ 10:33 12-Oh, PossumDR9 -0.10 дБ -11.93 дБ 7:23 13-See Ya Around.--------------------------------------------------------------------------------
Количество треков: 13Реальные значения DR: DR11
Частота: 44100 ГцКаналов: 2Разрядность: 16Битрейт: 973 кбит/сКодек: FLAC================================================================================
-

• Лог проверки качества •

-----------------------
DON'T MODIFY THIS FILE
-----------------------
PERFORMER: auCDtect Task Manager, ver. 1.6.0 RC1 build 1.6.0.1Copyright (c) 2008-2010 y-soft. All rights reservedhttp://y-soft.org
ANALYZER: auCDtect: CD records authenticity detector, version 0.8.2Copyright (c) 2004 Oleg Berngardt. All rights reserved.Copyright (c) 2004 Alexander Djourik. All rights reserved.
FILE: 13 - See Ya Around..flac Size: 54080102 Hash: 83718359DE00A9BA909EA32EFA4B9902 Accuracy: -m0 Conclusion: MPEG 95% Signature: DDBB3653AC7D511E2C1DBE1B73AC5A95A8364AFDFILE: 12 - Oh, Possum.flac Size: 77812729 Hash: 75E7F3487C3F1CF14DB81D0244916A80 Accuracy: -m0 Conclusion: MPEG 95% Signature: 986BFABA236EC0EB3C6C9EC1070C4EE740A543E0FILE: 11 - Freedom Rooster.flac Size: 78298912 Hash: 2F7EEF8901609A83FA3DF01448690E00 Accuracy: -m0 Conclusion: MPEG 95% Signature: D6448E01C8E90DC7F4137A4A35FCAFFAE016FF6CFILE: 10 - Alligator People.flac Size: 21640460 Hash: 9C594748FB52E15FC7A2289D06325CFA Accuracy: -m0 Conclusion: CDDA 100% Signature: F3C069C2E7CD2D1A18FE4C046999871CA4B2A497FILE: 09 - Rape Culture.flac Size: 20909246 Hash: B7A9948506177B1B54A1F6B690695AAA Accuracy: -m0 Conclusion: CDDA 100% Signature: 7B8E4CD67D6A409E7FABD1992605AC2C408D7EB4FILE: 08 - What Are You Up To.flac Size: 15403809 Hash: 89DC4136A004D906AAF9B437E602DC09 Accuracy: -m0 Conclusion: MPEG 95% Signature: CAA64BA63AC6B3C5EBA8EE9264B7ABCB6BCC7131FILE: 07 - Black Phillip.flac Size: 63894334 Hash: EAE3A8CCEBDE7B04E10B9F6D54F5AF32 Accuracy: -m0 Conclusion: MPEG 95% Signature: D17E863011EB2E319A099E070EDA3C29469879D9FILE: 06 - Dysania.flac Size: 37663475 Hash: F01AC1A188F682B0E5481F36ACBEBA9F Accuracy: -m0 Conclusion: MPEG 95% Signature: 292383CF2C37273F0A74B74F1C847A003E9EDB7AFILE: 05 - A Bundle of Styx.flac Size: 30260067 Hash: FDFA9DF801C6E6F4713F922CC3A8A501 Accuracy: -m0 Conclusion: MPEG 95% Signature: AAD609240005D9E24BCEB649A9D9E275D13CD0E0FILE: 04 - Raven in a Crow's Nest.flac Size: 51878852 Hash: 007E306684CAC231FA54FBC792875D13 Accuracy: -m0 Conclusion: MPEG 95% Signature: D12E1FF7DF1DC3F011AD3DD29FA8F80F1F7F3E46FILE: 03 - Tom Walker Blues.flac Size: 26373894 Hash: EC327B656F0380909CE5F100E02DE677 Accuracy: -m0 Conclusion: MPEG 95% Signature: AF5FFEF38713557A4B9DD0B5FACA823FC288D5BCFILE: 02 - Summer Cold.flac Size: 29225001 Hash: 4AA78DEA7B7EF3E5DB0A24AF526781C7 Accuracy: -m0 Conclusion: MPEG 95% Signature: 948E54BBAA06E8FD6DB0F2841C77A72DF0B493C5FILE: 01 - Hey!.flac Size: 19912802 Hash: F15E13C3B4B0B60BF9E680B17F5BD2CE Accuracy: -m0 Conclusion: MPEG 95% Signature: 41E7962F0DF8FF0C1231EBC38936C769CCBB49D3
-

• Скриншот подозрительных спектров •

-


[islamvillage.com]_t_5640487.torrent
Торрент: Зарегистрирован ·  [ 2018-11-13 23:52 ] ·  a6d559e7609c8d8dc833449454d6b8dbe9431109

21 KB

Статус: проверено
Скачан: 0 раз
Размер: 503 MB
Оценка: 
(Голосов: 0)
Сказали спасибо: 0  Спасибо
Похожие темы
[Профиль]    [ЛС]
Показать сообщения:    
Ответить на тему

Текущее время: Сегодня 22:31

Часовой пояс: GMT + 7



Вы не можете начинать темы
Вы не можете отвечать на сообщения
Вы не можете редактировать свои сообщения
Вы не можете удалять свои сообщения
Вы не можете голосовать в опросах
Вы не можете прикреплять файлы к сообщениям
Вы можете скачивать файлы


Супергёрл / Supergirl (1984) DVDRip-AVC | Director's Cut | L1 | Kyousougiga | Clifton Webb