(Electronic, Industrial, Acid) [CD] Fred Giannelli - Fred - 1991, FLAC (tracks+.cue), lossless

Ответить на тему
Статистика раздачи [Обновить пиров]
Размер:  282 MB   |    Зарегистрирован:  2 месяца 7 дней   |    Скачан:  0 раз

Полного источника не было: Никогда

 
   
 
 
 
Автор Сообщение

islamvillage.com

Создавать темы 14-Ноя-2018 22:03

[Цитировать]

Fred Giannelli / Fred
Жанр: Electronic, Industrial, Acid
Носитель: CD
Страна-производитель диска (релиза): Canada
Год издания: 1991
Издатель (лейбл): TVT Records, Wax Trax! Records
Номер по каталогу: TVT 8166
Аудиокодек: FLAC (*.flac)
Тип рипа: tracks+.cue
Битрейт аудио: lossless
Продолжительность: 46:59
Источник (релизер): собственный рип
Наличие сканов в содержимом раздачи: обложка
Треклист:
1. Mindblower 3:22
2. Mr. Denny 6:10
3. V... For Vendetta 5:41
4. Rosebud 6:53
5. Quintessence 5:55
6. Black Burn 6:31
7. Macadamian Mix 6:31
8. Suburbarenity 5:52

Лог создания рипа

Exact Audio Copy V1.3 from 2. September 2016
EAC extraction logfile from 11. November 2018, 19:18
Fred / Fred
Used drive : PIONEER BD-RW BDR-202 Adapter: 1 ID: 0
Read mode : SecureUtilize accurate stream : YesDefeat audio cache : YesMake use of C2 pointers : No
Read offset correction : 667Overread into Lead-In and Lead-Out : NoFill up missing offset samples with silence : YesDelete leading and trailing silent blocks : NoNull samples used in CRC calculations : YesUsed interface : Native Win32 interface for Win NT & 2000Gap handling : Appended to previous track
Used output format : User Defined EncoderSelected bitrate : 768 kBit/sQuality : HighAdd ID3 tag : YesCommand line compressor : C:\Program Files (x86)\Exact Audio Copy\FLAC\FLAC.EXEAdditional command line options : -8 -V -T "ARTIST=%artist%" -T "TITLE=%title%" -T "ALBUM=%albumtitle%" -T "DATE=%year%" -T "TRACKNUMBER=%tracknr%" -T "GENRE=%genre%" -T "COMMENT=%comment%" -T "BAND=%albuminterpret%" -T "ALBUMARTIST=%albuminterpret%" -T "COMPOSER=%composer%" %haslyrics%--tag-from-file=LYRICS="%lyricsfile%"%haslyrics% -T "DISCNUMBER=%cdnumber%" -T "TOTALDISCS=%totalcds%" -T "TOTALTRACKS=%numtracks%" %hascover%--picture="%coverfile%"%hascover% %source% -o %dest%
TOC of the extracted CD
Track | Start | Length | Start sector | End sector --------------------------------------------------------- 1 | 0:00.32 | 3:22.48 | 32 | 15229 2 | 3:23.05 | 6:10.32 | 15230 | 43011 3 | 9:33.37 | 5:41.18 | 43012 | 68604 4 | 15:14.55 | 6:53.65 | 68605 | 99644 5 | 22:08.45 | 5:55.67 | 99645 | 126336 6 | 28:04.37 | 6:31.73 | 126337 | 155734 7 | 34:36.35 | 6:31.12 | 155735 | 185071 8 | 41:07.47 | 5:52.00 | 185072 | 211471
Track 1
Filename E:\Fred\Fred - [1991] - Fred\01 - Mindblower.wav
Pre-gap length 0:00:02.32
Peak level 84.1 % Extraction speed 3.8 X Track quality 100.0 % Test CRC F0A39668 Copy CRC F0A39668 Accurately ripped (confidence 4) [1A7C695D] (AR v2) Copy OK
Track 2
Filename E:\Fred\Fred - [1991] - Fred\02 - Mr. Denny.wav
Peak level 60.4 % Extraction speed 4.6 X Track quality 100.0 % Test CRC A3920B8D Copy CRC A3920B8D Accurately ripped (confidence 4) [3370E983] (AR v2) Copy OK
Track 3
Filename E:\Fred\Fred - [1991] - Fred\03 - V... For Vandetta.wav
Pre-gap length 0:00:01.02
Peak level 86.2 % Extraction speed 5.0 X Track quality 100.0 % Test CRC BB33CB74 Copy CRC BB33CB74 Accurately ripped (confidence 3) [CCC59D86] (AR v2) Copy OK
Track 4
Filename E:\Fred\Fred - [1991] - Fred\04 - Rosebud.wav
Pre-gap length 0:00:01.02
Peak level 78.3 % Extraction speed 5.4 X Track quality 100.0 % Test CRC 7767A54D Copy CRC 7767A54D Accurately ripped (confidence 3) [72079D07] (AR v2) Copy OK
Track 5
Filename E:\Fred\Fred - [1991] - Fred\05 - Quintessence.wav
Pre-gap length 0:00:00.45
Peak level 46.4 % Extraction speed 5.4 X Track quality 99.9 % Test CRC B20913C2 Copy CRC B20913C2 Accurately ripped (confidence 3) [22471B53] (AR v2) Copy OK
Track 6
Filename E:\Fred\Fred - [1991] - Fred\06 - Black Burn.wav
Pre-gap length 0:00:00.72
Peak level 66.6 % Extraction speed 6.4 X Track quality 100.0 % Test CRC 36811B72 Copy CRC 36811B72 Accurately ripped (confidence 2) [388CD390] (AR v2) Copy OK
Track 7
Filename E:\Fred\Fred - [1991] - Fred\07 - Macadamian Mix.wav
Pre-gap length 0:00:01.40
Peak level 60.8 % Extraction speed 6.6 X Track quality 100.0 % Test CRC 7D197803 Copy CRC 7D197803 Accurately ripped (confidence 1) [EBC6D2CD] (AR v2) Copy OK
Track 8
Filename E:\Fred\Fred - [1991] - Fred\08 - Suburbarenity.wav
Peak level 27.5 % Extraction speed 4.7 X Track quality 99.8 % Test CRC 282D129D Copy CRC 38CCDA34 Accurately ripped (confidence 1) [B81D46F1] (AR v1) Copy OK
All tracks accurately ripped
No errors occurred
End of status report
---- CUETools DB Plugin V2.1.6
[CTDB TOCID: HoiDisry0vVOry9JnLtj8yFS6r8-] foundSubmit result: HoiDisry0vVOry9JnLtj8yFS6r8- has been confirmedTrack | CTDB Status 1 | (3/3) Accurately ripped 2 | (3/3) Accurately ripped 3 | (3/3) Accurately ripped 4 | (3/3) Accurately ripped 5 | (3/3) Accurately ripped 6 | (3/3) Accurately ripped 7 | (2/3) Accurately ripped 8 | (2/3) Accurately ripped
==== Log checksum C26767E5B0B54665A3282049EEE9373A69EC0FFF90C145D87A958DDCC397338B ====

Содержание индексной карты (.CUE)

REM GENRE ElectronicREM DATE 1991REM DISCID 6C0B0308REM COMMENT "ExactAudioCopy v1.3"PERFORMER "Fred"TITLE "Fred"FILE "01 - Mindblower.wav" WAVE TRACK 01 AUDIO TITLE "Mindblower" PERFORMER "Fred" PREGAP 00:00:32 INDEX 01 00:00:00FILE "02 - Mr. Denny.wav" WAVE TRACK 02 AUDIO TITLE "Mr. Denny" PERFORMER "Fred" INDEX 01 00:00:00 TRACK 03 AUDIO TITLE "V... For Vandetta" PERFORMER "Fred" INDEX 00 06:09:30FILE "03 - V... For Vandetta.wav" WAVE INDEX 01 00:00:00 TRACK 04 AUDIO TITLE "Rosebud" PERFORMER "Fred" INDEX 00 05:40:16FILE "04 - Rosebud.wav" WAVE INDEX 01 00:00:00 TRACK 05 AUDIO TITLE "Quintessence" PERFORMER "Fred" INDEX 00 06:53:20FILE "05 - Quintessence.wav" WAVE INDEX 01 00:00:00 TRACK 06 AUDIO TITLE "Black Burn" PERFORMER "Fred" INDEX 00 05:54:70FILE "06 - Black Burn.wav" WAVE INDEX 01 00:00:00 TRACK 07 AUDIO TITLE "Macadamian Mix" PERFORMER "Fred" INDEX 00 06:30:33FILE "07 - Macadamian Mix.wav" WAVE INDEX 01 00:00:00FILE "08 - Suburbarenity.wav" WAVE TRACK 08 AUDIO TITLE "Suburbarenity" PERFORMER "Fred" INDEX 01 00:00:00


[islamvillage.com]_t_5643102.torrent
Торрент: Зарегистрирован ·  [ 2018-11-14 22:01 ] ·  6dbb8d96a29fff8359503d064a444761267b3fa7

12 KB

Статус: проверено
Скачан: 0 раз
Размер: 282 MB
Оценка: 
(Голосов: 0)
Сказали спасибо: 0  Спасибо
Похожие темы
[Профиль]    [ЛС]
Показать сообщения:    
Ответить на тему

Текущее время: Сегодня 06:47

Часовой пояс: GMT + 7



Вы не можете начинать темы
Вы не можете отвечать на сообщения
Вы не можете редактировать свои сообщения
Вы не можете удалять свои сообщения
Вы не можете голосовать в опросах
Вы не можете прикреплять файлы к сообщениям
Вы можете скачивать файлы


Angry Birds (79) | The Dark Tower (2017) [1080p] English | White Boy Rick