(Minimal Techno, Techno) [CD] VA - Dj Egorъ - Kung Fusion Present Les Magestique Psyhodelique - 2006, FLAC (image+.cue), lossless

Ответить на тему
Статистика раздачи [Обновить пиров]
Размер:  555 MB   |    Зарегистрирован:  2 месяца 7 дней   |    Скачан:  0 раз

Полного источника не было: Никогда

 
   
 
 
 
Автор Сообщение

islamvillage.com

Создавать темы 14-Ноя-2018 22:03

[Цитировать]

Dj Egorъ - Kung Fusion Present Les Magestique Psyhodelique
[img=right]http://i6.imageban.ru/out/2018/11/11/ef6ac46a92063...e39936.png[/img]
Жанр: Minimal Techno, Techno
Носитель: CD
Год издания: 2006
Издатель (лейбл): Stereozvuk
Аудиокодек: FLAC (*.flac)
Тип рипа: image+.cue
Битрейт аудио: lossless
Продолжительность: 01:13:22
Источник (релизер): свой рип
Наличие сканов в содержимом раздачи: да
Треклист:
01. Electromenager - Victory For Nothing (2:55)
02. Argy - Hide And Seek (2:44)
03. Mathew Jonson - 7.19 Fm David (4:44)
04. Catwash - Mohake Dreams (3:44)
05. Unknown Artist - Untitled (2:59)
06. Unknown Artist - Untitled (3:52)
07. Marc Romboy vs. Stephan Bodzin - Miranda (3:00)
08. Stephan Bodzin - Caligula (2:59)
09. Unknown Artist - Untitled (2:07)
10. Zoo Brazil - Body Talk (3:29)
11. Goldfish Und Der Dulz - Ding Dong (3:28)
12. Unknown Artist - Untitled (4:08)
13. Prudo & Superjuno - I Want My Money Back (3:21)
14. Huggotron - Pop It Bad (4:51)
15. Steve Bug - Smackman (3:52)
16. Oliver Koletzki - Blackout (Eye Of The Tigerskin Remix) (4:21)
17. Mylo Featuring Freeform Five - Muscle Car (DJ T. Remix) (5:43)
18. Shockers - The Symptom (Remote & Jennifer Cardini Minimal Mix) (3:14)
19. Unknown Artist - Untitled (3:30)
20. Francisco - Moon Roller (4:19)

Лог создания рипа

Exact Audio Copy V1.3 from 2. September 2016
EAC extraction logfile from 27. October 2018, 15:26
Dj Egorъ / Kung Fusion Present Les Magestique Psyhodelique
Used drive : ASUS DRW-24B5ST Adapter: 6 ID: 0
Read mode : SecureUtilize accurate stream : YesDefeat audio cache : YesMake use of C2 pointers : No
Read offset correction : 6Overread into Lead-In and Lead-Out : NoFill up missing offset samples with silence : YesDelete leading and trailing silent blocks : NoNull samples used in CRC calculations : YesUsed interface : Installed external ASPI interface
Used output format : User Defined EncoderSelected bitrate : 128 kBit/sQuality : HighAdd ID3 tag : NoCommand line compressor : D:\flac-1.3.2-win\win64\flac.exeAdditional command line options : -V -8 -T "Date=%year%" -T "COMMENT=ripped by Andy aka yetiisyou" -T "Genre=%genre%" %source%
TOC of the extracted CD
Track | Start | Length | Start sector | End sector --------------------------------------------------------- 1 | 0:00.00 | 2:55.33 | 0 | 13157 2 | 2:55.33 | 2:44.31 | 13158 | 25488 3 | 5:39.64 | 4:44.10 | 25489 | 46798 4 | 10:23.74 | 3:44.35 | 46799 | 63633 5 | 14:08.34 | 2:59.33 | 63634 | 77091 6 | 17:07.67 | 3:51.46 | 77092 | 94462 7 | 20:59.38 | 2:59.43 | 94463 | 107930 8 | 23:59.06 | 2:59.15 | 107931 | 121370 9 | 26:58.21 | 2:06.72 | 121371 | 130892 10 | 29:05.18 | 3:29.00 | 130893 | 146567 11 | 32:34.18 | 3:27.45 | 146568 | 162137 12 | 36:01.63 | 4:07.58 | 162138 | 180720 13 | 40:09.46 | 3:21.37 | 180721 | 195832 14 | 43:31.08 | 4:51.13 | 195833 | 217670 15 | 48:22.21 | 3:51.40 | 217671 | 235035 16 | 52:13.61 | 4:21.33 | 235036 | 254643 17 | 56:35.19 | 5:43.32 | 254644 | 280400 18 | 62:18.51 | 3:14.05 | 280401 | 294955 19 | 65:32.56 | 3:30.31 | 294956 | 310736 20 | 69:03.12 | 4:18.41 | 310737 | 330127
Range status and errors
Selected range
Filename E:\!Ripped by Andy aka yetiisyou\VA - Dj Egorъ - Kung Fusion Present Les Magestique Psyhodelique [2006]\Dj Egorъ - Kung Fusion Present Les Magestique Psyhodelique.wav
Peak level 100.0 % Extraction speed 6.7 X Range quality 100.0 % Test CRC 2CD86685 Copy CRC 2CD86685 Copy OK
No errors occurred
AccurateRip summary
Track 1 accurately ripped (confidence 1) [9490A04A] (AR v2)Track 2 accurately ripped (confidence 1) [1A0E39BB] (AR v2)Track 3 accurately ripped (confidence 1) [0831A380] (AR v2)Track 4 accurately ripped (confidence 1) [B4CD29E6] (AR v2)Track 5 accurately ripped (confidence 1) [8680C17C] (AR v2)Track 6 accurately ripped (confidence 1) [2013BEE3] (AR v2)Track 7 accurately ripped (confidence 1) [B3F60043] (AR v2)Track 8 accurately ripped (confidence 1) [FCCDD01A] (AR v2)Track 9 accurately ripped (confidence 1) [76C55029] (AR v2)Track 10 accurately ripped (confidence 1) [74642757] (AR v2)Track 11 accurately ripped (confidence 1) [D9A691F3] (AR v2)Track 12 accurately ripped (confidence 1) [B41E395C] (AR v2)Track 13 accurately ripped (confidence 1) [133F3395] (AR v2)Track 14 accurately ripped (confidence 1) [9D61DB30] (AR v2)Track 15 accurately ripped (confidence 1) [13D3F814] (AR v2)Track 16 accurately ripped (confidence 1) [96C5FAAC] (AR v2)Track 17 accurately ripped (confidence 1) [6F21445D] (AR v2)Track 18 accurately ripped (confidence 1) [E3839256] (AR v2)Track 19 accurately ripped (confidence 1) [EDF5DEF3] (AR v2)Track 20 accurately ripped (confidence 1) [B2418801] (AR v2)
All tracks accurately ripped
End of status report
---- CUETools DB Plugin V2.1.6
[CTDB TOCID: eJhn.tfPkdAu1Mfcu5FiGd2aB9g-] foundSubmit result: eJhn.tfPkdAu1Mfcu5FiGd2aB9g- has been confirmedTrack | CTDB Status 1 | (1/1) Accurately ripped 2 | (1/1) Accurately ripped 3 | (1/1) Accurately ripped 4 | (1/1) Accurately ripped 5 | (1/1) Accurately ripped 6 | (1/1) Accurately ripped 7 | (1/1) Accurately ripped 8 | (1/1) Accurately ripped 9 | (1/1) Accurately ripped 10 | (1/1) Accurately ripped 11 | (1/1) Accurately ripped 12 | (1/1) Accurately ripped 13 | (1/1) Accurately ripped 14 | (1/1) Accurately ripped 15 | (1/1) Accurately ripped 16 | (1/1) Accurately ripped 17 | (1/1) Accurately ripped 18 | (1/1) Accurately ripped 19 | (1/1) Accurately ripped 20 | (1/1) Accurately ripped
==== Log checksum A0DEB77441BF04FBEEE1C2EC7D8AAE0DD698EC02297BF290EF0ABF1B03C8036F ====


[islamvillage.com]_t_5642911.torrent
Торрент: Зарегистрирован ·  [ 2018-11-14 22:01 ] ·  68b5a0a83c19af3cee8d50cb26b377134c9ff5ae

12 KB

Статус: проверено
Скачан: 0 раз
Размер: 555 MB
Оценка: 
(Голосов: 0)
Сказали спасибо: 0  Спасибо
Похожие темы
[Профиль]    [ЛС]
Показать сообщения:    
Ответить на тему

Текущее время: Сегодня 08:08

Часовой пояс: GMT + 7



Вы не можете начинать темы
Вы не можете отвечать на сообщения
Вы не можете редактировать свои сообщения
Вы не можете удалять свои сообщения
Вы не можете голосовать в опросах
Вы не можете прикреплять файлы к сообщениям
Вы можете скачивать файлы


Sakurasou no Pet na Kanojo | Tony Revolori | Watch movie