(Minimal, tech House) [4xCD] VA - Compiled & Mixed by Dj Tiefenrausch - 2007, FLAC (image+.cue), lossless

Ответить на тему
Статистика раздачи [Обновить пиров]
Размер:  1.96 GB   |    Зарегистрирован:  2 месяца 7 дней   |    Скачан:  0 раз

Полного источника не было: Никогда

 
   
 
 
 
Автор Сообщение

islamvillage.com

Создавать темы 14-Ноя-2018 22:03

[Цитировать]

Compiled & Mixed by Dj Tiefenrausch
[img]http://i2.imageban.ru/out/2018/11/09/d7f5b4663f822...be3130.png[/img]
Жанр: Minimal, tech House
Носитель: CD
Год издания: 2007
Аудиокодек: FLAC (*.flac)
Тип рипа: image+.cue
Битрейт аудио: lossless
Продолжительность: 05:10:07
Источник (релизер): свой рип
Наличие сканов в содержимом раздачи: да
Треклист:

compiled & mixed by DJ Nawid - Tiefenrausch (Disc 1)


Продолжительность: 01:17:38
01. David K - Mayann (5:59)
02. Stephan Bodzin - Bedford (6:37)
03. Nick Curly & Recklick - Sinus (5:54)
04. Mark Romboy & Stephan Bodzin - Atlas (5:32)
05. Oliver Huntemann & Stephan Bodzin - Fashion Show (3:24)
06. Thomas Schumacher - SUI (4:15)
07. H-Man - 51 Poland Street (4:26)
08. Gui Boratto - Mr Decay (4:29)
09. Mark Romboy & Stephan Bodzin - Telesto (4:04)
10. Sebastien Leger - Little Bug (3:53)
11. Elektrochemie - You're My Kind (6:28)
12. Matthias Tanzmann - Nip Sleep (5:37)
13. Rejected - Cliche (4:00)
14. Elektrochemie - Mucky Star (7:53)
15. Barem - Link (5:07)

Log

Exact Audio Copy V1.3 from 2. September 2016
EAC extraction logfile from 4. March 2018, 17:57
compiled & mixed by DJ Nawid / Tiefenrausch (Disc 1)
Used drive : ASUS SDRW-08D2S-U Adapter: 9 ID: 0
Read mode : SecureUtilize accurate stream : YesDefeat audio cache : YesMake use of C2 pointers : No
Read offset correction : 6Overread into Lead-In and Lead-Out : NoFill up missing offset samples with silence : YesDelete leading and trailing silent blocks : NoNull samples used in CRC calculations : YesUsed interface : Installed external ASPI interface
Used output format : User Defined EncoderSelected bitrate : 128 kBit/sQuality : HighAdd ID3 tag : NoCommand line compressor : D:\flac-1.3.2-win\win64\flac.exeAdditional command line options : -V -8 -T "Date=%year%" -T "COMMENT=ripped by Andy aka yetiisyou" -T "Genre=%genre%" %source%
TOC of the extracted CD
Track | Start | Length | Start sector | End sector --------------------------------------------------------- 1 | 0:00.00 | 5:59.00 | 0 | 26924 2 | 5:59.00 | 6:37.05 | 26925 | 56704 3 | 12:36.05 | 5:53.67 | 56705 | 83246 4 | 18:29.72 | 5:32.22 | 83247 | 108168 5 | 24:02.19 | 3:24.05 | 108169 | 123473 6 | 27:26.24 | 4:14.57 | 123474 | 142580 7 | 31:41.06 | 4:26.37 | 142581 | 162567 8 | 36:07.43 | 4:28.47 | 162568 | 182714 9 | 40:36.15 | 4:03.41 | 182715 | 200980 10 | 44:39.56 | 3:53.03 | 200981 | 218458 11 | 48:32.59 | 6:28.36 | 218459 | 247594 12 | 55:01.20 | 5:36.48 | 247595 | 272842 13 | 60:37.68 | 4:00.34 | 272843 | 290876 14 | 64:38.27 | 7:52.38 | 290877 | 326314 15 | 72:30.65 | 5:06.67 | 326315 | 349331
Range status and errors
Selected range
Filename E:\!Ripped by Andy aka yetiisyou\VA - Compiled & Mixed by Dj Tiefenrausch [2007]\compiled & mixed by DJ Nawid - Tiefenrausch (Disc 1).wav
Peak level 100.0 % Extraction speed 5.3 X Range quality 100.0 % Test CRC AB3440EC Copy CRC AB3440EC Copy OK
No errors occurred
AccurateRip summary
Track 1 not present in databaseTrack 2 not present in databaseTrack 3 not present in databaseTrack 4 not present in databaseTrack 5 not present in databaseTrack 6 not present in databaseTrack 7 not present in databaseTrack 8 not present in databaseTrack 9 not present in databaseTrack 10 not present in databaseTrack 11 not present in databaseTrack 12 not present in databaseTrack 13 not present in databaseTrack 14 not present in databaseTrack 15 not present in database
None of the tracks are present in the AccurateRip database
End of status report
---- CUETools DB Plugin V2.1.6
[CTDB TOCID: X.aBJtrAGDeYh7ePlU6xV2V0wZo-] foundSubmit result: X.aBJtrAGDeYh7ePlU6xV2V0wZo- has been confirmedTrack | CTDB Status 1 | (1/1) Accurately ripped 2 | (1/1) Accurately ripped 3 | (1/1) Accurately ripped 4 | (1/1) Accurately ripped 5 | (1/1) Accurately ripped 6 | (1/1) Accurately ripped 7 | (1/1) Accurately ripped 8 | (1/1) Accurately ripped 9 | (1/1) Accurately ripped 10 | (1/1) Accurately ripped 11 | (1/1) Accurately ripped 12 | (1/1) Accurately ripped 13 | (1/1) Accurately ripped 14 | (1/1) Accurately ripped 15 | (1/1) Accurately ripped
==== Log checksum BD8C9122C0A3CDD6F4A2984AC27F657E2C6085EC48A430C1CD382007D21B5D24 ====

compiled & mixed by DJ Nawid - Tiefenrausch (Disc 2)


Продолжительность: 01:17:52
01. James Mobray & Ramirez - I Choose Ager (H-Man Rmx) (6:25)
02. Gui Boratto - The Rising Evil (5:19)
03. Shilon - Cafe Del Mariachi (Nick Warren Rmx) (8:05)
04. 68 Beats - Replay the Night (Gabriel & Dresden Rmx) (6:13)
05. Marco V 2006 Re-Edit - Simulated (5:30)
06. Emajae - Living with Video (Richard ... Rmx) (8:12)
07. Unknown Artist - Relentless (6:06)
08. Umek - Carbon Occasion (4:50)
09. Patrice Baumel - Fantomas (5:31)
10. Eric Borgo - Another Man (Oxia Rmx) (5:15)
11. Oxia - Domino (6:03)
12. Harry Lemon - Demon Disco (10:23)

Log

Exact Audio Copy V1.3 from 2. September 2016
EAC extraction logfile from 4. March 2018, 18:33
compiled & mixed by DJ Nawid / Tiefenrausch (Disc 2)
Used drive : ASUS SDRW-08D2S-U Adapter: 9 ID: 0
Read mode : SecureUtilize accurate stream : YesDefeat audio cache : YesMake use of C2 pointers : No
Read offset correction : 6Overread into Lead-In and Lead-Out : NoFill up missing offset samples with silence : YesDelete leading and trailing silent blocks : NoNull samples used in CRC calculations : YesUsed interface : Installed external ASPI interface
Used output format : User Defined EncoderSelected bitrate : 128 kBit/sQuality : HighAdd ID3 tag : NoCommand line compressor : D:\flac-1.3.2-win\win64\flac.exeAdditional command line options : -V -8 -T "Date=%year%" -T "COMMENT=ripped by Andy aka yetiisyou" -T "Genre=%genre%" %source%
TOC of the extracted CD
Track | Start | Length | Start sector | End sector --------------------------------------------------------- 1 | 0:00.00 | 6:24.68 | 0 | 28867 2 | 6:24.68 | 5:18.39 | 28868 | 52756 3 | 11:43.32 | 8:04.73 | 52757 | 89129 4 | 19:48.30 | 6:12.56 | 89130 | 117085 5 | 26:01.11 | 5:30.27 | 117086 | 141862 6 | 31:31.38 | 8:11.58 | 141863 | 178745 7 | 39:43.21 | 6:06.00 | 178746 | 206195 8 | 45:49.21 | 4:49.61 | 206196 | 227931 9 | 50:39.07 | 5:31.03 | 227932 | 252759 10 | 56:10.10 | 5:15.23 | 252760 | 276407 11 | 61:25.33 | 6:02.73 | 276408 | 303630 12 | 67:28.31 | 10:23.19 | 303631 | 350374
Range status and errors
Selected range
Filename E:\!Ripped by Andy aka yetiisyou\VA - Compiled & Mixed by Dj Tiefenrausch [2007]\compiled & mixed by DJ Nawid - Tiefenrausch (Disc 2).wav
Peak level 100.0 % Extraction speed 5.3 X Range quality 100.0 % Test CRC 27AB967F Copy CRC 27AB967F Copy OK
No errors occurred
AccurateRip summary
Track 1 not present in databaseTrack 2 not present in databaseTrack 3 not present in databaseTrack 4 not present in databaseTrack 5 not present in databaseTrack 6 not present in databaseTrack 7 not present in databaseTrack 8 not present in databaseTrack 9 not present in databaseTrack 10 not present in databaseTrack 11 not present in databaseTrack 12 not present in database
None of the tracks are present in the AccurateRip database
End of status report
---- CUETools DB Plugin V2.1.6
[CTDB TOCID: HNmXqbDb0_kBN5I8ShKEu71I_d0-] foundSubmit result: HNmXqbDb0_kBN5I8ShKEu71I_d0- has been confirmedTrack | CTDB Status 1 | (1/1) Accurately ripped 2 | (1/1) Accurately ripped 3 | (1/1) Accurately ripped 4 | (1/1) Accurately ripped 5 | (1/1) Accurately ripped 6 | (1/1) Accurately ripped 7 | (1/1) Accurately ripped 8 | (1/1) Accurately ripped 9 | (1/1) Accurately ripped 10 | (1/1) Accurately ripped 11 | (1/1) Accurately ripped 12 | (1/1) Accurately ripped
==== Log checksum 1865DAC1DA65FA535B9EE49D006CD5E2DD9AA9319727E139378762D0A2F703A0 ====

Dj Nawid - Tiefenrausch - Exclusive Live Mix


Продолжительность: 01:19:53
01. Dj Nawid - Exclusive Live Mix (7:00)
02. Dj Nawid - Exclusive Live Mix (4:23)
03. Dj Nawid - Exclusive Live Mix (5:20)
04. Dj Nawid - Exclusive Live Mix (4:49)
05. Dj Nawid - Exclusive Live Mix (4:16)
06. Dj Nawid - Exclusive Live Mix (4:10)
07. Dj Nawid - Exclusive Live Mix (4:50)
08. Dj Nawid - Exclusive Live Mix (4:57)
09. Dj Nawid - Exclusive Live Mix (4:18)
10. Dj Nawid - Exclusive Live Mix (5:24)
11. Dj Nawid - Exclusive Live Mix (5:46)
12. Dj Nawid - Exclusive Live Mix (5:23)
13. Dj Nawid - Exclusive Live Mix (6:34)
14. Dj Nawid - Exclusive Live Mix (4:18)
15. Dj Nawid - Exclusive Live Mix (4:07)
16. Dj Nawid - Exclusive Live Mix (4:18)

Log

Exact Audio Copy V1.3 from 2. September 2016
EAC extraction logfile from 4. March 2018, 17:18
Dj Nawid / Tiefenrausch - Exclusive Live Mix
Used drive : ASUS SDRW-08D2S-U Adapter: 9 ID: 0
Read mode : SecureUtilize accurate stream : YesDefeat audio cache : YesMake use of C2 pointers : No
Read offset correction : 6Overread into Lead-In and Lead-Out : NoFill up missing offset samples with silence : YesDelete leading and trailing silent blocks : NoNull samples used in CRC calculations : YesUsed interface : Installed external ASPI interface
Used output format : User Defined EncoderSelected bitrate : 128 kBit/sQuality : HighAdd ID3 tag : NoCommand line compressor : D:\flac-1.3.2-win\win64\flac.exeAdditional command line options : -V -8 -T "Date=%year%" -T "COMMENT=ripped by Andy aka yetiisyou" -T "Genre=%genre%" %source%
TOC of the extracted CD
Track | Start | Length | Start sector | End sector --------------------------------------------------------- 1 | 0:00.00 | 6:59.64 | 0 | 31488 2 | 6:59.64 | 4:22.39 | 31489 | 51177 3 | 11:22.28 | 5:20.26 | 51178 | 75203 4 | 16:42.54 | 4:48.68 | 75204 | 96871 5 | 21:31.47 | 4:16.31 | 96872 | 116102 6 | 25:48.03 | 4:10.08 | 116103 | 134860 7 | 29:58.11 | 4:49.46 | 134861 | 156581 8 | 34:47.57 | 4:57.16 | 156582 | 178872 9 | 39:44.73 | 4:17.50 | 178873 | 198197 10 | 44:02.48 | 5:23.40 | 198198 | 222462 11 | 49:26.13 | 5:46.06 | 222463 | 248418 12 | 55:12.19 | 5:23.02 | 248419 | 272645 13 | 60:35.21 | 6:34.34 | 272646 | 302229 14 | 67:09.55 | 4:18.33 | 302230 | 321612 15 | 71:28.13 | 4:07.35 | 321613 | 340172 16 | 75:35.48 | 4:17.48 | 340173 | 359495
Range status and errors
Selected range
Filename E:\!Ripped by Andy aka yetiisyou\VA - Compiled & Mixed by Dj Tiefenrausch [2007]\Dj Nawid - Tiefenrausch - Exclusive Live Mix.wav
Peak level 100.0 % Extraction speed 5.4 X Range quality 100.0 % Test CRC 6AA6ABC3 Copy CRC 6AA6ABC3 Copy OK
No errors occurred
AccurateRip summary
Track 1 not present in databaseTrack 2 not present in databaseTrack 3 not present in databaseTrack 4 not present in databaseTrack 5 not present in databaseTrack 6 not present in databaseTrack 7 not present in databaseTrack 8 not present in databaseTrack 9 not present in databaseTrack 10 not present in databaseTrack 11 not present in databaseTrack 12 not present in databaseTrack 13 not present in databaseTrack 14 not present in databaseTrack 15 not present in databaseTrack 16 not present in database
None of the tracks are present in the AccurateRip database
End of status report
---- CUETools DB Plugin V2.1.6
[CTDB TOCID: u.9Gba0VPmYzae7mMYRadnP2DQg-] foundSubmit result: u.9Gba0VPmYzae7mMYRadnP2DQg- has been confirmedTrack | CTDB Status 1 | (1/1) Accurately ripped 2 | (1/1) Accurately ripped 3 | (1/1) Accurately ripped 4 | (1/1) Accurately ripped 5 | (1/1) Accurately ripped 6 | (1/1) Accurately ripped 7 | (1/1) Accurately ripped 8 | (1/1) Accurately ripped 9 | (1/1) Accurately ripped 10 | (1/1) Accurately ripped 11 | (1/1) Accurately ripped 12 | (1/1) Accurately ripped 13 | (1/1) Accurately ripped 14 | (1/1) Accurately ripped 15 | (1/1) Accurately ripped 16 | (1/1) Accurately ripped
==== Log checksum 7FC813BF686AAF9D4445CE6BC52CB9B1B09FC0A3450FA1F6E068E462EA0EB6E4 ====

Compiled & Mixed By Dj Nawid - Tiefenrausch (Disc 4)


Продолжительность: 01:14:45
01. Ian Carey - Can't Sleep (Vocal Mix) (6:40)
02. Miles Dyson - Exss (2:46)
03. Finform - Dteffi (4:20)
04. Hoxton Whores - Friday Saturday Love (5:00)
05. Gabriel Ananda - Doppelwhipper (6:19)
06. Thomas Schumacher - The Magician (2:39)
07. James Zabiela - Weird Science (4:18)
08. Miles Dyson - Massenfortbewegungsmittel (4:18)
09. Dj Delicious - Let It Drop (Dub Mix) (4:48)
10. Max Graham - Shake That Thing (4:56)
11. Austinleeds - For The Pills (5:48)
12. Yoshimoto - Du What U Du (Trentemoller Remix) (6:02)
13. Gram - Break It Down (Meerbusch Edit) (3:08)
14. Tiesto - Dance Life (Fonzerelli Remix) (6:41)
15. Gabriel Dresden - Tracking Treasure Down (Robbie Rivera Dub Mix) (7:04)

Log

Exact Audio Copy V1.3 from 2. September 2016
EAC extraction logfile from 4. March 2018, 18:59
Compiled & Mixed By Dj Nawid / Tiefenrausch (Disc 4)
Used drive : ASUS DRW-24B5ST Adapter: 6 ID: 0
Read mode : SecureUtilize accurate stream : YesDefeat audio cache : YesMake use of C2 pointers : No
Read offset correction : 6Overread into Lead-In and Lead-Out : NoFill up missing offset samples with silence : YesDelete leading and trailing silent blocks : NoNull samples used in CRC calculations : YesUsed interface : Installed external ASPI interface
Used output format : User Defined EncoderSelected bitrate : 128 kBit/sQuality : HighAdd ID3 tag : NoCommand line compressor : D:\flac-1.3.2-win\win64\flac.exeAdditional command line options : -V -8 -T "Date=%year%" -T "COMMENT=ripped by Andy aka yetiisyou" -T "Genre=%genre%" %source%
TOC of the extracted CD
Track | Start | Length | Start sector | End sector --------------------------------------------------------- 1 | 0:00.00 | 6:40.04 | 0 | 30003 2 | 6:40.04 | 2:45.58 | 30004 | 42436 3 | 9:25.62 | 4:19.49 | 42437 | 61910 4 | 13:45.36 | 4:59.55 | 61911 | 84390 5 | 18:45.16 | 6:18.56 | 84391 | 112796 6 | 25:03.72 | 2:38.40 | 112797 | 124686 7 | 27:42.37 | 4:18.04 | 124687 | 144040 8 | 32:00.41 | 4:18.31 | 144041 | 163421 9 | 36:18.72 | 4:47.65 | 163422 | 185011 10 | 41:06.62 | 4:55.50 | 185012 | 207186 11 | 46:02.37 | 5:47.42 | 207187 | 233253 12 | 51:50.04 | 6:01.49 | 233254 | 260377 13 | 57:51.53 | 3:07.69 | 260378 | 274471 14 | 60:59.47 | 6:40.56 | 274472 | 304527 15 | 67:40.28 | 7:04.21 | 304528 | 336348
Range status and errors
Selected range
Filename E:\!Ripped by Andy aka yetiisyou\VA - Compiled & Mixed by Dj Tiefenrausch [2007]\Compiled & Mixed By Dj Nawid - Tiefenrausch (Disc 4).wav
Peak level 100.0 % Extraction speed 2.3 X Range quality 99.9 % Test CRC 9D996EC0 Copy CRC 9D996EC0 Copy OK
No errors occurred
AccurateRip summary
Track 1 not present in databaseTrack 2 not present in databaseTrack 3 not present in databaseTrack 4 not present in databaseTrack 5 not present in databaseTrack 6 not present in databaseTrack 7 not present in databaseTrack 8 not present in databaseTrack 9 not present in databaseTrack 10 not present in databaseTrack 11 not present in databaseTrack 12 not present in databaseTrack 13 not present in databaseTrack 14 not present in databaseTrack 15 not present in database
None of the tracks are present in the AccurateRip database
End of status report
---- CUETools DB Plugin V2.1.6
[CTDB TOCID: md1ro4rBekf7oCvpdXJVn5V_KC0-] foundSubmit result: md1ro4rBekf7oCvpdXJVn5V_KC0- has been confirmedTrack | CTDB Status 1 | (1/1) Accurately ripped 2 | (1/1) Accurately ripped 3 | (1/1) Accurately ripped 4 | (1/1) Accurately ripped 5 | (1/1) Accurately ripped 6 | (1/1) Accurately ripped 7 | (1/1) Accurately ripped 8 | (1/1) Accurately ripped 9 | (1/1) Accurately ripped 10 | (1/1) Accurately ripped 11 | (1/1) Accurately ripped 12 | (1/1) Accurately ripped 13 | (1/1) Accurately ripped 14 | (1/1) Accurately ripped 15 | (1/1) Accurately ripped
==== Log checksum A84B6788E0D5A5257A149309124BBFD1F41EFA96FCFC777984E342FD9B72B0F8 ====


[islamvillage.com]_t_5641926.torrent
Торрент: Зарегистрирован ·  [ 2018-11-14 22:01 ] ·  f714ace5c0c07aded7088996b4e2b0ee83821606

21 KB

Статус: проверено
Скачан: 0 раз
Размер: 1.96 GB
Оценка: 
(Голосов: 0)
Сказали спасибо: 0  Спасибо
Похожие темы
[Профиль]    [ЛС]
Показать сообщения:    
Ответить на тему

Текущее время: Сегодня 07:05

Часовой пояс: GMT + 7



Вы не можете начинать темы
Вы не можете отвечать на сообщения
Вы не можете редактировать свои сообщения
Вы не можете удалять свои сообщения
Вы не можете голосовать в опросах
Вы не можете прикреплять файлы к сообщениям
Вы можете скачивать файлы


Michael Portillo | Lucy Boynton | BMW 318 d