(Breakbeat) [CD] Egyptian Empire - The Horn Track - 1992, FLAC (image+.cue), lossless

Ответить на тему
Статистика раздачи [Обновить пиров]
Размер:  120 MB   |    Зарегистрирован:  2 месяца 6 дней   |    Скачан:  0 раз

Полного источника не было: Никогда

 
   
 
 
 
Автор Сообщение

islamvillage.com

Создавать темы 15-Ноя-2018 13:13

[Цитировать]

Egyptian Empire / The Horn Track
Жанр: Breakbeat
Носитель: CD
Страна-производитель диска (релиза): Великобритания
Год издания: 1992
Издатель (лейбл): Ffrreedom
Номер по каталогу: TABCD 115
Аудиокодек: FLAC (*.flac)
Тип рипа: image+.cue
Битрейт аудио: lossless
Продолжительность: 0:17:17
Источник (релизер): Собственный рип
Наличие сканов в содержимом раздачи: нет
Треклист:
1. The Horn Track (Original Mix)
2. The Horn Track (Foghorn Mix)
3. The Horn Track (Toxic 2 Mix)

Лог создания рипа

Exact Audio Copy V1.0 beta 3 from 29. August 2011
Отчёт EAC об извлечении, выполненном 14. ноября 2018, 22:05
Egyptian Empire / The Horn Track
Дисковод: Optiarc DVD RW AD-7200S Adapter: 3 ID: 0
Режим чтения : ДостоверностьИспользование точного потока : ДаОтключение кэша аудио : ДаИспользование указателей C2 : Нет
Коррекция смещения при чтении : 48Способность читать области Lead-in и Lead-out : НетЗаполнение пропущенных сэмплов тишиной : ДаУдаление блоков с тишиной в начале и конце : НетПри вычислениях CRC использовались нулевые сэмплы : ДаИнтерфейс : Установленный внешний ASPI-интерфейс
Выходной формат : Пользовательский кодировщикВыбранный битрейт : 1024 kBit/sКачество : ВысокийДобавление ID3-тега : НетУтилита сжатия : C:\Program Files\Exact Audio Copy\Flac\flac.exeДополнительные параметры : -V -8 -T "Date=%year%" -T "Genre=%genre%" %source%
TOC извлечённого CD
Трек | Старт | Длительность | Начальный сектор | Конечный сектор --------------------------------------------------------------------- 1 | 0:00.00 | 6:40.05 | 0 | 30004 2 | 6:40.05 | 6:14.70 | 30005 | 58124 3 | 12:55.00 | 4:21.62 | 58125 | 77761
Характеристики диапазона извлечения и сообщения об ошибках
Выбранный диапазон
Имя файла C:\Users\ASUS\Music\Egyptian Empire - The Horn Track.wav
Пиковый уровень 96.4 % Скорость извлечения 3.1 X Качество диапазона 99.9 % CRC теста F5A59930 CRC копии F5A59930 Копирование... OK
Ошибок не произошло
AccurateRip: сводка
Трек 1 точное извлечение (доверие 3) [D7079D47]Трек 2 точное извлечение (доверие 3) [2C5FF8BD]Трек 3 точное извлечение (доверие 3) [C9435B00]
Все треки извлечены точно
Конец отчёта
==== Контрольная сумма отчёта EE7D8C0A2F90815FAE266DA783A8F801A7E8174D6E7FE2FC68EA2A2F24D3279F ====

Содержание индексной карты (.CUE)

REM DATE 1992REM DISCID 1D040C03REM COMMENT "ExactAudioCopy v1.0b3"PERFORMER " Egyptian Empire"TITLE "The Horn Track "FILE "Egyptian Empire - The Horn Track.flac" WAVE TRACK 01 AUDIO TITLE "The Horn Track (Original Mix)" PERFORMER " Egyptian Empire" INDEX 01 00:00:00 TRACK 02 AUDIO TITLE "The Horn Track (Foghorn Mix)" PERFORMER " Egyptian Empire" INDEX 01 06:40:05 TRACK 03 AUDIO TITLE "The Horn Track (Toxic 2 Mix)" PERFORMER " Egyptian Empire" INDEX 01 12:55:00


[islamvillage.com]_t_5644728.torrent
Торрент: Зарегистрирован ·  [ 2018-11-15 13:13 ] ·  8e7f63dd9cebce3e48fb48cf2f21dbff4abee438

19 KB

Статус: проверено
Скачан: 0 раз
Размер: 120 MB
Оценка: 
(Голосов: 0)
Сказали спасибо: 0  Спасибо
Похожие темы
[Профиль]    [ЛС]
Показать сообщения:    
Ответить на тему

Текущее время: Сегодня 06:54

Часовой пояс: GMT + 7



Вы не можете начинать темы
Вы не можете отвечать на сообщения
Вы не можете редактировать свои сообщения
Вы не можете удалять свои сообщения
Вы не можете голосовать в опросах
Вы не можете прикреплять файлы к сообщениям
Вы можете скачивать файлы


Cây nước - Lọc nước | Fine China Ceramic snuff bottle The manual painting Men and women image e180 | Huawei Keyboards