(Rap) [CD] Havikk (of the S.C.C.) - The rhime son - 2008, ALAC (tracks+.cue), lossless

Ответить на тему
Статистика раздачи [Обновить пиров]
Размер:  408 MB   |    Зарегистрирован:  2 месяца 2 дня   |    Скачан:  0 раз

Полного источника не было: Никогда

 
   
 
 
 
Автор Сообщение

islamvillage.com

Создавать темы 15-Ноя-2018 20:41

[Цитировать]

Havikk (of the S.C.C.) / The rhime son
Жанр: Rap
Носитель: CD
Страна-производитель диска: USA
Год издания: 2008
Издатель (лейбл): Straight Hangin Em Productions
Страна исполнителя (группы): USA
Аудио кодек: ALAC (*.m4a)
Тип рипа: tracks+.cue
Программа-конвертер: Собственный рип (EAC)
Битрейт аудио: lossless
Продолжительность: 01:03:30
Наличие сканов в содержимом раздачи: да
Тексты: вшиты частично (есть текста для треков 2 4 7 8 18)
Источник : Собственный диск
Треклист:
01. Intro
02. Ghetto got me Shadey ft. LV
03. Six million ways ft. CMW, MC Eiht, South Central Cartel, Tha Chill
04. I get my roll on
05. We be smoking ft. Kyle Rifkin, Mac Mall
06. Itz on ft. Marie Kane
07. Interlude (2Pac memories)
08. Thug 4 life ft. 2Pac
09. Blow yo mind ft. Semi Automatic
10. Cali
11. Knock on wood (remix) ft. B.G. Knocc Out, Dresta, Evil Side G's, Young Prodeje, Evil Skeem, Jayo Felony
12. Make it happen ft. B & J
13. 40 Glocc interlude
14. Damn ft. 40 Glocc
15. Set trippen ft. Bloody Mary aka Nini X, Rated R of Thug Life, Hot Dolla
16. Had to be locd
17. Lifestylez plush ft. Gonzoe
18. 380 on that ass ft. Spice 1, Big Prodeje
19. Da clipp ft. Caliboys
20. Outro (shout outs)
Bonus track:
21. I’m ready ft. Christy
22. I get my roll on (re-recorded)

Лог создания рипа

Exact Audio Copy V1.3 from 2. September 2016
Отчёт EAC об извлечении, выполненном 7. ноября 2018, 10:46
Havikk / The rhime son
Дисковод: HL-DT-STDVDRAM GP60NB50 Adapter: 1 ID: 0
Режим чтения : ДостоверностьИспользование точного потока : ДаОтключение кэша аудио : ДаИспользование указателей C2 : Нет
Коррекция смещения при чтении : 6Способность читать области Lead-in и Lead-out : НетЗаполнение пропущенных сэмплов тишиной : ДаУдаление блоков с тишиной в начале и конце : НетПри вычислениях CRC использовались нулевые сэмплы : ДаИнтерфейс : Встроенный Win32-интерфейс для Win NT/2000Обработка зазоров : Добавлено к предыдущему треку
Выходной формат : Пользовательский кодировщикВыбранный битрейт : 128 kBit/sКачество : ВысокийДобавление ID3-тега : НетУтилита сжатия : C:\Users\Антон\Downloads\qaac_2.66\qaac_2.66\x64\refalac64.exeДополнительные параметры : -s --ignorelength --artist "%artist%" --title "%title%" --album "%albumtitle%" --date "%year%" --track "%tracknr%" --genre "%genre%" -o %dest% %source%
TOC извлечённого CD
Трек | Старт | Длительность | Начальный сектор | Конечный сектор --------------------------------------------------------------------- 1 | 0:00.00 | 0:24.60 | 0 | 1859 2 | 0:24.60 | 4:18.36 | 1860 | 21245 3 | 4:43.21 | 4:05.26 | 21246 | 39646 4 | 8:48.47 | 4:02.67 | 39647 | 57863 5 | 12:51.39 | 2:05.52 | 57864 | 67290 6 | 14:57.16 | 3:03.00 | 67291 | 81015 7 | 18:00.16 | 0:59.70 | 81016 | 85510 8 | 19:00.11 | 3:36.07 | 85511 | 101717 9 | 22:36.18 | 3:08.34 | 101718 | 115851 10 | 25:44.52 | 4:00.00 | 115852 | 133851 11 | 29:44.52 | 3:19.67 | 133852 | 148843 12 | 33:04.44 | 2:39.27 | 148844 | 160795 13 | 35:43.71 | 0:22.33 | 160796 | 162478 14 | 36:06.29 | 2:41.07 | 162479 | 174560 15 | 38:47.36 | 3:00.03 | 174561 | 188063 16 | 41:47.39 | 3:09.36 | 188064 | 202274 17 | 44:57.00 | 2:24.13 | 202275 | 213087 18 | 47:21.13 | 3:59.42 | 213088 | 231054 19 | 51:20.55 | 3:59.52 | 231055 | 249031 20 | 55:20.32 | 1:03.10 | 249032 | 253766 21 | 56:23.42 | 2:56.17 | 253767 | 266983 22 | 59:19.59 | 4:10.07 | 266984 | 285740
Трек 1
Имя файла C:\Users\Антон\Downloads\Музыка\Havikk - The rhime son (2008)\01 Intro.wav
Длина предзазора 0:00:02.00
Пиковый уровень 88.4 % Скорость извлечения 1.0 X Качество трека 100.0 % CRC теста 8B27E2C3 CRC копии 8B27E2C3 Точное извлечение (достоверность 1) [713E3560] (AR v2) Копирование... OK
Трек 2
Имя файла C:\Users\Антон\Downloads\Музыка\Havikk - The rhime son (2008)\02 Ghetto got me Shadey ft. LV.wav
Пиковый уровень 95.8 % Скорость извлечения 3.1 X Качество трека 100.0 % CRC теста 30D368DF CRC копии 30D368DF Точное извлечение (достоверность 1) [5A7F3A9F] (AR v2) Копирование... OK
Трек 3
Имя файла C:\Users\Антон\Downloads\Музыка\Havikk - The rhime son (2008)\03 Six million ways ft. CMW, MC Eiht, South Central Cartel, Tha Chill.wav
Пиковый уровень 100.0 % Скорость извлечения 2.9 X Качество трека 99.9 % CRC теста 91AF9113 CRC копии 91AF9113 Точное извлечение (достоверность 1) [9D86C219] (AR v2) Копирование... OK
Трек 4
Имя файла C:\Users\Антон\Downloads\Музыка\Havikk - The rhime son (2008)\04 I get my roll on.wav
Пиковый уровень 100.0 % Скорость извлечения 3.5 X Качество трека 100.0 % CRC теста 4FB7E403 CRC копии 4FB7E403 Точное извлечение (достоверность 1) [ED8521E5] (AR v2) Копирование... OK
Трек 5
Имя файла C:\Users\Антон\Downloads\Музыка\Havikk - The rhime son (2008)\05 We be smoking ft. Kyle Rifkin, Mac Mall.wav
Пиковый уровень 80.3 % Скорость извлечения 3.4 X Качество трека 100.0 % CRC теста B466EFC6 CRC копии B466EFC6 Точное извлечение (достоверность 1) [711CE68D] (AR v2) Копирование... OK
Трек 6
Имя файла C:\Users\Антон\Downloads\Музыка\Havikk - The rhime son (2008)\06 Itz on ft. Marie Kane.wav
Пиковый уровень 72.4 % Скорость извлечения 3.7 X Качество трека 100.0 % CRC теста 1039E1FB CRC копии 1039E1FB Точное извлечение (достоверность 1) [E5EB3A89] (AR v2) Копирование... OK
Трек 7
Имя файла C:\Users\Антон\Downloads\Музыка\Havikk - The rhime son (2008)\07 Interlude (2Pac memories).wav
Пиковый уровень 73.4 % Скорость извлечения 2.2 X Качество трека 100.0 % CRC теста 35886842 CRC копии 35886842 Точное извлечение (достоверность 1) [2DA8DA27] (AR v2) Копирование... OK
Трек 8
Имя файла C:\Users\Антон\Downloads\Музыка\Havikk - The rhime son (2008)\08 Thug 4 life ft. 2Pac.wav
Пиковый уровень 73.0 % Скорость извлечения 3.5 X Качество трека 99.9 % CRC теста 1F787652 CRC копии 1F787652 Точное извлечение (достоверность 1) [748F361A] (AR v2) Копирование... OK
Трек 9
Имя файла C:\Users\Антон\Downloads\Музыка\Havikk - The rhime son (2008)\09 Blow yo mind ft. Semi Automatic.wav
Пиковый уровень 85.4 % Скорость извлечения 2.7 X Качество трека 100.0 % CRC теста 92559E68 CRC копии 92559E68 Точное извлечение (достоверность 1) [B2B24F72] (AR v2) Копирование... OK
Трек 10
Имя файла C:\Users\Антон\Downloads\Музыка\Havikk - The rhime son (2008)\10 Cali.wav
Пиковый уровень 79.9 % Скорость извлечения 3.9 X Качество трека 99.9 % CRC теста C8AEE720 CRC копии C8AEE720 Точное извлечение (достоверность 1) [77D69414] (AR v2) Копирование... OK
Трек 11
Имя файла C:\Users\Антон\Downloads\Музыка\Havikk - The rhime son (2008)\11 Knock on wood (remix).wav
Пиковый уровень 88.7 % Скорость извлечения 1.9 X Качество трека 100.0 % CRC теста FFCEB193 CRC копии FFCEB193 Точное извлечение (достоверность 1) [F037BB4B] (AR v2) Копирование... OK
Трек 12
Имя файла C:\Users\Антон\Downloads\Музыка\Havikk - The rhime son (2008)\12 Make it happen ft. B & J.wav
Пиковый уровень 84.2 % Скорость извлечения 1.6 X Качество трека 99.9 % CRC теста 4E899099 CRC копии 4E899099 Точное извлечение (достоверность 1) [43338C1D] (AR v2) Копирование... OK
Трек 13
Имя файла C:\Users\Антон\Downloads\Музыка\Havikk - The rhime son (2008)\13 40 Glocc interlude.wav
Пиковый уровень 91.5 % Скорость извлечения 0.8 X Качество трека 100.0 % CRC теста 492766E8 CRC копии 492766E8 Точное извлечение (достоверность 1) [E5CEFC1F] (AR v2) Копирование... OK
Трек 14
Имя файла C:\Users\Антон\Downloads\Музыка\Havikk - The rhime son (2008)\14 Damn ft. 40 Glocc.wav
Пиковый уровень 56.9 % Скорость извлечения 2.0 X Качество трека 100.0 % CRC теста 89CEE134 CRC копии 89CEE134 Точное извлечение (достоверность 1) [67D26165] (AR v2) Копирование... OK
Трек 15
Имя файла C:\Users\Антон\Downloads\Музыка\Havikk - The rhime son (2008)\15 Set trippen ft. Bloody Mary aka Nini X, Rated R of Thug Life, Hot Dolla.wav
Пиковый уровень 72.2 % Скорость извлечения 2.1 X Качество трека 100.0 % CRC теста D7E93B80 CRC копии D7E93B80 Точное извлечение (достоверность 1) [6835E223] (AR v2) Копирование... OK
Трек 16
Имя файла C:\Users\Антон\Downloads\Музыка\Havikk - The rhime son (2008)\16 Had to be loc’d.wav
Пиковый уровень 97.8 % Скорость извлечения 2.1 X Качество трека 100.0 % CRC теста 819DA8A9 CRC копии 819DA8A9 Точное извлечение (достоверность 1) [77F8AFB6] (AR v2) Копирование... OK
Трек 17
Имя файла C:\Users\Антон\Downloads\Музыка\Havikk - The rhime son (2008)\17 Lifestylez plush ft. Gonzoe.wav
Пиковый уровень 100.0 % Скорость извлечения 2.1 X Качество трека 100.0 % CRC теста 02DEB8D7 CRC копии 02DEB8D7 Точное извлечение (достоверность 1) [713C8A1B] (AR v2) Копирование... OK
Трек 18
Имя файла C:\Users\Антон\Downloads\Музыка\Havikk - The rhime son (2008)\18 380 on that ass ft. Spice 1, Big Prodeje.wav
Пиковый уровень 81.5 % Скорость извлечения 2.3 X Качество трека 100.0 % CRC теста BFE158EA CRC копии BFE158EA Точное извлечение (достоверность 1) [03A72FEE] (AR v2) Копирование... OK
Трек 19
Имя файла C:\Users\Антон\Downloads\Музыка\Havikk - The rhime son (2008)\19 Da clipp ft. Caliboys.wav
Пиковый уровень 94.3 % Скорость извлечения 2.1 X Качество трека 99.9 % CRC теста 9D5EDE4B CRC копии 9D5EDE4B Точное извлечение (достоверность 1) [23070FB7] (AR v2) Копирование... OK
Трек 20
Имя файла C:\Users\Антон\Downloads\Музыка\Havikk - The rhime son (2008)\20 Outro (shout outs).wav
Пиковый уровень 81.9 % Скорость извлечения 1.7 X Качество трека 100.0 % CRC теста 4368432A CRC копии 4368432A Точное извлечение (достоверность 1) [F23BCFA1] (AR v2) Копирование... OK
Трек 21
Имя файла C:\Users\Антон\Downloads\Музыка\Havikk - The rhime son (2008)\21 I’m ready ft. Christy.wav
Пиковый уровень 69.0 % Скорость извлечения 2.3 X Качество трека 100.0 % CRC теста 36BCFC7A CRC копии 36BCFC7A Точное извлечение (достоверность 1) [92707E4C] (AR v2) Копирование... OK
Трек 22
Имя файла C:\Users\Антон\Downloads\Музыка\Havikk - The rhime son (2008)\22 I get my roll on (re-recorded).wav
Пиковый уровень 65.1 % Скорость извлечения 2.5 X Качество трека 100.0 % CRC теста 7DB1296E CRC копии 7DB1296E Точное извлечение (достоверность 1) [75A2B46B] (AR v2) Копирование... OK
Все треки извлечены точно
Ошибок не произошло
Конец отчёта
---- CUETools DB Plugin V2.1.6
[CTDB TOCID: 3FcQI3oddbM9t6FPq_TAhq8M.Vw-] foundSubmit result: already submittedTrack | CTDB Status 1 | (3/3) Accurately ripped 2 | (3/3) Accurately ripped 3 | (3/3) Accurately ripped 4 | (3/3) Accurately ripped 5 | (3/3) Accurately ripped 6 | (3/3) Accurately ripped 7 | (3/3) Accurately ripped 8 | (3/3) Accurately ripped 9 | (3/3) Accurately ripped 10 | (3/3) Accurately ripped 11 | (3/3) Accurately ripped 12 | (3/3) Accurately ripped 13 | (3/3) Accurately ripped 14 | (3/3) Accurately ripped 15 | (3/3) Accurately ripped 16 | (3/3) Accurately ripped 17 | (3/3) Accurately ripped 18 | (3/3) Accurately ripped 19 | (3/3) Accurately ripped 20 | (3/3) Accurately ripped 21 | (3/3) Accurately ripped 22 | (3/3) Accurately ripped
==== Контрольная сумма отчёта 32F172ED69465067C32381577E1139E7ADAAAD53504405B53A9E61283175B482 ====

Содержание индексной карты (.CUE)

REM GENRE RapREM DATE 2008REM DISCID 500EE116REM COMMENT "ExactAudioCopy v1.3"PERFORMER "Havikk"TITLE "The rhime son"REM COMPOSER ""FILE "01 Intro.wav" WAVE TRACK 01 AUDIO TITLE "Intro" PERFORMER "Havikk" REM COMPOSER "" FLAGS DCP INDEX 01 00:00:00FILE "02 Ghetto got me Shadey ft. LV.wav" WAVE TRACK 02 AUDIO TITLE "Ghetto got me Shadey ft. LV" PERFORMER "Havikk" REM COMPOSER "" FLAGS DCP INDEX 01 00:00:00FILE "03 Six million ways ft. CMW, MC Eiht, South Central Cartel, Tha Chill.wav" WAVE TRACK 03 AUDIO TITLE "Six million ways ft. CMW, MC Eiht, South Central Cartel, Tha Chill" PERFORMER "Havikk" REM COMPOSER "" FLAGS DCP INDEX 01 00:00:00FILE "04 I get my roll on.wav" WAVE TRACK 04 AUDIO TITLE "I get my roll on" PERFORMER "Havikk" REM COMPOSER "" FLAGS DCP INDEX 01 00:00:00FILE "05 We be smoking ft. Kyle Rifkin, Mac Mall.wav" WAVE TRACK 05 AUDIO TITLE "We be smoking ft. Kyle Rifkin, Mac Mall" PERFORMER "Havikk" REM COMPOSER "" FLAGS DCP INDEX 01 00:00:00FILE "06 Itz on ft. Marie Kane.wav" WAVE TRACK 06 AUDIO TITLE "Itz on ft. Marie Kane" PERFORMER "Havikk" REM COMPOSER "" FLAGS DCP INDEX 01 00:00:00FILE "07 Interlude (2Pac memories).wav" WAVE TRACK 07 AUDIO TITLE "Interlude (2Pac memories)" PERFORMER "Havikk" REM COMPOSER "" FLAGS DCP INDEX 01 00:00:00FILE "08 Thug 4 life ft. 2Pac.wav" WAVE TRACK 08 AUDIO TITLE "Thug 4 life ft. 2Pac" PERFORMER "Havikk" REM COMPOSER "" FLAGS DCP INDEX 01 00:00:00FILE "09 Blow yo mind ft. Semi Automatic.wav" WAVE TRACK 09 AUDIO TITLE "Blow yo mind ft. Semi Automatic" PERFORMER "Havikk" REM COMPOSER "" FLAGS DCP INDEX 01 00:00:00FILE "10 Cali.wav" WAVE TRACK 10 AUDIO TITLE "Cali" PERFORMER "Havikk" REM COMPOSER "" FLAGS DCP INDEX 01 00:00:00FILE "11 Knock on wood (remix).wav" WAVE TRACK 11 AUDIO TITLE "Knock on wood (remix)" PERFORMER "Havikk, B.G. Knocc Out, Dresta, Evil Side G's, Young Prodeje, Evil Skeem, Jay..." REM COMPOSER "" FLAGS DCP INDEX 01 00:00:00FILE "12 Make it happen ft. B & J.wav" WAVE TRACK 12 AUDIO TITLE "Make it happen ft. B & J" PERFORMER "Havikk" REM COMPOSER "" FLAGS DCP INDEX 01 00:00:00FILE "13 40 Glocc interlude.wav" WAVE TRACK 13 AUDIO TITLE "40 Glocc interlude" PERFORMER "Havikk" REM COMPOSER "" FLAGS DCP INDEX 01 00:00:00FILE "14 Damn ft. 40 Glocc.wav" WAVE TRACK 14 AUDIO TITLE "Damn ft. 40 Glocc" PERFORMER "Havikk" REM COMPOSER "" FLAGS DCP INDEX 01 00:00:00FILE "15 Set trippen ft. Bloody Mary aka Nini X, Rated R of Thug Life, Hot Dolla.wav" WAVE TRACK 15 AUDIO TITLE "Set trippen ft. Bloody Mary aka Nini X, Rated R of Thug Life, Hot Dolla" PERFORMER "Havikk" REM COMPOSER "" FLAGS DCP INDEX 01 00:00:00FILE "16 Had to be loc’d.wav" WAVE TRACK 16 AUDIO TITLE "Had to be loc’d" PERFORMER "Havikk" REM COMPOSER "" FLAGS DCP INDEX 01 00:00:00FILE "17 Lifestylez plush ft. Gonzoe.wav" WAVE TRACK 17 AUDIO TITLE "Lifestylez plush ft. Gonzoe" PERFORMER "Havikk" REM COMPOSER "" FLAGS DCP INDEX 01 00:00:00FILE "18 380 on that ass ft. Spice 1, Big Prodeje.wav" WAVE TRACK 18 AUDIO TITLE "380 on that ass ft. Spice 1, Big Prodeje" PERFORMER "Havikk" REM COMPOSER "" FLAGS DCP INDEX 01 00:00:00FILE "19 Da clipp ft. Caliboys.wav" WAVE TRACK 19 AUDIO TITLE "Da clipp ft. Caliboys" PERFORMER "Havikk" REM COMPOSER "" FLAGS DCP INDEX 01 00:00:00FILE "20 Outro (shout outs).wav" WAVE TRACK 20 AUDIO TITLE "Outro (shout outs)" PERFORMER "Havikk" REM COMPOSER "" FLAGS DCP INDEX 01 00:00:00FILE "21 I’m ready ft. Christy.wav" WAVE TRACK 21 AUDIO TITLE "I’m ready ft. Christy" PERFORMER "Havikk" REM COMPOSER "" FLAGS DCP INDEX 01 00:00:00FILE "22 I get my roll on (re-recorded).wav" WAVE TRACK 22 AUDIO TITLE "I get my roll on (re-recorded)" PERFORMER "Havikk" REM COMPOSER "" FLAGS DCP INDEX 01 00:00:00

Лог проверки качества

CUE Corrector v. 8.3.4 / b. 889 (Nov. 03, 2018)————————————————————————————————————————————————————————————————————————--- / The rhime son
Folder: Havikk - The rhime son (2008)Audio files: 01 Intro.m4a [00:24.800; ALAC • 897 kbps • 16 bit \ 44100 Hz • stereo; 2.66 MB (2 786 849 B)] 02 Ghetto got me Shadey ft. LV.m4a [04:18.480; ALAC • 877 kbps • 16 bit \ 44100 Hz • stereo; 27.06 MB (28 378 720 B)] 03 Six million ways ft. CMW, MC Eiht, South Central Cartel, Tha Chill.m4a [04:05.347; ALAC • 893 kbps • 16 bit \ 44100 Hz • stereo; 26.13 MB (27 403 592 B)] 04 I get my roll on.m4a [04:02.893; ALAC • 900 kbps • 16 bit \ 44100 Hz • stereo; 26.08 MB (27 342 406 B)] 05 We be smoking ft. Kyle Rifkin, Mac Mall.m4a [02:05.693; ALAC • 840 kbps • 16 bit \ 44100 Hz • stereo; 12.61 MB (13 218 608 B)] 06 Itz on ft. Marie Kane.m4a [03:03.000; ALAC • 887 kbps • 16 bit \ 44100 Hz • stereo; 19.38 MB (20 317 881 B)] 07 Interlude (2Pac memories).m4a [00:59.933; ALAC • 841 kbps • 16 bit \ 44100 Hz • stereo; 6.02 MB (6 307 660 B)] 08 Thug 4 life ft. 2Pac.m4a [03:36.093; ALAC • 996 kbps • 16 bit \ 44100 Hz • stereo; 25.68 MB (26 929 856 B)] 09 Blow yo mind ft. Semi Automatic.m4a [03:08.453; ALAC • 871 kbps • 16 bit \ 44100 Hz • stereo; 19.59 MB (20 543 792 B)] 10 Cali.m4a [04:00.000; ALAC • 715 kbps • 16 bit \ 44100 Hz • stereo; 20.50 MB (21 491 358 B)] 11 Knock on wood (remix).m4a [03:19.893; ALAC • 828 kbps • 16 bit \ 44100 Hz • stereo; 19.76 MB (20 718 856 B)] 12 Make it happen ft. B & J.m4a [02:39.360; ALAC • 774 kbps • 16 bit \ 44100 Hz • stereo; 14.72 MB (15 435 028 B)] 13 40 Glocc interlude.m4a [00:22.440; ALAC • 842 kbps • 16 bit \ 44100 Hz • stereo; 2.26 MB (2 366 324 B)] 14 Damn ft. 40 Glocc.m4a [02:41.093; ALAC • 994 kbps • 16 bit \ 44100 Hz • stereo; 19.11 MB (20 039 011 B)] 15 Set trippen ft. Bloody Mary aka Nini X, Rated R of Thug Life, Hot Dolla.m4a [03:00.040; ALAC • 871 kbps • 16 bit \ 44100 Hz • stereo; 18.72 MB (19 628 440 B)] 16 Had to be loc’d.m4a [03:09.480; ALAC • 905 kbps • 16 bit \ 44100 Hz • stereo; 20.47 MB (21 459 918 B)] 17 Lifestylez plush ft. Gonzoe.m4a [02:24.173; ALAC • 796 kbps • 16 bit \ 44100 Hz • stereo; 13.70 MB (14 360 784 B)] 18 380 on that ass ft. Spice 1, Big Prodeje.m4a [03:59.560; ALAC • 859 kbps • 16 bit \ 44100 Hz • stereo; 24.55 MB (25 737 784 B)] 19 Da clipp ft. Caliboys.m4a [03:59.693; ALAC • 796 kbps • 16 bit \ 44100 Hz • stereo; 22.78 MB (23 883 622 B)] 20 Outro (shout outs).m4a [01:03.133; ALAC • 874 kbps • 16 bit \ 44100 Hz • stereo; 6.59 MB (6 905 125 B)] 21 I’m ready ft. Christy.m4a [02:56.227; ALAC • 806 kbps • 16 bit \ 44100 Hz • stereo; 16.96 MB (17 779 083 B)] 22 I get my roll on (re-recorded).m4a [04:10.093; ALAC • 879 kbps • 16 bit \ 44100 Hz • stereo; 26.23 MB (27 503 995 B)]
Accuracy: -m0
File 01 Intro - 43% CDDA [00:24:60]
Detected average hi-boundary frequency : 20516.840 Hz Detected average lo-boundary frequency : 15814.330 Hz Detected average hi-cut frequency : 20827.970 Hz Detected average lo-cut frequency : 17669.530 Hz Maximum probablis boundary frequency : 21896.000 Hz Coefficient of nonlinearity of a phase : 0.04878826 First order smothness : 0.55970150 Second order smothness : 0.80970150
File 02 Ghetto got me Shadey ft. LV - 95% MPEG [04:18:36]
Detected average hi-boundary frequency : 20436.560 Hz Detected average lo-boundary frequency : 16370.920 Hz Detected average hi-cut frequency : 20374.110 Hz Detected average lo-cut frequency : 16393.620 Hz Maximum probablis boundary frequency : 21891.000 Hz Coefficient of nonlinearity of a phase : 0.00904822 First order smothness : 0.68738770 Second order smothness : 0.76967300
File 03 Six million ways ft. CMW, MC Eiht, South Central Cartel, Tha Chill - unknown [04:05:26]
Detected average hi-boundary frequency : 20255.100 Hz Detected average lo-boundary frequency : 14747.850 Hz Detected average hi-cut frequency : 20308.550 Hz Detected average lo-cut frequency : 14550.030 Hz Maximum probablis boundary frequency : 21891.000 Hz Coefficient of nonlinearity of a phase : 0.03384627 First order smothness : 0.77517030 Second order smothness : 0.71158210
File 04 I get my roll on - 90% MPEG [04:02:67]
Detected average hi-boundary frequency : 20592.760 Hz Detected average lo-boundary frequency : 15637.020 Hz Detected average hi-cut frequency : 20713.370 Hz Detected average lo-cut frequency : 18488.670 Hz Maximum probablis boundary frequency : 20664.000 Hz Coefficient of nonlinearity of a phase : 0.02494064 First order smothness : 0.58333330 Second order smothness : 0.79128440
File 05 We be smoking ft. Kyle Rifkin, Mac Mall - 95% MPEG [02:05:52]
Detected average hi-boundary frequency : 20283.830 Hz Detected average lo-boundary frequency : 16117.110 Hz Detected average hi-cut frequency : 20266.460 Hz Detected average lo-cut frequency : 17928.120 Hz Maximum probablis boundary frequency : 19334.000 Hz Coefficient of nonlinearity of a phase : 0.01953166 First order smothness : 0.64475630 Second order smothness : 0.78877400
File 06 Itz on ft. Marie Kane - 99% MPEG [03:03:00]
Detected average hi-boundary frequency : 20427.250 Hz Detected average lo-boundary frequency : 15489.760 Hz Detected average hi-cut frequency : 20399.140 Hz Detected average lo-cut frequency : 16212.010 Hz Maximum probablis boundary frequency : 21891.000 Hz Coefficient of nonlinearity of a phase : 0.07121867 First order smothness : 0.68493150 Second order smothness : 0.80568240
File 07 Interlude (2Pac memories) - unknown [00:59:70]
Detected average hi-boundary frequency : 20211.310 Hz Detected average lo-boundary frequency : 15607.530 Hz Detected average hi-cut frequency : 20025.340 Hz Detected average lo-cut frequency : 15992.710 Hz Maximum probablis boundary frequency : 21891.000 Hz Coefficient of nonlinearity of a phase : 0.07432129 First order smothness : 0.70123840 Second order smothness : 0.80959750
File 08 Thug 4 life ft. 2Pac - 95% MPEG [03:36:07]
Detected average hi-boundary frequency : 19869.110 Hz Detected average lo-boundary frequency : 16957.170 Hz Detected average hi-cut frequency : 19936.260 Hz Detected average lo-cut frequency : 17865.380 Hz Maximum probablis boundary frequency : 21891.000 Hz Coefficient of nonlinearity of a phase : 0.01725960 First order smothness : 0.76837130 Second order smothness : 0.80661800
File 09 Blow yo mind ft. Semi Automatic - 95% MPEG [03:08:34]
Detected average hi-boundary frequency : 19733.690 Hz Detected average lo-boundary frequency : 15273.680 Hz Detected average hi-cut frequency : 19677.960 Hz Detected average lo-cut frequency : 16340.870 Hz Maximum probablis boundary frequency : 16680.000 Hz Coefficient of nonlinearity of a phase : 0.00554412 First order smothness : 0.69802960 Second order smothness : 0.78669950
File 10 Cali - unknown [04:00:00]
Detected average hi-boundary frequency : 19892.010 Hz Detected average lo-boundary frequency : 14703.800 Hz Detected average hi-cut frequency : 20015.890 Hz Detected average lo-cut frequency : 16036.590 Hz Maximum probablis boundary frequency : 21891.000 Hz Coefficient of nonlinearity of a phase : 0.01234790 First order smothness : 0.68150150 Second order smothness : 0.79334370
File 11 Knock on wood (remix) - unknown [03:19:67]
Detected average hi-boundary frequency : 19736.730 Hz Detected average lo-boundary frequency : 14255.930 Hz Detected average hi-cut frequency : 19663.260 Hz Detected average lo-cut frequency : 14423.640 Hz Maximum probablis boundary frequency : 21891.000 Hz Coefficient of nonlinearity of a phase : 0.02622710 First order smothness : 0.59544820 Second order smothness : 0.74779380
File 12 Make it happen ft. B & J - unknown [02:39:27]
Detected average hi-boundary frequency : 20158.770 Hz Detected average lo-boundary frequency : 14892.370 Hz Detected average hi-cut frequency : 20247.000 Hz Detected average lo-cut frequency : 16022.640 Hz Maximum probablis boundary frequency : 21891.000 Hz Coefficient of nonlinearity of a phase : 0.01616928 First order smothness : 0.63927740 Second order smothness : 0.77389280
File 13 40 Glocc interlude - 100% MPEG [00:22:33]
Detected average hi-boundary frequency : 20594.230 Hz Detected average lo-boundary frequency : 13303.000 Hz Detected average hi-cut frequency : 20706.980 Hz Detected average lo-cut frequency : 15755.490 Hz Maximum probablis boundary frequency : 21891.000 Hz Coefficient of nonlinearity of a phase : 0.15079520 First order smothness : 0.53719010 Second order smothness : 0.85123970
File 14 Damn ft. 40 Glocc - 90% MPEG [02:41:07]
Detected average hi-boundary frequency : 20586.140 Hz Detected average lo-boundary frequency : 14813.050 Hz Detected average hi-cut frequency : 20617.930 Hz Detected average lo-cut frequency : 17647.560 Hz Maximum probablis boundary frequency : 21891.000 Hz Coefficient of nonlinearity of a phase : 0.04700915 First order smothness : 0.52968300 Second order smothness : 0.78386170
File 15 Set trippen ft. Bloody Mary aka Nini X, Rated R of Thug Life, Hot Dolla - 80% MPEG [03:00:03]
Detected average hi-boundary frequency : 19441.860 Hz Detected average lo-boundary frequency : 14205.910 Hz Detected average hi-cut frequency : 19291.640 Hz Detected average lo-cut frequency : 14097.920 Hz Maximum probablis boundary frequency : 21891.000 Hz Coefficient of nonlinearity of a phase : 0.04094345 First order smothness : 0.61578130 Second order smothness : 0.71119130
File 16 Had to be loc’d - unknown [03:09:36]
Detected average hi-boundary frequency : 20370.570 Hz Detected average lo-boundary frequency : 15381.060 Hz Detected average hi-cut frequency : 20438.210 Hz Detected average lo-cut frequency : 16198.890 Hz Maximum probablis boundary frequency : 21891.000 Hz Coefficient of nonlinearity of a phase : 0.04333147 First order smothness : 0.67760900 Second order smothness : 0.72415480
File 17 Lifestylez plush ft. Gonzoe - 62% CDDA [02:24:13]
Detected average hi-boundary frequency : 20374.970 Hz Detected average lo-boundary frequency : 15472.890 Hz Detected average hi-cut frequency : 20335.400 Hz Detected average lo-cut frequency : 16641.300 Hz Maximum probablis boundary frequency : 21891.000 Hz Coefficient of nonlinearity of a phase : 0.02245510 First order smothness : 0.67611080 Second order smothness : 0.65550550
File 18 380 on that ass ft. Spice 1, Big Prodeje - 93% MPEG [03:59:42]
Detected average hi-boundary frequency : 20272.620 Hz Detected average lo-boundary frequency : 15608.590 Hz Detected average hi-cut frequency : 20352.710 Hz Detected average lo-cut frequency : 17914.760 Hz Maximum probablis boundary frequency : 19356.000 Hz Coefficient of nonlinearity of a phase : 0.01056040 First order smothness : 0.61007750 Second order smothness : 0.80193800
File 19 Da clipp ft. Caliboys - 95% MPEG [03:59:52]
Detected average hi-boundary frequency : 20932.360 Hz Detected average lo-boundary frequency : 16804.940 Hz Detected average hi-cut frequency : 21127.340 Hz Detected average lo-cut frequency : 19345.260 Hz Maximum probablis boundary frequency : 20669.000 Hz Coefficient of nonlinearity of a phase : 0.01741816 First order smothness : 0.64509880 Second order smothness : 0.78729170
File 20 Outro (shout outs) - 99% MPEG [01:03:10]
Detected average hi-boundary frequency : 20627.360 Hz Detected average lo-boundary frequency : 15276.770 Hz Detected average hi-cut frequency : 20721.130 Hz Detected average lo-cut frequency : 18453.720 Hz Maximum probablis boundary frequency : 21891.000 Hz Coefficient of nonlinearity of a phase : 0.05725261 First order smothness : 0.59852940 Second order smothness : 0.87941180
File 21 I’m ready ft. Christy - unknown [02:56:17]
Detected average hi-boundary frequency : 20262.810 Hz Detected average lo-boundary frequency : 15208.340 Hz Detected average hi-cut frequency : 20235.410 Hz Detected average lo-cut frequency : 16404.790 Hz Maximum probablis boundary frequency : 21891.000 Hz Coefficient of nonlinearity of a phase : 0.02309675 First order smothness : 0.60695470 Second order smothness : 0.77555320
File 22 I get my roll on (re-recorded) - 95% MPEG [04:10:07]
Detected average hi-boundary frequency : 20504.600 Hz Detected average lo-boundary frequency : 16480.500 Hz Detected average hi-cut frequency : 20421.110 Hz Detected average lo-cut frequency : 17733.090 Hz Maximum probablis boundary frequency : 21891.000 Hz Coefficient of nonlinearity of a phase : 0.01007832 First order smothness : 0.69513550 Second order smothness : 0.73895280
————— Summary: —————These tracks looks like MPEGs with probability 100%.————————————————————————————————————————————————————————————————————————
ANALYZER: auCDtect: CD records authenticity detector, version 0.8.2 Copyright (c) 2004 Oleg Berngardt. All rights reserved. Copyright (c) 2004 Alexander Djourik. All rights reserved.
Time elapsed: 3 m 30 sLog created at November 07, 2018 10:52:35
=== 12B8DF674C0ED165B6A877896AF6089738F4F4A0329483B34CD34F1A0D82B123 ===

Скриншот(ы) тегов iTunes

Об альбоме (сборнике)

Всем любителям настоящего West Coast!!! Достаточно редкий дебютный альбом Havikk The Rhime Son "The Rhime Son", участника легендарной гангста-рэп группы South Central Cartel.
Havikk выпустил этот дебютник на лейбле Straight Hangin Em Productions в 2008 году. На нём есть как материал записанный в 90-х, так и новые треки.
Среди гостей отметились такие люди как Compton’s Most Wanted, Mac Mall, B.G. Knocc Out & Dresta, Prodeje, Spice 1, LV, Jayo Felony, MC Eiht и Rated R (один из участников проекта THUG LIFE). Есть даже трек с 2Pac “Thug 4 Life”.


[islamvillage.com]_t_5640906.torrent
Торрент: Зарегистрирован ·  [ 2018-11-15 20:40 ] ·  4d56e6e34743dd5663a4d77f61c5c6d9701f00f4

18 KB

Статус: проверено
Скачан: 0 раз
Размер: 408 MB
Оценка: 
(Голосов: 0)
Сказали спасибо: 0  Спасибо
Похожие темы
[Профиль]    [ЛС]
Показать сообщения:    
Ответить на тему

Текущее время: Сегодня 19:01

Часовой пояс: GMT + 7



Вы не можете начинать темы
Вы не можете отвечать на сообщения
Вы не можете редактировать свои сообщения
Вы не можете удалять свои сообщения
Вы не можете голосовать в опросах
Вы не можете прикреплять файлы к сообщениям
Вы можете скачивать файлы


Julio Perillán | Jim wie lepiej / According to Jim | Harry Potter and the Order of the Phoenix (Book 5) [... by J.K. Rowling Hardback