(Jazz Big Band / Fusion / Post-Bop) Frank Macchia\'s Swamp Thang - Fried Zombie Stew - 2012, FLAC (tracks), lossless

Ответить на тему
Статистика раздачи [Обновить пиров]
Размер:  409 MB   |    Зарегистрирован:  1 месяц 27 дней   |    Скачан:  0 раз

Полного источника не было: Никогда

 
   
 
 
 
Автор Сообщение

islamvillage.com

Создавать темы 23-Ноя-2018 01:57

[Цитировать]

Frank Macchia's Swamp Thang / Fried Zombie Stew
[img=right]http://i107.fastpic.ru/big/2018/1121/c6/e5de4b4627...47d3c6.jpg[/img]
Жанр: Jazz Big Band / Fusion / Post-Bop
Носитель: ?
Год издания: 2012
Издатель (лейбл): Cacophony, Inc
Номер по каталогу: FMC522
Страна исполнителя (группы): US
Аудиокодек: FLAC (*.flac)
Тип рипа: tracks
Битрейт аудио: lossless
Продолжительность: 62:00 min
Источник (релизер): интернет
Наличие сканов в содержимом раздачи:
Треклист:
1. Fried Zombie Stew. 6:47
2. Thumpety Thump Thump. 4:07
3. Diddley vs. Spock. 4:50
4. Walkin' the Hog. 4:02
5. Red Light. 6:20
6. Falling Off the Wagon. 4:38
7. Groovin' 4 Daze. 4:25
8. Shimmy Go-Bop. 3:28
9. Zag Zig. 3:32
10. Three Leg Pony. 7:28
11. Crusty Old Man. 4:58
12. Jiggle Wiggle. 7:19

DRM.log

foobar2000 1.3.8 / Dynamic Range Meter 1.1.1log date: 2018-11-22 00:48:00
--------------------------------------------------------------------------------Analyzed: Frank Macchia / Swamp Thang: Fried Zombie Stew--------------------------------------------------------------------------------
DR Peak RMS Duration Track--------------------------------------------------------------------------------DR6 -0.80 dB -8.33 dB 6:47 01-Fried Zombie StewDR6 -0.80 dB -7.97 dB 4:08 02-Thumpety Thump ThumpDR6 -0.80 dB -8.03 dB 4:51 03-Diddley Vs. SpockDR7 -0.80 dB -10.04 dB 4:03 04-Walkin' the HogDR7 -0.80 dB -10.59 dB 6:20 05-Red LightDR6 -0.80 dB -8.17 dB 4:39 06-Falling Off the WagonDR6 -0.80 dB -7.83 dB 4:25 07-Groovin' 4 DazeDR6 -0.80 dB -8.15 dB 3:28 08-Shimmy Go-BopDR6 -0.80 dB -7.75 dB 3:32 09-Zag ZigDR5 -0.80 dB -8.30 dB 7:29 10-Three Leg PonyDR7 -0.80 dB -9.32 dB 4:59 11-Crusty Old ManDR7 -0.80 dB -8.77 dB 7:20 12-Jiggle Wiggle--------------------------------------------------------------------------------
Number of tracks: 12Official DR value: DR6
Samplerate: 44100 HzChannels: 2Bits per sample: 16Bitrate: 955 kbpsCodec: FLAC================================================================================

Лог проверки качества

-----------------------
DON'T MODIFY THIS FILE
-----------------------
PERFORMER: auCDtect Task Manager, ver. 1.6.0 RC1 build 1.6.0.1Copyright (c) 2008-2010 y-soft. All rights reservedhttp://y-soft.org
ANALYZER: auCDtect: CD records authenticity detector, version 0.8.2Copyright (c) 2004 Oleg Berngardt. All rights reserved.Copyright (c) 2004 Alexander Djourik. All rights reserved.
FILE: 01 - Fried Zombie Stew.flac Size: 48030128 Hash: 0E61C8233D35570A81E8EAACEC2EFE10 Accuracy: -m0 Conclusion: CDDA 100% Signature: D7DF8F81861FBEF76ED4E0DB11127BF1B3739910FILE: 02 - Thumpety Thump Thump.flac Size: 30333925 Hash: ABB35E4594A69E03A4C8D820D0F83486 Accuracy: -m0 Conclusion: CDDA 100% Signature: 7D656E8C229D16D0A2A5F017EF3FE889BA5E9882FILE: 03 - Diddley vs. Spock.flac Size: 33915886 Hash: 088E204C23201FA181B8C20F7CBF4C46 Accuracy: -m0 Conclusion: CDDA 100% Signature: 4FB23A89DBEF3163F8F58E07F08088DE4F8B46E1FILE: 04 - Walkin' the Hog.flac Size: 27860050 Hash: D72EE8745B47358BB1A0A6D5D05B0E15 Accuracy: -m0 Conclusion: CDDA 100% Signature: 7FD1A036025EDB79C799143104EACABB66AA3EF8FILE: 05 - Red Light.flac Size: 34701480 Hash: 45C0081A8A89BF83F7865ACE9D0C8171 Accuracy: -m0 Conclusion: CDDA 100% Signature: DBFD1216D3F201A4EE550C58F0ED0A3758309285FILE: 06 - Falling Off the Wagon.flac Size: 32922990 Hash: DA2FA0D921946EC40CDA8D7F8FB72BD8 Accuracy: -m0 Conclusion: CDDA 100% Signature: B3183A98DB6F399F0E41A94EB5CE9706F09339E3FILE: 07 - Groovin' 4 Daze.flac Size: 32279240 Hash: 06013789FFD26A0084C1D42D052E9B5E Accuracy: -m0 Conclusion: CDDA 99% Signature: 8E7AEEFE9080AE7921473DB5ADA5A08329B48469FILE: 08 - Shimmy Go-Bop.flac Size: 25369926 Hash: 5CBD1982C73286C5F871F58C4D069F7F Accuracy: -m0 Conclusion: CDDA 100% Signature: 67E32E6D0C8D1013EB9E54F031DC32AA186967F8FILE: 09 - Zag Zig.flac Size: 23644692 Hash: 30A031EA0B0B36C285DBDFD2E169454D Accuracy: -m0 Conclusion: CDDA 100% Signature: 5C2FB2DFB7F27589F9A932604BB42AA29EC1A7A2FILE: 10 - Three Leg Pony.flac Size: 51502827 Hash: 44E5B33EBB80972E0601EA1A1219BB28 Accuracy: -m0 Conclusion: CDDA 100% Signature: 703D14890EF3F053783029002659A491B9E050DDFILE: 11 - Crusty Old Man.flac Size: 35035557 Hash: 46FA4B14A0558684F82A309DCC1FB8F6 Accuracy: -m0 Conclusion: CDDA 100% Signature: FA1832A03D9D804A4BFAE0F1CC9DF32A8970C1D9FILE: 12 - Jiggle Wiggle.flac Size: 52627589 Hash: 3DF9BFC5AB5C7DCEAA949C9A80ADAE43 Accuracy: -m0 Conclusion: CDDA 100% Signature: 99AC9A1C6DEBAF07678075AB49241F02F5CEA86B

Об альбоме (сборнике)

Recorded July 23-24, 2012 at 712 Media Studio
release date: 09/10/2012

Состав

– Frank Macchia / Saxophone, Flute, Vocals
– Frank Briggs / Drums, Percussion
– Tom Lockett / Electric Bass
– Eric Jensen / Electric Guitar
- Ken Rosser / Electric Guitar
– Swamp Thang / Ensemble
– John Rosenberg / Keyboards
– Alex Iles / Trombone
– Wayne Bergeron / Trumpet
– Tracy London / Vocals


[islamvillage.com]_t_5648081.torrent
Торрент: Зарегистрирован ·  [ 2018-11-23 01:52 ] ·  eccdcc19a4ecf77b32a928c7de3c04b593ef40eb

17 KB

Статус: проверено
Скачан: 0 раз
Размер: 409 MB
Оценка: 
(Голосов: 0)
Сказали спасибо: 0  Спасибо
Похожие темы
[Профиль]    [ЛС]
Показать сообщения:    
Ответить на тему

Текущее время: Сегодня 15:38

Часовой пояс: GMT + 7



Вы не можете начинать темы
Вы не можете отвечать на сообщения
Вы не можете редактировать свои сообщения
Вы не можете удалять свои сообщения
Вы не можете голосовать в опросах
Вы не можете прикреплять файлы к сообщениям
Вы можете скачивать файлы


Mamma Mia! Ci risiamo | 2×05 Emilia Romagna | Nicholas Farrell