(Alt. Rock, Post-Hardcore) [CD] MY FIRST STORY - S・S・S - 2018, FLAC (tracks+.cue), lossless

Ответить на тему
Статистика раздачи [Обновить пиров]
Размер:  379 MB   |    Зарегистрирован:  1 месяц 20 дней   |    Скачан:  0 раз

Полного источника не было: Никогда

 
   
 
 
 
Автор Сообщение

islamvillage.com

Создавать темы 26-Ноя-2018 00:32

[Цитировать]

MY FIRST STORY / S・S・S
[img=right]http://i108.fastpic.ru/big/2018/1124/18/68c65305cc...49f918.jpg[/img]
Жанр: Alt. Rock, Post-Hardcore
Носитель: CD
Год издания: 2018
Страна исполнителя (группы): Japan
Аудиокодек: FLAC (*.flac)
Тип рипа: tracks+.cue
Битрейт аудио: lossless
Продолжительность: 52:22
Источник (релизер): redacted.ch
Наличие сканов в содержимом раздачи: нет
Треклист:
01. S・S・S (02:13)
02. WINNER (04:19)
03. ACCIDENT (03:34)
04. M.A.D (03:51)
05. One Step (04:14)
06. 絶対絶命 (04:08)
07. LET IT DIE (04:10)
08. REVIVER (04:50)
09. 2 FACE (feat. アイナ・ジ・エンド) (03:58)
10. Last Kiss (04:55)
11. マボロシサスペンス (03:48)
12. REMEMBER (04:08)
13. With You (04:15)

Лог создания рипа

Exact Audio Copy V1.3 from 2. September 2016
EAC extraction logfile from 14. November 2018, 15:10
MY FIRST STORY / S・S・S
Used drive : HL-DT-STDVDRAM GUE1N Adapter: 1 ID: 0
Read mode : SecureUtilize accurate stream : YesDefeat audio cache : YesMake use of C2 pointers : No
Read offset correction : 6Overread into Lead-In and Lead-Out : NoFill up missing offset samples with silence : YesDelete leading and trailing silent blocks : NoNull samples used in CRC calculations : YesUsed interface : Native Win32 interface for Win NT & 2000Gap handling : Appended to previous track
Used output format : User Defined EncoderSelected bitrate : 1024 kBit/sQuality : HighAdd ID3 tag : YesCommand line compressor : C:\Program Files (x86)\Exact Audio Copy\Flac\flac.exeAdditional command line options : -8 -V -T "ARTIST=%artist%" -T "TITLE=%title%" -T "ALBUM=%albumtitle%" -T "DATE=%year%" -T "TRACKNUMBER=%tracknr%" -T "GENRE=%genre%" -T "PERFORMER=%albuminterpret%" -T "COMPOSER=%composer%" %haslyrics%--tag-from-file=LYRICS="%lyricsfile%"%haslyrics% -T "ALBUMARTIST=%albumartist%" -T "DISCNUMBER=%cdnumber%" -T "TOTALDISCS=%totalcds%" -T "TOTALTRACKS=%numtracks%" -T "COMMENT=%comment%" %source% -o %dest%
TOC of the extracted CD
Track | Start | Length | Start sector | End sector --------------------------------------------------------- 1 | 0:00.00 | 2:13.00 | 0 | 9974 2 | 2:13.00 | 4:19.25 | 9975 | 29424 3 | 6:32.25 | 3:33.35 | 29425 | 45434 4 | 10:05.60 | 3:51.30 | 45435 | 62789 5 | 13:57.15 | 4:14.20 | 62790 | 81859 6 | 18:11.35 | 4:07.65 | 81860 | 100449 7 | 22:19.25 | 4:09.45 | 100450 | 119169 8 | 26:28.70 | 4:50.30 | 119170 | 140949 9 | 31:19.25 | 3:57.40 | 140950 | 158764 10 | 35:16.65 | 4:54.50 | 158765 | 180864 11 | 40:11.40 | 3:47.45 | 180865 | 197934 12 | 43:59.10 | 4:08.30 | 197935 | 216564 13 | 48:07.40 | 4:14.60 | 216565 | 235674
Track 1
Filename D:\FLAC Rips\S・S・S\01 S・S・S.wav
Pre-gap length 0:00:02.00
Peak level 99.9 % Extraction speed 1.0 X Track quality 100.0 % Test CRC BD9D4B72 Copy CRC BD9D4B72 Track not present in AccurateRip database Copy OK
Track 2
Filename D:\FLAC Rips\S・S・S\02 WINNER.wav
Peak level 100.0 % Extraction speed 1.3 X Track quality 100.0 % Test CRC B822E26E Copy CRC B822E26E Track not present in AccurateRip database Copy OK
Track 3
Filename D:\FLAC Rips\S・S・S\03 ACCIDENT.wav
Pre-gap length 0:00:01.40
Peak level 99.9 % Extraction speed 1.2 X Track quality 99.9 % Test CRC A48803D7 Copy CRC A48803D7 Track not present in AccurateRip database Copy OK
Track 4
Filename D:\FLAC Rips\S・S・S\04 M.A.D.wav
Pre-gap length 0:00:01.40
Peak level 99.9 % Extraction speed 1.3 X Track quality 99.9 % Test CRC 407296C2 Copy CRC 407296C2 Track not present in AccurateRip database Copy OK
Track 5
Filename D:\FLAC Rips\S・S・S\05 One Step.wav
Pre-gap length 0:00:01.40
Peak level 99.9 % Extraction speed 1.4 X Track quality 99.9 % Test CRC 0D325F6C Copy CRC 0D325F6C Track not present in AccurateRip database Copy OK
Track 6
Filename D:\FLAC Rips\S・S・S\06 絶対絶命.wav
Pre-gap length 0:00:01.40
Peak level 99.9 % Extraction speed 1.7 X Track quality 100.0 % Test CRC 913DFBBE Copy CRC 913DFBBE Track not present in AccurateRip database Copy OK
Track 7
Filename D:\FLAC Rips\S・S・S\07 LET IT DIE.wav
Pre-gap length 0:00:01.40
Peak level 99.9 % Extraction speed 1.8 X Track quality 100.0 % Test CRC 01E67901 Copy CRC 01E67901 Track not present in AccurateRip database Copy OK
Track 8
Filename D:\FLAC Rips\S・S・S\08 REVIVER.wav
Pre-gap length 0:00:01.40
Peak level 100.0 % Extraction speed 1.9 X Track quality 100.0 % Test CRC B542ED09 Copy CRC B542ED09 Track not present in AccurateRip database Copy OK
Track 9
Filename D:\FLAC Rips\S・S・S\09 2 FACE.wav
Pre-gap length 0:00:00.40
Peak level 99.9 % Extraction speed 2.0 X Track quality 100.0 % Test CRC 2520FD53 Copy CRC 2520FD53 Track not present in AccurateRip database Copy OK
Track 10
Filename D:\FLAC Rips\S・S・S\10 Last Kiss.wav
Pre-gap length 0:00:03.40
Peak level 99.9 % Extraction speed 2.1 X Track quality 100.0 % Test CRC 22EB75EE Copy CRC 22EB75EE Track not present in AccurateRip database Copy OK
Track 11
Filename D:\FLAC Rips\S・S・S\11 マボロシサスペンス.wav
Pre-gap length 0:00:01.40
Peak level 99.9 % Extraction speed 2.1 X Track quality 100.0 % Test CRC 0D582163 Copy CRC 0D582163 Track not present in AccurateRip database Copy OK
Track 12
Filename D:\FLAC Rips\S・S・S\12 REMEMBER.wav
Pre-gap length 0:00:01.40
Peak level 99.9 % Extraction speed 2.2 X Track quality 100.0 % Test CRC A405180A Copy CRC A405180A Track not present in AccurateRip database Copy OK
Track 13
Filename D:\FLAC Rips\S・S・S\13 With You.wav
Pre-gap length 0:00:02.40
Peak level 99.9 % Extraction speed 2.3 X Track quality 100.0 % Test CRC C06BFABF Copy CRC C06BFABF Track not present in AccurateRip database Copy OK
None of the tracks are present in the AccurateRip database
No errors occurred
End of status report
---- CUETools DB Plugin V2.1.6
[CTDB TOCID: ZyGFJHDBDuRHAWzq0RTPyLZ3gZw-] foundSubmit result: ZyGFJHDBDuRHAWzq0RTPyLZ3gZw- has been confirmedTrack | CTDB Status 1 | (21/21) Accurately ripped 2 | (21/21) Accurately ripped 3 | (21/21) Accurately ripped 4 | (21/21) Accurately ripped 5 | (21/21) Accurately ripped 6 | (21/21) Accurately ripped 7 | (21/21) Accurately ripped 8 | (21/21) Accurately ripped 9 | (21/21) Accurately ripped 10 | (21/21) Accurately ripped 11 | (21/21) Accurately ripped 12 | (21/21) Accurately ripped 13 | (21/21) Accurately ripped
==== Log checksum D2B594CAA340B6FD9C7FB59FF0491EF07A134A435FCF46173B38E1CC09449A43 ====

Содержание индексной карты (.CUE)

REM GENRE RockREM DATE 2018REM DISCID B10C460DREM COMMENT "ExactAudioCopy v1.3"CATALOG 4589892461268PERFORMER "MY FIRST STORY"TITLE "S·S·S"REM COMPOSER ""FILE "01 - S·S·S.wav" WAVE TRACK 01 AUDIO TITLE "S·S·S" PERFORMER "MY FIRST STORY" REM COMPOSER "" INDEX 01 00:00:00FILE "02 - WINNER.wav" WAVE TRACK 02 AUDIO TITLE "WINNER" PERFORMER "MY FIRST STORY" REM COMPOSER "" INDEX 01 00:00:00 TRACK 03 AUDIO TITLE "ACCIDENT" PERFORMER "MY FIRST STORY" REM COMPOSER "" INDEX 00 04:17:70FILE "03 - ACCIDENT.wav" WAVE INDEX 01 00:00:00 TRACK 04 AUDIO TITLE "M.A.D" PERFORMER "MY FIRST STORY" REM COMPOSER "" INDEX 00 03:32:05FILE "04 - M.A.D.wav" WAVE INDEX 01 00:00:00 TRACK 05 AUDIO TITLE "One Step" PERFORMER "MY FIRST STORY" REM COMPOSER "" INDEX 00 03:50:00FILE "05 - One Step.wav" WAVE INDEX 01 00:00:00 TRACK 06 AUDIO TITLE "絶対絶命" PERFORMER "MY FIRST STORY" REM COMPOSER "" INDEX 00 04:12:65FILE "06 - 絶対絶命.wav" WAVE INDEX 01 00:00:00 TRACK 07 AUDIO TITLE "LET IT DIE" PERFORMER "MY FIRST STORY" REM COMPOSER "" INDEX 00 04:06:35FILE "07 - LET IT DIE.wav" WAVE INDEX 01 00:00:00 TRACK 08 AUDIO TITLE "REVIVER" PERFORMER "MY FIRST STORY" REM COMPOSER "" INDEX 00 04:08:15FILE "08 - REVIVER.wav" WAVE INDEX 01 00:00:00 TRACK 09 AUDIO TITLE "2 FACE" PERFORMER "MY FIRST STORY" REM COMPOSER "" INDEX 00 04:50:00FILE "09 - 2 FACE.wav" WAVE INDEX 01 00:00:00 TRACK 10 AUDIO TITLE "Last Kiss" PERFORMER "MY FIRST STORY" REM COMPOSER "" INDEX 00 03:54:10FILE "10 - Last Kiss.wav" WAVE INDEX 01 00:00:00 TRACK 11 AUDIO TITLE "マボロシサスペンス" PERFORMER "MY FIRST STORY" REM COMPOSER "" INDEX 00 04:53:20FILE "11 - マボロシサスペンス.wav" WAVE INDEX 01 00:00:00 TRACK 12 AUDIO TITLE "REMEMBER" PERFORMER "MY FIRST STORY" REM COMPOSER "" INDEX 00 03:46:15FILE "12 - REMEMBER.wav" WAVE INDEX 01 00:00:00 TRACK 13 AUDIO TITLE "With You" PERFORMER "MY FIRST STORY" REM COMPOSER "" INDEX 00 04:06:00FILE "13 - With You.wav" WAVE INDEX 01 00:00:00


[islamvillage.com]_t_5649175.torrent
Торрент: Зарегистрирован ·  [ 2018-11-26 00:30 ] ·  af03bfa5cbce9f8aa09e317b48b063e1f55d0e54

16 KB

Статус: проверено
Скачан: 0 раз
Размер: 379 MB
Оценка: 
(Голосов: 0)
Сказали спасибо: 0  Спасибо
Похожие темы
[Профиль]    [ЛС]
Показать сообщения:    
Ответить на тему

Текущее время: Сегодня 15:04

Часовой пояс: GMT + 7



Вы не можете начинать темы
Вы не можете отвечать на сообщения
Вы не можете редактировать свои сообщения
Вы не можете удалять свои сообщения
Вы не можете голосовать в опросах
Вы не можете прикреплять файлы к сообщениям
Вы можете скачивать файлы


Mind Games | BAIXAR FILME | hurricane avi ita