(Techno, Hard Trance) [2xCD] Storm - Stormjunkie (V2 limited edition) - 2000, FLAC (image+.cue), lossless

Ответить на тему
Статистика раздачи [Обновить пиров]
Размер:  653 MB   |    Зарегистрирован:  1 месяц 23 дня   |    Скачан:  0 раз

Полного источника не было: Никогда

 
   
 
 
 
Автор Сообщение

islamvillage.com

Создавать темы 29-Ноя-2018 00:55

[Цитировать]

Storm / Stormjunkie (V2 limited edition)
[img=right]http://i106.fastpic.ru/big/2018/1124/65/d07ea102f9...0a3865.jpg[/img]
Жанр: Techno, Hard Trance
Носитель: CD
Страна-производитель диска (релиза): Italy
Год издания: 2000
Издатель (лейбл): V2
Номер по каталогу: VVR1015202
Страна исполнителя (группы): Germany
Аудиокодек: FLAC (*.flac)
Тип рипа: image+.cue
Битрейт аудио: lossless
Продолжительность: 75:21 + 21:40
Источник (релизер): собственный рип
Наличие сканов в содержимом раздачи: да
Треклист:
Stormjunkie
01 Storm (6:36)
02 Time to Burn (6:41)
03 Sunset Surf (1:30)
04 Don't You Remember (6:12)
05 Deep into the Innerstrange (5:07)
06 The Return (7:05)
07 The Fly (4:06)
08 Huri-Khan (7:33)
09 Chaser (6:38)
10 Organic Storm (4:44)
11 Rockit in Da Space (5:49)
12 New Age (1:32)
13 Love is Here to Stay (7:40)
14 Storm Animal (7:09)
Storm (megamix by Mark Spoon)
01 Storm (2:22)
02 The Fly (3:31)
03 Huri-Khan (2:35)
04 Time to Burn (4:30)
05 Storm Animal (Happy People in the Morning)(8:43)

Лог создания рипаStormjunkie

Exact Audio Copy V1.3 from 2. September 2016
Отчёт EAC об извлечении, выполненном 23. ноября 2018, 15:57
Storm / Stormjunkie
Дисковод: Optiarc DVD RW AD-7200A Adapter: 1 ID: 0
Режим чтения : ДостоверностьИспользование точного потока : ДаОтключение кэша аудио : ДаИспользование указателей C2 : Нет
Коррекция смещения при чтении : 48Способность читать области Lead-in и Lead-out : НетЗаполнение пропущенных сэмплов тишиной : ДаУдаление блоков с тишиной в начале и конце : НетПри вычислениях CRC использовались нулевые сэмплы : ДаИнтерфейс : Встроенный Win32-интерфейс для Win NT/2000
Выходной формат : Пользовательский кодировщикВыбранный битрейт : 128 kBit/sКачество : ВысокийДобавление ID3-тега : НетУтилита сжатия : C:\Program Files\Exact Audio Copy\FLAC\FLAC.EXEДополнительные параметры : -V -8 -T "Date=%year%" -T "COMMENT=EAC V1.1" -T "Genre=%genre%" %source%
TOC извлечённого CD
Трек | Старт | Длительность | Начальный сектор | Конечный сектор --------------------------------------------------------------------- 1 | 0:00.00 | 6:35.70 | 0 | 29694 2 | 6:35.70 | 6:40.55 | 29695 | 59749 3 | 13:16.50 | 1:30.10 | 59750 | 66509 4 | 14:46.60 | 6:11.42 | 66510 | 94376 5 | 20:58.27 | 5:06.40 | 94377 | 117366 6 | 26:04.67 | 7:05.08 | 117367 | 149249 7 | 33:10.00 | 4:05.50 | 149250 | 167674 8 | 37:15.50 | 7:33.15 | 167675 | 201664 9 | 44:48.65 | 6:37.67 | 201665 | 231506 10 | 51:26.57 | 4:43.38 | 231507 | 252769 11 | 56:10.20 | 5:49.27 | 252770 | 278971 12 | 61:59.47 | 1:31.60 | 278972 | 285856 13 | 63:31.32 | 7:40.28 | 285857 | 320384 14 | 71:11.60 | 7:09.20 | 320385 | 352579
Характеристики диапазона извлечения и сообщения об ошибках
Выбранный диапазон
Имя файла C:\Users\User\Documents\Storm - Stormjunkie.wav
Пиковый уровень 100.0 % Скорость извлечения 4.6 X Качество диапазона 100.0 % CRC теста 1D317770 CRC копии 1D317770 Копирование... OK
Ошибок не произошло
AccurateRip: сводка
Трек 1 : извлечено точно (доверие 1) [5F532BA7] (AR v1)Трек 2 : извлечено точно (доверие 1) [5EF5FCCB] (AR v1)Трек 3 : извлечено точно (доверие 1) [232E83FE] (AR v1)Трек 4 : извлечено точно (доверие 1) [117807A6] (AR v1)Трек 5 : извлечено точно (доверие 1) [0A45E270] (AR v1)Трек 6 : извлечено точно (доверие 1) [CA969FEF] (AR v1)Трек 7 : извлечено точно (доверие 1) [50B650D7] (AR v1)Трек 8 : извлечено точно (доверие 1) [2C1ADBE2] (AR v1)Трек 9 : извлечено точно (доверие 1) [4E9DD934] (AR v1)Трек 10 : извлечено точно (доверие 1) [C4694AA8] (AR v1)Трек 11 : извлечено точно (доверие 1) [96318892] (AR v1)Трек 12 : извлечено точно (доверие 1) [F481EDD7] (AR v1)Трек 13 : извлечено точно (доверие 1) [0D1E54D2] (AR v1)Трек 14 : извлечено точно (доверие 1) [52224379] (AR v1)
Все треки извлечены точно
Конец отчёта
==== Контрольная сумма отчёта 2DBE034089820C4E5C8A56EDEA490C19DE07CB6BC4B2EC5CDF27FDCF18DF07BB ====

Storm (bonus CD)

Exact Audio Copy V1.3 from 2. September 2016
Отчёт EAC об извлечении, выполненном 23. ноября 2018, 16:18
Storm / Storm (bonus CD)
Дисковод: Optiarc DVD RW AD-7200A Adapter: 1 ID: 0
Режим чтения : ДостоверностьИспользование точного потока : ДаОтключение кэша аудио : ДаИспользование указателей C2 : Нет
Коррекция смещения при чтении : 48Способность читать области Lead-in и Lead-out : НетЗаполнение пропущенных сэмплов тишиной : ДаУдаление блоков с тишиной в начале и конце : НетПри вычислениях CRC использовались нулевые сэмплы : ДаИнтерфейс : Встроенный Win32-интерфейс для Win NT/2000
Выходной формат : Пользовательский кодировщикВыбранный битрейт : 128 kBit/sКачество : ВысокийДобавление ID3-тега : НетУтилита сжатия : C:\Program Files\Exact Audio Copy\FLAC\FLAC.EXEДополнительные параметры : -V -8 -T "Date=%year%" -T "COMMENT=EAC V1.1" -T "Genre=%genre%" %source%
TOC извлечённого CD
Трек | Старт | Длительность | Начальный сектор | Конечный сектор --------------------------------------------------------------------- 1 | 0:00.00 | 2:21.45 | 0 | 10619 2 | 2:21.45 | 3:30.60 | 10620 | 26429 3 | 5:52.30 | 2:34.45 | 26430 | 38024 4 | 8:27.00 | 4:29.55 | 38025 | 58254 5 | 12:56.55 | 8:43.30 | 58255 | 97509
Характеристики диапазона извлечения и сообщения об ошибках
Выбранный диапазон
Имя файла C:\Users\User\Documents\Storm - Storm (bonus CD).wav
Пиковый уровень 100.0 % Скорость извлечения 3.0 X Качество диапазона 99.9 % CRC теста 78734CEB CRC копии 78734CEB Копирование... OK
Ошибок не произошло
AccurateRip: сводка
Трек 1 : извлечено точно (доверие 1) [1558EAD4] (AR v1)Трек 2 : извлечено точно (доверие 1) [38A1919D] (AR v1)Трек 3 : извлечено точно (доверие 1) [FA2ACE0F] (AR v1)Трек 4 : извлечено точно (доверие 1) [10133167] (AR v1)Трек 5 : извлечено точно (доверие 1) [294E9C62] (AR v1)
Все треки извлечены точно
Конец отчёта
==== Контрольная сумма отчёта 877C42147B6051466B1F6FACEA82AAF1DC3D31F9B33069FDA96DAB1C62EC606C ====

Об альбоме (сборнике)

http://www.discogs.com/Storm-Stormjunkie/release/135026


[islamvillage.com]_t_5649220.torrent
Торрент: Зарегистрирован ·  [ 2018-11-29 00:54 ] ·  a75761752dd0cd5667b8e6dcdad5fbb9f695bba0

14 KB

Статус: проверено
Скачан: 0 раз
Размер: 653 MB
Оценка: 
(Голосов: 0)
Сказали спасибо: 0  Спасибо
Похожие темы
[Профиль]    [ЛС]
Показать сообщения:    
Ответить на тему

Текущее время: Сегодня 07:26

Часовой пояс: GMT + 7



Вы не можете начинать темы
Вы не можете отвечать на сообщения
Вы не можете редактировать свои сообщения
Вы не можете удалять свои сообщения
Вы не можете голосовать в опросах
Вы не можете прикреплять файлы к сообщениям
Вы можете скачивать файлы


Fairy Tail 196 | Last Post | Recommend