(Minimal Techno, Tech House, Techno, Acid) [CD] VA - DJ Чиж - Контактный Метод - 2004, FLAC (image+.cue), lossless

Ответить на тему
Статистика раздачи [Обновить пиров]
Размер:  470 MB   |    Зарегистрирован:  1 месяц 23 дня   |    Скачан:  0 раз

Полного источника не было: Никогда

 
   
 
 
 
Автор Сообщение

islamvillage.com

Создавать темы 29-Ноя-2018 00:55

[Цитировать]

[img=right]http://i6.imageban.ru/out/2018/11/18/681bede51d3b9...ede369.png[/img]
DJ Чиж - Контактный Метод
Жанр: Minimal Techno, Tech House, Techno, Acid
Носитель: CD
Год издания: 2004
Издатель (лейбл): GR Records
Номер по каталогу: GR-rec CD-054
Аудиокодек: FLAC (*.flac)
Тип рипа: image+.cue
Битрейт аудио: lossless
Продолжительность: 66:22
Источник (релизер): свой рип
Наличие сканов в содержимом раздачи: да
Треклист:
01. Unknown Artist - Untitled (5:02)
02. Sascha Funke - Semi (4:27)
03. M.I.A. - Let Your Heart... (6:11)
04. Falko Brocksieper - Untitled (4:13)
05. Unknown Artist - Untitled (4:50)
06. John Spring - Strange (5:34)
07. Dub Taylor - I Hear Electricity (5:05)
08. Hardfloor - Alphabetical (7:11)
09. Frank Martiniq - Boost (5:27)
10. Unknown Artist - Untitled (4:43)
11. M.I.A. - Dark Deeds (4:28)
12. Sascha Funke - Hallo & Hurra (4:27)
13. Nick Muir - Airtight (Sequential Mix) (4:44)

Лог создания рипа

Exact Audio Copy V1.3 from 2. September 2016
EAC extraction logfile from 20. March 2018, 14:15
DJ Чиж / Контактный Метод
Used drive : ASUS DRW-24B5ST Adapter: 6 ID: 0
Read mode : SecureUtilize accurate stream : YesDefeat audio cache : YesMake use of C2 pointers : No
Read offset correction : 6Overread into Lead-In and Lead-Out : NoFill up missing offset samples with silence : YesDelete leading and trailing silent blocks : NoNull samples used in CRC calculations : YesUsed interface : Installed external ASPI interface
Used output format : User Defined EncoderSelected bitrate : 128 kBit/sQuality : HighAdd ID3 tag : NoCommand line compressor : D:\flac-1.3.2-win\win64\flac.exeAdditional command line options : -V -8 -T "Date=%year%" -T "COMMENT=ripped by Andy aka yetiisyou" -T "Genre=%genre%" %source%
TOC of the extracted CD
Track | Start | Length | Start sector | End sector --------------------------------------------------------- 1 | 0:00.00 | 5:02.12 | 0 | 22661 2 | 5:02.12 | 4:27.28 | 22662 | 42714 3 | 9:29.40 | 6:11.26 | 42715 | 70565 4 | 15:40.66 | 4:12.49 | 70566 | 89514 5 | 19:53.40 | 4:49.66 | 89515 | 111255 6 | 24:43.31 | 5:34.29 | 111256 | 136334 7 | 30:17.60 | 5:04.51 | 136335 | 159185 8 | 35:22.36 | 7:11.06 | 159186 | 191516 9 | 42:33.42 | 5:27.01 | 191517 | 216042 10 | 48:00.43 | 4:42.38 | 216043 | 237230 11 | 52:43.06 | 4:28.05 | 237231 | 257335 12 | 57:11.11 | 4:27.09 | 257336 | 277369 13 | 61:38.20 | 4:44.16 | 277370 | 298685
Range status and errors
Selected range
Filename E:\!Ripped by Andy aka yetiisyou\VA - DJ Чиж - Контактный Метод [GR-rec CD-054] [2004]\DJ Чиж - Контактный Метод.wav
Peak level 98.9 % Extraction speed 4.8 X Range quality 100.0 % Test CRC 16739563 Copy CRC 16739563 Copy OK
No errors occurred
AccurateRip summary
Track 1 accurately ripped (confidence 1) [6AC2AA6D] (AR v2)Track 2 accurately ripped (confidence 1) [C5D8FC76] (AR v2)Track 3 accurately ripped (confidence 1) [10288332] (AR v2)Track 4 accurately ripped (confidence 1) [A18191F2] (AR v2)Track 5 accurately ripped (confidence 1) [447E0BAA] (AR v2)Track 6 accurately ripped (confidence 1) [C599EB9C] (AR v2)Track 7 accurately ripped (confidence 1) [29CB1990] (AR v2)Track 8 accurately ripped (confidence 1) [67B14C6C] (AR v2)Track 9 accurately ripped (confidence 1) [D2D8A9B7] (AR v2)Track 10 accurately ripped (confidence 1) [CADA1F74] (AR v2)Track 11 accurately ripped (confidence 1) [BAD353F2] (AR v2)Track 12 accurately ripped (confidence 1) [6DA4738F] (AR v2)Track 13 accurately ripped (confidence 1) [0670937E] (AR v2)
All tracks accurately ripped
End of status report
---- CUETools DB Plugin V2.1.6
[CTDB TOCID: 7f.xca_aJ3t0hCNU92wH3Ujz9_Y-] foundSubmit result: 7f.xca_aJ3t0hCNU92wH3Ujz9_Y- has been confirmedTrack | CTDB Status 1 | (1/1) Accurately ripped 2 | (1/1) Accurately ripped 3 | (1/1) Accurately ripped 4 | (1/1) Accurately ripped 5 | (1/1) Accurately ripped 6 | (1/1) Accurately ripped 7 | (1/1) Accurately ripped 8 | (1/1) Accurately ripped 9 | (1/1) Accurately ripped 10 | (1/1) Accurately ripped 11 | (1/1) Accurately ripped 12 | (1/1) Accurately ripped 13 | (1/1) Accurately ripped
==== Log checksum 5B8E70F6144979C6F9C73FDD2E502E3AFC163A07246912E1B93B0E9A5C76DD0C ====

Содержание индексной карты (.CUE)

REM DATE 2004REM DISCID AE0F8E0DREM COMMENT "ExactAudioCopy v1.3"PERFORMER "DJ Чиж"TITLE "Контактный Метод"REM COMPOSER ""FILE "DJ Чиж - Контактный Метод.flac" WAVE TRACK 01 AUDIO TITLE "Untitled" PERFORMER "Unknown Artist" REM COMPOSER "" INDEX 01 00:00:00 TRACK 02 AUDIO TITLE "Semi" PERFORMER "Sascha Funke" REM COMPOSER "" INDEX 01 05:02:12 TRACK 03 AUDIO TITLE "Let Your Heart..." PERFORMER "M.I.A." REM COMPOSER "" INDEX 01 09:29:40 TRACK 04 AUDIO TITLE "Untitled" PERFORMER "Falko Brocksieper" REM COMPOSER "" INDEX 01 15:40:66 TRACK 05 AUDIO TITLE "Untitled" PERFORMER "Unknown Artist" REM COMPOSER "" INDEX 01 19:53:40 TRACK 06 AUDIO TITLE "Strange" PERFORMER "John Spring" REM COMPOSER "" INDEX 01 24:43:31 TRACK 07 AUDIO TITLE "I Hear Electricity" PERFORMER "Dub Taylor" REM COMPOSER "" INDEX 01 30:17:60 TRACK 08 AUDIO TITLE "Alphabetical" PERFORMER "Hardfloor" REM COMPOSER "" INDEX 01 35:22:36 TRACK 09 AUDIO TITLE "Boost" PERFORMER "Frank Martiniq" REM COMPOSER "" INDEX 01 42:33:42 TRACK 10 AUDIO TITLE "Untitled" PERFORMER "Unknown Artist" REM COMPOSER "" INDEX 01 48:00:43 TRACK 11 AUDIO TITLE "Dark Deeds" PERFORMER "M.I.A." REM COMPOSER "" INDEX 01 52:43:06 TRACK 12 AUDIO TITLE "Hallo & Hurra" PERFORMER "Sascha Funke" REM COMPOSER "" INDEX 01 57:11:11 TRACK 13 AUDIO TITLE "Airtight (Sequential Mix)" PERFORMER "Nick Muir" REM COMPOSER "" INDEX 01 61:38:20


[islamvillage.com]_t_5646813.torrent
Торрент: Зарегистрирован ·  [ 2018-11-29 00:54 ] ·  1e7360dbc284b53d5532d4ecec6b22e4415332f0

19 KB

Статус: проверено
Скачан: 0 раз
Размер: 470 MB
Оценка: 
(Голосов: 0)
Сказали спасибо: 0  Спасибо
Похожие темы
[Профиль]    [ЛС]
Показать сообщения:    
Ответить на тему

Текущее время: Сегодня 07:46

Часовой пояс: GMT + 7



Вы не можете начинать темы
Вы не можете отвечать на сообщения
Вы не можете редактировать свои сообщения
Вы не можете удалять свои сообщения
Вы не можете голосовать в опросах
Вы не можете прикреплять файлы к сообщениям
Вы можете скачивать файлы


The Ferryman | Full Home Page | Record – 12 de Janeiro de 2019