(Techno) [CD] VA - Dj Niv Mix - Moscow Underground - 2006, FLAC (image+.cue), lossless

Ответить на тему
Статистика раздачи [Обновить пиров]
Размер:  638 MB   |    Зарегистрирован:  1 месяц 23 дня   |    Скачан:  0 раз

Полного источника не было: Никогда

 
   
 
 
 
Автор Сообщение

islamvillage.com

Создавать темы 29-Ноя-2018 00:55

[Цитировать]

Dj Niv Mix - Moscow Underground
[img=right]http://i4.imageban.ru/out/2018/11/18/b8de32be76c5e...020a2e.png[/img]
Жанр: Techno
Носитель: CD
Год издания: 2006
Аудиокодек: FLAC (*.flac)
Тип рипа: image+.cue
Битрейт аудио: lossless
Продолжительность: 01:17:34
Источник (релизер): свой рип
Наличие сканов в содержимом раздачи: да
Треклист:
01. Dj Niv - Moscow Underground (1:41)
02. Dj Niv - Moscow Underground (2:46)
03. Dj Niv - Moscow Underground (3:22)
04. Dj Niv - Moscow Underground (4:12)
05. Dj Niv - Moscow Underground (3:32)
06. Dj Niv - Moscow Underground (3:32)
07. Dj Niv - Moscow Underground (3:32)
08. Dj Niv - Moscow Underground (2:38)
09. Dj Niv - Moscow Underground (4:25)
10. Dj Niv - Moscow Underground (4:22)
11. Dj Niv - Moscow Underground (2:54)
12. Dj Niv - Moscow Underground (5:21)
13. Dj Niv - Moscow Underground (2:12)
14. Dj Niv - Moscow Underground (4:11)
15. Dj Niv - Moscow Underground (1:27)
16. Dj Niv - Moscow Underground (2:36)
17. Dj Niv - Moscow Underground (6:01)
18. Dj Niv - Moscow Underground (1:32)
19. Dj Niv - Moscow Underground (2:57)
20. Dj Niv - Moscow Underground (1:44)
21. Dj Niv - Moscow Underground (3:26)
22. Dj Niv - Moscow Underground (4:01)
23. Dj Niv - Moscow Underground (5:08)

Лог создания рипа

Exact Audio Copy V1.3 from 2. September 2016
EAC extraction logfile from 23. June 2018, 17:20
Dj Niv / Moscow Underground
Used drive : ASUS SDRW-08D2S-U Adapter: 8 ID: 6
Read mode : SecureUtilize accurate stream : YesDefeat audio cache : YesMake use of C2 pointers : No
Read offset correction : 6Overread into Lead-In and Lead-Out : NoFill up missing offset samples with silence : YesDelete leading and trailing silent blocks : NoNull samples used in CRC calculations : YesUsed interface : Installed external ASPI interface
Used output format : User Defined EncoderSelected bitrate : 128 kBit/sQuality : HighAdd ID3 tag : NoCommand line compressor : D:\flac-1.3.2-win\win64\flac.exeAdditional command line options : -V -8 -T "Date=%year%" -T "COMMENT=ripped by Andy aka yetiisyou" -T "Genre=%genre%" %source%
TOC of the extracted CD
Track | Start | Length | Start sector | End sector --------------------------------------------------------- 1 | 0:00.00 | 1:41.01 | 0 | 7575 2 | 1:41.01 | 2:46.01 | 7576 | 20026 3 | 4:27.02 | 3:22.30 | 20027 | 35206 4 | 7:49.32 | 4:12.15 | 35207 | 54121 5 | 12:01.47 | 3:32.26 | 54122 | 70047 6 | 15:33.73 | 3:32.32 | 70048 | 85979 7 | 19:06.30 | 3:32.33 | 85980 | 101912 8 | 22:38.63 | 2:37.42 | 101913 | 113729 9 | 25:16.30 | 4:25.09 | 113730 | 133613 10 | 29:41.39 | 4:21.61 | 133614 | 153249 11 | 34:03.25 | 2:54.08 | 153250 | 166307 12 | 36:57.33 | 5:20.61 | 166308 | 190368 13 | 42:18.19 | 2:12.11 | 190369 | 200279 14 | 44:30.30 | 4:11.15 | 200280 | 219119 15 | 48:41.45 | 1:27.33 | 219120 | 225677 16 | 50:09.03 | 2:35.48 | 225678 | 237350 17 | 52:44.51 | 6:00.50 | 237351 | 264400 18 | 58:45.26 | 1:32.16 | 264401 | 271316 19 | 60:17.42 | 2:57.09 | 271317 | 284600 20 | 63:14.51 | 1:44.07 | 284601 | 292407 21 | 64:58.58 | 3:26.08 | 292408 | 307865 22 | 68:24.66 | 4:01.28 | 307866 | 325968 23 | 72:26.19 | 5:08.01 | 325969 | 349069
Range status and errors
Selected range
Filename E:\!Ripped by Andy aka yetiisyou\VA - Dj Niv Mix - Moscow Underground [2006]\Dj Niv - Moscow Underground.wav
Peak level 100.0 % Extraction speed 5.3 X Range quality 100.0 % Test CRC F56473E7 Copy CRC F56473E7 Copy OK
No errors occurred
AccurateRip summary
Track 1 not present in databaseTrack 2 not present in databaseTrack 3 not present in databaseTrack 4 not present in databaseTrack 5 not present in databaseTrack 6 not present in databaseTrack 7 not present in databaseTrack 8 not present in databaseTrack 9 not present in databaseTrack 10 not present in databaseTrack 11 not present in databaseTrack 12 not present in databaseTrack 13 not present in databaseTrack 14 not present in databaseTrack 15 not present in databaseTrack 16 not present in databaseTrack 17 not present in databaseTrack 18 not present in databaseTrack 19 not present in databaseTrack 20 not present in databaseTrack 21 not present in databaseTrack 22 not present in databaseTrack 23 not present in database
None of the tracks are present in the AccurateRip database
End of status report
---- CUETools DB Plugin V2.1.6
[CTDB TOCID: mgNGoXfjTprKyHID0dOavr5iKrs-] foundSubmit result: mgNGoXfjTprKyHID0dOavr5iKrs- has been confirmedTrack | CTDB Status 1 | (1/1) Accurately ripped 2 | (1/1) Accurately ripped 3 | (1/1) Accurately ripped 4 | (1/1) Accurately ripped 5 | (1/1) Accurately ripped 6 | (1/1) Accurately ripped 7 | (1/1) Accurately ripped 8 | (1/1) Accurately ripped 9 | (1/1) Accurately ripped 10 | (1/1) Accurately ripped 11 | (1/1) Accurately ripped 12 | (1/1) Accurately ripped 13 | (1/1) Accurately ripped 14 | (1/1) Accurately ripped 15 | (1/1) Accurately ripped 16 | (1/1) Accurately ripped 17 | (1/1) Accurately ripped 18 | (1/1) Accurately ripped 19 | (1/1) Accurately ripped 20 | (1/1) Accurately ripped 21 | (1/1) Accurately ripped 22 | (1/1) Accurately ripped 23 | (1/1) Accurately ripped
==== Log checksum F59FEE66531B29BB2A6BB2ED48AFF80650D7061CBEF02D64CD2822BC0CB73F7C ====

Содержание индексной карты (.CUE)

REM DISCID 3C122E17REM COMMENT "ExactAudioCopy v1.3"PERFORMER "Dj Niv"TITLE "Moscow Underground"REM COMPOSER ""FILE "Dj Niv - Moscow Underground.flac" WAVE TRACK 01 AUDIO TITLE "Moscow Underground" PERFORMER "Dj Niv" REM COMPOSER "" FLAGS DCP INDEX 01 00:00:00 TRACK 02 AUDIO TITLE "Moscow Underground" PERFORMER "Dj Niv" REM COMPOSER "" FLAGS DCP INDEX 01 01:41:01 TRACK 03 AUDIO TITLE "Moscow Underground" PERFORMER "Dj Niv" REM COMPOSER "" FLAGS DCP INDEX 01 04:27:02 TRACK 04 AUDIO TITLE "Moscow Underground" PERFORMER "Dj Niv" REM COMPOSER "" FLAGS DCP INDEX 01 07:49:32 TRACK 05 AUDIO TITLE "Moscow Underground" PERFORMER "Dj Niv" REM COMPOSER "" FLAGS DCP INDEX 01 12:01:47 TRACK 06 AUDIO TITLE "Moscow Underground" PERFORMER "Dj Niv" REM COMPOSER "" FLAGS DCP INDEX 01 15:33:73 TRACK 07 AUDIO TITLE "Moscow Underground" PERFORMER "Dj Niv" REM COMPOSER "" FLAGS DCP INDEX 01 19:06:30 TRACK 08 AUDIO TITLE "Moscow Underground" PERFORMER "Dj Niv" REM COMPOSER "" FLAGS DCP INDEX 01 22:38:63 TRACK 09 AUDIO TITLE "Moscow Underground" PERFORMER "Dj Niv" REM COMPOSER "" FLAGS DCP INDEX 01 25:16:30 TRACK 10 AUDIO TITLE "Moscow Underground" PERFORMER "Dj Niv" REM COMPOSER "" FLAGS DCP INDEX 01 29:41:39 TRACK 11 AUDIO TITLE "Moscow Underground" PERFORMER "Dj Niv" REM COMPOSER "" FLAGS DCP INDEX 01 34:03:25 TRACK 12 AUDIO TITLE "Moscow Underground" PERFORMER "Dj Niv" REM COMPOSER "" FLAGS DCP INDEX 01 36:57:33 TRACK 13 AUDIO TITLE "Moscow Underground" PERFORMER "Dj Niv" REM COMPOSER "" FLAGS DCP INDEX 01 42:18:19 TRACK 14 AUDIO TITLE "Moscow Underground" PERFORMER "Dj Niv" REM COMPOSER "" FLAGS DCP INDEX 01 44:30:30 TRACK 15 AUDIO TITLE "Moscow Underground" PERFORMER "Dj Niv" REM COMPOSER "" FLAGS DCP INDEX 01 48:41:45 TRACK 16 AUDIO TITLE "Moscow Underground" PERFORMER "Dj Niv" REM COMPOSER "" FLAGS DCP INDEX 01 50:09:03 TRACK 17 AUDIO TITLE "Moscow Underground" PERFORMER "Dj Niv" REM COMPOSER "" FLAGS DCP INDEX 01 52:44:51 TRACK 18 AUDIO TITLE "Moscow Underground" PERFORMER "Dj Niv" REM COMPOSER "" FLAGS DCP INDEX 01 58:45:26 TRACK 19 AUDIO TITLE "Moscow Underground" PERFORMER "Dj Niv" REM COMPOSER "" FLAGS DCP INDEX 01 60:17:42 TRACK 20 AUDIO TITLE "Moscow Underground" PERFORMER "Dj Niv" REM COMPOSER "" FLAGS DCP INDEX 01 63:14:51 TRACK 21 AUDIO TITLE "Moscow Underground" PERFORMER "Dj Niv" REM COMPOSER "" FLAGS DCP INDEX 01 64:58:58 TRACK 22 AUDIO TITLE "Moscow Underground" PERFORMER "Dj Niv" REM COMPOSER "" FLAGS DCP INDEX 01 68:24:66 TRACK 23 AUDIO TITLE "Moscow Underground" PERFORMER "Dj Niv" REM COMPOSER "" FLAGS DCP INDEX 01 72:26:19


[islamvillage.com]_t_5646692.torrent
Торрент: Зарегистрирован ·  [ 2018-11-29 00:54 ] ·  5e636fabee296b6698f99246c1d8c2f89349459a

13 KB

Статус: проверено
Скачан: 0 раз
Размер: 638 MB
Оценка: 
(Голосов: 0)
Сказали спасибо: 0  Спасибо
Похожие темы
[Профиль]    [ЛС]
Показать сообщения:    
Ответить на тему

Текущее время: Сегодня 07:15

Часовой пояс: GMT + 7



Вы не можете начинать темы
Вы не можете отвечать на сообщения
Вы не можете редактировать свои сообщения
Вы не можете удалять свои сообщения
Вы не можете голосовать в опросах
Вы не можете прикреплять файлы к сообщениям
Вы можете скачивать файлы


ZenMate VPN for FirefoxComponente aggiuntivo di Firefox per proteggere il browser | The Last Ship | Dastardly and Muttley in Their Flying Machines