(Techno, Electro) [CD] VA - DJ Muhomorov & DJ Hmara - Suck My Lollipop - 2005, FLAC (image+.cue), lossless

Ответить на тему
Статистика раздачи [Обновить пиров]
Размер:  532 MB   |    Зарегистрирован:  1 месяц 23 дня   |    Скачан:  0 раз

Полного источника не было: Никогда

 
   
 
 
 
Автор Сообщение

islamvillage.com

Создавать темы 29-Ноя-2018 01:05

[Цитировать]

[img=right]http://i2.imageban.ru/out/2018/11/18/2c2c0602ac95f...8cf20a.png[/img]
DJ Muhomorov & DJ Hmara - Suck My Lollipop
Жанр: Techno, Electro
Носитель: CD
Год издания: 2005
Номер по каталогу: NTRS-032
Аудиокодек: FLAC (*.flac)
Тип рипа: image+.cue
Битрейт аудио: lossless
Продолжительность: 69:16
Источник (релизер): свой рип
Наличие сканов в содержимом раздачи: да
Треклист:
01. Fixmer / McCarthy - Freefall (Remix By The Hacker) (5:14)
02. Savas Pascalidis - Superman (3:28)
03. DK7 - White Shadow (3:42)
04. Tiefschwarz - Ghostrack (Blackstrobe Remix) (4:26)
05. Atomizer - Ball & Chain (Napsugar Remix) (3:19)
06. Unknown Artist - Untitled (3:36)
07. Sebastian Ingrosso - Get It Back (4:52)
08. Joy Kitikonti - Dirty Kiss (4:21)
09. Dead Combo - You Don't Look So Good (Otherfucker Remix) (3:23)
10. Unknown Artist - Untitled (3:41)
11. Play Paul - Love Song (4:10)
12. Martini Bros. - Big And Dirty (Tiga Remix) (6:09)
13. Mylo - Drop The Pressure (Erol Alkans Extended Edit) (6:56)
14. Unknown Artist - Untitled (5:28)
15. 2raumwohnung - Wir Sind Die Anderen (Fruhling 2007) (Boris Dlugosch Club Mix) (6:33)

Лог создания рипа

Exact Audio Copy V1.3 from 2. September 2016
EAC extraction logfile from 27. October 2018, 11:40
DJ Muhomorov & DJ Hmara / Suck My Lollipop
Used drive : ASUS DRW-24B5ST Adapter: 6 ID: 0
Read mode : SecureUtilize accurate stream : YesDefeat audio cache : YesMake use of C2 pointers : No
Read offset correction : 6Overread into Lead-In and Lead-Out : NoFill up missing offset samples with silence : YesDelete leading and trailing silent blocks : NoNull samples used in CRC calculations : YesUsed interface : Installed external ASPI interface
Used output format : User Defined EncoderSelected bitrate : 128 kBit/sQuality : HighAdd ID3 tag : NoCommand line compressor : D:\flac-1.3.2-win\win64\flac.exeAdditional command line options : -V -8 -T "Date=%year%" -T "COMMENT=ripped by Andy aka yetiisyou" -T "Genre=%genre%" %source%
TOC of the extracted CD
Track | Start | Length | Start sector | End sector --------------------------------------------------------- 1 | 0:00.00 | 5:13.70 | 0 | 23544 2 | 5:13.70 | 3:27.38 | 23545 | 39107 3 | 8:41.33 | 3:41.64 | 39108 | 55746 4 | 12:23.22 | 4:26.16 | 55747 | 75712 5 | 16:49.38 | 3:19.30 | 75713 | 90667 6 | 20:08.68 | 3:35.48 | 90668 | 106840 7 | 23:44.41 | 4:51.51 | 106841 | 128716 8 | 28:36.17 | 4:20.71 | 128717 | 148287 9 | 32:57.13 | 3:22.61 | 148288 | 163498 10 | 36:19.74 | 3:40.54 | 163499 | 180052 11 | 40:00.53 | 4:10.05 | 180053 | 198807 12 | 44:10.58 | 6:08.43 | 198808 | 226450 13 | 50:19.26 | 6:56.19 | 226451 | 257669 14 | 57:15.45 | 5:27.42 | 257670 | 282236 15 | 62:43.12 | 6:33.06 | 282237 | 311717
Range status and errors
Selected range
Filename E:\!Ripped by Andy aka yetiisyou\VA - DJ Muhomorov & DJ Hmara - Suck My Lollipop [NTRS-032] [2005]\DJ Muhomorov & DJ Hmara - Suck My Lollipop.wav
Peak level 100.0 % Extraction speed 6.4 X Range quality 100.0 % Test CRC 6DB400EB Copy CRC 6DB400EB Copy OK
No errors occurred
AccurateRip summary
Track 1 accurately ripped (confidence 1) [CB3F24F4] (AR v2)Track 2 accurately ripped (confidence 1) [26CE46EE] (AR v2)Track 3 accurately ripped (confidence 1) [7618F94A] (AR v2)Track 4 accurately ripped (confidence 1) [8794CC12] (AR v2)Track 5 accurately ripped (confidence 1) [8EFFD0BA] (AR v2)Track 6 accurately ripped (confidence 1) [251C65CE] (AR v2)Track 7 accurately ripped (confidence 1) [F93BFFAB] (AR v2)Track 8 accurately ripped (confidence 1) [1DDE5AE0] (AR v2)Track 9 accurately ripped (confidence 1) [700C12C6] (AR v2)Track 10 accurately ripped (confidence 1) [2C88E268] (AR v2)Track 11 accurately ripped (confidence 1) [2023CC84] (AR v2)Track 12 accurately ripped (confidence 1) [D944956A] (AR v2)Track 13 accurately ripped (confidence 1) [782ACF0F] (AR v2)Track 14 accurately ripped (confidence 1) [BE86B3EA] (AR v2)Track 15 accurately ripped (confidence 1) [C84B9CF0] (AR v2)
All tracks accurately ripped
End of status report
---- CUETools DB Plugin V2.1.6
[CTDB TOCID: VPRd5chZLjh1VxQF9EHddOQdU5I-] foundSubmit result: VPRd5chZLjh1VxQF9EHddOQdU5I- has been confirmedTrack | CTDB Status 1 | (1/1) Accurately ripped 2 | (1/1) Accurately ripped 3 | (1/1) Accurately ripped 4 | (1/1) Accurately ripped 5 | (1/1) Accurately ripped 6 | (1/1) Accurately ripped 7 | (1/1) Accurately ripped 8 | (1/1) Accurately ripped 9 | (1/1) Accurately ripped 10 | (1/1) Accurately ripped 11 | (1/1) Accurately ripped 12 | (1/1) Accurately ripped 13 | (1/1) Accurately ripped 14 | (1/1) Accurately ripped 15 | (1/1) Accurately ripped
==== Log checksum 5B9BBEA63FCF795206F959774B5C6E1AEF7AD0E1E0B50EBFAB8861AD52917713 ====


[islamvillage.com]_t_5646690.torrent
Торрент: Зарегистрирован ·  [ 2018-11-29 01:05 ] ·  af8197336af1b034d004d271aabaa52e1fb4e307

11 KB

Статус: проверено
Скачан: 0 раз
Размер: 532 MB
Оценка: 
(Голосов: 0)
Сказали спасибо: 0  Спасибо
Похожие темы
[Профиль]    [ЛС]
Показать сообщения:    
Ответить на тему

Текущее время: Сегодня 06:53

Часовой пояс: GMT + 7



Вы не можете начинать темы
Вы не можете отвечать на сообщения
Вы не можете редактировать свои сообщения
Вы не можете удалять свои сообщения
Вы не можете голосовать в опросах
Вы не можете прикреплять файлы к сообщениям
Вы можете скачивать файлы


Carmen Soup | Lauren Lapkus | Black Bullet