(Techno) [CD] VA - DJ Magic B - Under The Strobelights - 2006, FLAC (image+.cue), lossless

Ответить на тему
Статистика раздачи [Обновить пиров]
Размер:  572 MB   |    Зарегистрирован:  1 месяц 23 дня   |    Скачан:  0 раз

Полного источника не было: Никогда

 
   
 
 
 
Автор Сообщение

islamvillage.com

Создавать темы 29-Ноя-2018 01:05

[Цитировать]

DJ Magic B - Under The Strobelights
[img=right]http://i6.imageban.ru/out/2018/11/18/8f837179e8ac0...51b227.png[/img]
Жанр: Techno
Носитель: CD
Год издания: 2006
Издатель (лейбл): MacroVision Records
Номер по каталогу: MV-085
Аудиокодек: FLAC (*.flac)
Тип рипа: image+.cue
Битрейт аудио: lossless
Продолжительность: 01:18:48
Источник (релизер): свой рип
Наличие сканов в содержимом раздачи: да
Треклист:
01. Mathew Jonson - Behind The Mirror (8:21)
02. Unknown Artist - Untitled (4:03)
03. Unknown Artist - Untitled (4:17)
04. Sterac Electronics - Keep On Running (5:00)
05. Unknown Artist - Untitled (6:40)
06. Innersphere Aka Shinedoe - Filthy Phunk (4:32)
07. Unknown Artist - Untitled (4:16)
08. Konrad Black - Draconia (6:12)
09. Mathew Jonson - Marionette (5:14)
10. Unknown Artist - Untitled (4:17)
11. Tony Rohr - Swampy (4:31)
12. Unknown Artist - Untitled (6:13)
13. Adam Beyer - Untitled 01 (3:05)
14. Adam Beyer & Henrik B - The Conversation (5:47)
15. Adam Beyer & Henrik B - The Eye That Sees Itself (6:18)

Лог создания рипа

Exact Audio Copy V1.3 from 2. September 2016
EAC extraction logfile from 28. October 2018, 0:29
DJ Magic B / Under The Strobelights
Used drive : ASUS DRW-24B5ST Adapter: 6 ID: 0
Read mode : SecureUtilize accurate stream : YesDefeat audio cache : YesMake use of C2 pointers : No
Read offset correction : 6Overread into Lead-In and Lead-Out : NoFill up missing offset samples with silence : YesDelete leading and trailing silent blocks : NoNull samples used in CRC calculations : YesUsed interface : Installed external ASPI interface
Used output format : User Defined EncoderSelected bitrate : 128 kBit/sQuality : HighAdd ID3 tag : NoCommand line compressor : D:\flac-1.3.2-win\win64\flac.exeAdditional command line options : -V -8 -T "Date=%year%" -T "COMMENT=ripped by Andy aka yetiisyou" -T "Genre=%genre%" %source%
TOC of the extracted CD
Track | Start | Length | Start sector | End sector --------------------------------------------------------- 1 | 0:00.00 | 8:20.54 | 0 | 37553 2 | 8:20.54 | 4:03.09 | 37554 | 55787 3 | 12:23.63 | 4:17.35 | 55788 | 75097 4 | 16:41.23 | 5:00.22 | 75098 | 97619 5 | 21:41.45 | 6:40.19 | 97620 | 127638 6 | 28:21.64 | 4:32.35 | 127639 | 148073 7 | 32:54.24 | 4:16.34 | 148074 | 167307 8 | 37:10.58 | 6:11.42 | 167308 | 195174 9 | 43:22.25 | 5:14.30 | 195175 | 218754 10 | 48:36.55 | 4:17.16 | 218755 | 238045 11 | 52:53.71 | 4:31.30 | 238046 | 258400 12 | 57:25.26 | 6:12.68 | 258401 | 286368 13 | 63:38.19 | 3:05.03 | 286369 | 300246 14 | 66:43.22 | 5:46.52 | 300247 | 326248 15 | 72:29.74 | 6:17.50 | 326249 | 354573
Range status and errors
Selected range
Filename E:\!Ripped by Andy aka yetiisyou\VA - DJ Magic B - Under The Strobelights [MV-085] [2006]\DJ Magic B - Under The Strobelights.wav
Peak level 99.5 % Extraction speed 6.9 X Range quality 100.0 % Test CRC 3AEDBA6F Copy CRC 3AEDBA6F Copy OK
No errors occurred
AccurateRip summary
Track 1 accurately ripped (confidence 1) [6E0886A7] (AR v2)Track 2 accurately ripped (confidence 1) [71308923] (AR v2)Track 3 accurately ripped (confidence 1) [F4C85612] (AR v2)Track 4 accurately ripped (confidence 1) [786A5A70] (AR v2)Track 5 accurately ripped (confidence 1) [8ECA27FA] (AR v2)Track 6 accurately ripped (confidence 1) [A589C4B1] (AR v2)Track 7 accurately ripped (confidence 1) [21D604A2] (AR v2)Track 8 accurately ripped (confidence 1) [771EF290] (AR v2)Track 9 accurately ripped (confidence 1) [C79D8BE9] (AR v2)Track 10 accurately ripped (confidence 1) [BEE6BA05] (AR v2)Track 11 accurately ripped (confidence 1) [4A1EBC47] (AR v2)Track 12 accurately ripped (confidence 1) [38C1CC03] (AR v2)Track 13 accurately ripped (confidence 1) [66B1A544] (AR v2)Track 14 accurately ripped (confidence 1) [0D02535E] (AR v2)Track 15 accurately ripped (confidence 1) [9C263E13] (AR v2)
All tracks accurately ripped
End of status report
---- CUETools DB Plugin V2.1.6
[CTDB TOCID: ZDrZrINiKZ7cqbmJ8FOMiIKAg68-] foundSubmit result: ZDrZrINiKZ7cqbmJ8FOMiIKAg68- has been confirmedTrack | CTDB Status 1 | (1/1) Accurately ripped 2 | (1/1) Accurately ripped 3 | (1/1) Accurately ripped 4 | (1/1) Accurately ripped 5 | (1/1) Accurately ripped 6 | (1/1) Accurately ripped 7 | (1/1) Accurately ripped 8 | (1/1) Accurately ripped 9 | (1/1) Accurately ripped 10 | (1/1) Accurately ripped 11 | (1/1) Accurately ripped 12 | (1/1) Accurately ripped 13 | (1/1) Accurately ripped 14 | (1/1) Accurately ripped 15 | (1/1) Accurately ripped
==== Log checksum E483B51D19610900B48BC51CBE4C2B75A047F6F0CF64F288497B09006808CE8E ====

Содержание индексной карты (.CUE)

REM DATE 2006REM DISCID B412770FREM COMMENT "ExactAudioCopy v1.3"PERFORMER "DJ Magic B"TITLE "Under The Strobelights"REM COMPOSER ""FILE "DJ Magic B - Under The Strobelights.flac" WAVE TRACK 01 AUDIO TITLE "Behind The Mirror" PERFORMER "Mathew Jonson" REM COMPOSER "" FLAGS DCP INDEX 01 00:00:00 TRACK 02 AUDIO TITLE "Untitled" PERFORMER "Unknown Artist" REM COMPOSER "" FLAGS DCP INDEX 01 08:20:54 TRACK 03 AUDIO TITLE "Untitled" PERFORMER "Unknown Artist" REM COMPOSER "" FLAGS DCP INDEX 01 12:23:63 TRACK 04 AUDIO TITLE "Keep On Running" PERFORMER "Sterac Electronics" REM COMPOSER "" FLAGS DCP INDEX 01 16:41:23 TRACK 05 AUDIO TITLE "Untitled" PERFORMER "Unknown Artist" REM COMPOSER "" FLAGS DCP INDEX 01 21:41:45 TRACK 06 AUDIO TITLE "Filthy Phunk" PERFORMER "Innersphere Aka Shinedoe" REM COMPOSER "" FLAGS DCP INDEX 01 28:21:64 TRACK 07 AUDIO TITLE "Untitled" PERFORMER "Unknown Artist" REM COMPOSER "" FLAGS DCP INDEX 01 32:54:24 TRACK 08 AUDIO TITLE "Draconia" PERFORMER "Konrad Black" REM COMPOSER "" FLAGS DCP INDEX 01 37:10:58 TRACK 09 AUDIO TITLE "Marionette" PERFORMER "Mathew Jonson" REM COMPOSER "" FLAGS DCP INDEX 01 43:22:25 TRACK 10 AUDIO TITLE "Untitled" PERFORMER "Unknown Artist" REM COMPOSER "" FLAGS DCP INDEX 01 48:36:55 TRACK 11 AUDIO TITLE "Swampy" PERFORMER "Tony Rohr" REM COMPOSER "" FLAGS DCP INDEX 01 52:53:71 TRACK 12 AUDIO TITLE "Untitled" PERFORMER "Unknown Artist" REM COMPOSER "" FLAGS DCP INDEX 01 57:25:26 TRACK 13 AUDIO TITLE "Untitled 01" PERFORMER "Adam Beyer" REM COMPOSER "" FLAGS DCP INDEX 01 63:38:19 TRACK 14 AUDIO TITLE "The Conversation" PERFORMER "Adam Beyer & Henrik B" REM COMPOSER "" FLAGS DCP INDEX 01 66:43:22 TRACK 15 AUDIO TITLE "The Eye That Sees Itself" PERFORMER "Adam Beyer & Henrik B" REM COMPOSER "" FLAGS DCP INDEX 01 72:29:74


[islamvillage.com]_t_5646665.torrent
Торрент: Зарегистрирован ·  [ 2018-11-29 01:05 ] ·  a0656b0cd33d25af9525d9ef52cf84891455c08d

12 KB

Статус: проверено
Скачан: 0 раз
Размер: 572 MB
Оценка: 
(Голосов: 0)
Сказали спасибо: 0  Спасибо
Похожие темы
[Профиль]    [ЛС]
Показать сообщения:    
Ответить на тему

Текущее время: Сегодня 07:44

Часовой пояс: GMT + 7



Вы не можете начинать темы
Вы не можете отвечать на сообщения
Вы не можете редактировать свои сообщения
Вы не можете удалять свои сообщения
Вы не можете голосовать в опросах
Вы не можете прикреплять файлы к сообщениям
Вы можете скачивать файлы


Shokugeki no Soma 257 | EUROPA CEPT Jahrgang 1988 komplett postfrisch/** (MNH) | John Daheim