Пьяный рассвет / Tequila Sunrise (Роберт Таун / Robert Towne) [1988, США, триллер, криминал, BDRip] AVO (Василий Горчаков)

Ответить на тему
Статистика раздачи [Обновить пиров]
Размер:  1.46 GB   |    Зарегистрирован:  2 месяца 17 дней   |    Скачан:  0 раз

Полного источника не было: Никогда

 
   
 
 
 
Автор Сообщение

islamvillage.com

Создавать темы 03-Дек-2018 23:02

[Цитировать]

Пьяный рассвет / Tequila Sunrise
[img=right]http://i108.fastpic.ru/big/2018/1203/31/713b9fa3f5...364e31.jpg[/img]
Страна: США
Жанр: триллер, криминал
Год выхода: 1988
Продолжительность: 01:55:16
Перевод: Авторский (одноголосый закадровый) Василий Горчаков
Субтитры: нет
Режиссер: Роберт Таун / Robert Towne
В ролях: Мэл Гибсон, Мишель Пфайффер, Курт Рассел, Рауль Хулиа, Дж.Т. Уолш, Гэбриел Дэймон, Арлисс Ховард, Ари Гросс, Дэниэл Зацапа
Описание: Билл торгует наркотиками уже 15 лет и хочет «завязать». Его друг детства Ник - полицейский, и он полон желания поймать Билла с поличным. Оба они неравнодушны к владелице итальянского ресторана Джоанне. Любовная линия органично вписывается в добротную схему приключенческого боевика, где чувствуется рука Тауна (автора сценариев знаменитых лент «Китайский квартал» и «Последний наряд»). Номинация за лучшую операторскую работу. .....(М. Иванов)
Доп. информация: Выражаю огромную благодарность Нордеру за синхронизацию звуковой дорожки. За дорогу благодарим - AMIRKHAN NOIR из Баку

Сэмпл: http://multi-up.com/1216557
Качество видео: BDRip (Источник: Torrentc Tequila Sunrise.Пьяный рассвет.1988.BD-Remux.1080p)
Формат файла: AVI
Видео: XviD 73, 720x400, (16:9), 23,976 fps, 1584 Кбит/с, 8 бит
Аудио: Русский (АС3, 2 ch (Front: L R), 48,0 KHz, 224 Kbps)

MediaInfo

ОбщееПолное имя : H:\Фильмы на трекер\Пьяный рассвет (триллер, криминал 1988 год).aviФормат файла : AVIФормат файла/Информация : Audio Video InterleaveРазмер файла : 1,46 ГбайтПродолжительность : 1 ч. 55 м.Общий поток : 1817 Кбит/секПрограмма кодирования : VirtualDubMod 1.5.10.2 (build 2540/release)Библиотека кодирования : VirtualDubMod build 2540/release
ВидеоИдентификатор : 0Формат файла : MPEG-4 VisualПрофиль формата : Advanced Simple@L5Параметр BVOP формата : 2Параметр QPel формата : НетПараметр GMC формата : Без точки переходаПараметр матрицы формата : ВыборочнаяИдентификатор кодека : XVIDИдентификатор кодека/Подсказка : XviDПродолжительность : 1 ч. 55 м.Битрейт : 1584 Кбит/секШирина : 720 пикселейВысота : 400 пикселейСоотношение сторон : 16:9Частота кадров : 23,976 (23976/1000) кадра/секЦветовое пространство : YUVСубдискретизация насыщенности : 4:2:0Битовая глубина : 8 битТип развёртки : ПрогрессивнаяМетод сжатия : С потерямиБит/(Пиксели*Кадры) : 0.229Размер потока : 1,28 Гбайт (87%)Библиотека кодирования : XviD 73
АудиоИдентификатор : 1Формат файла : AC-3Формат файла/Информация : Audio Coding 3Расширение режима : CM (complete main)Параметр Endianness формата : BigИдентификатор кодека : 2000Продолжительность : 1 ч. 55 м.Вид битрейта : ПостоянныйБитрейт : 224 Кбит/секКаналы : 2 каналаРасположение каналов : Front: L RЧастота : 48,0 КГцЧастота кадров : 31,250 кадров/сек (1536 spf)Метод сжатия : С потерямиРазмер потока : 185 Мбайт (12%)Выравнивание : Разделение по промежуткамПродолжительность промежутка : 42 мс. (1,00 видеокадр)Время предзагрузки промежутка : 500 мс.


[islamvillage.com]_t_5654015.torrent
Торрент: Зарегистрирован ·  [ 2018-12-03 23:02 ] ·  3fe596f648ac346051d231eb02d0e54b4c504ec1

15 KB

Статус: проверено
Скачан: 0 раз
Размер: 1.46 GB
Оценка: 
(Голосов: 0)
Сказали спасибо: 0  Спасибо
Похожие темы
[Профиль]    [ЛС]
Показать сообщения:    
Ответить на тему

Текущее время: Сегодня 18:22

Часовой пояс: GMT + 7



Вы не можете начинать темы
Вы не можете отвечать на сообщения
Вы не можете редактировать свои сообщения
Вы не можете удалять свои сообщения
Вы не можете голосовать в опросах
Вы не можете прикреплять файлы к сообщениям
Вы можете скачивать файлы


As Tartarugas Ninja 3 Legendado Online Assistir As Tartarugas Ninja 3 Legendado Online HD 720p Um cetro mágico comprado pela jornalista April ONeill (Paige Turco) acidentalmente a transporta a para o Japão do século XVII. As Tartarugas Ninja também viajam no tempo, no intuito de salvá-la, mas Michelangelo (David Fraser) se perde do grupo. Para reencontrá-lo e salvar April, Donatello (Jim Raposa), Raphael (Matt Hill) e Leonardo ... | kunteynir | One Piece 737