Najoua Belyzel - Ma Sainte-Nitouche [2009, Electro, Europop, Chanson, SATRip]

Ответить на тему
Статистика раздачи [Обновить пиров]
Размер:  129 MB   |    Зарегистрирован:  1 месяц 15 дней   |    Скачан:  0 раз

Полного источника не было: Никогда

 
   
 
 
 
Автор Сообщение

islamvillage.com

Создавать темы 04-Дек-2018 23:34

[Цитировать]


Najoua Belyzel
Ma Sainte-Nitouche

Страна: France
Жанр: Electro, Europop, Chanson
Продолжительность: 00:03:18
Год выхода: 2009
Качество: SATRip
Формат файла: MPG
Видео кодек: MPEG2
Аудио кодек: MP2
Видео: MPEG Video, 720 пикселей x 576 пикселей, 16:9, 25,000 кадров/сек, 5112 Кбит/сек
Аудио: MPEG Audio, 48,0 КГц, 2 канала, 256 Кбит/сек
иcточник: ушедшая в архив раздача

MediaInfo

Общее
Полное имя : C:\torrents\Music Video\Najoua Belyzel\Najoua Belyzel [2009] Ma Sainte-Nitouche.mpg
Формат файла : MPEG-PS
Размер файла : 129 Мбайт
Продолжительность : 3 м. 18 с.
Режим общего битрейта : Переменный
Общий поток : 5477 Кбит/сек
Видео
Идентификатор : 224 (0xE0)
Формат файла : MPEG Video
Версия формата : Version 2
Профиль формата : Main@Main
Настройки формата : CustomMatrix / BVOP
Параметр BVOP формата : Да
Параметр матрицы формата : Выборочная
Параметр GOP формата : Variable
Структура изображения : Frame
Продолжительность : 3 м. 18 с.
Вид битрейта : Переменный
Битрейт : 5112 Кбит/сек
Максимальный битрейт : 15,0 Мбит/сек
Ширина : 720 пикселей
Высота : 576 пикселей
Соотношение сторон : 16:9
Частота кадров : 25,000 кадров/сек
Стандарт вещания : PAL
Цветовое пространство : YUV
Субдискретизация насыщенности : 4:2:0
Битовая глубина : 8 бит
Тип развёртки : Чересстрочная
Порядок развёртки : Верхнее поле первое
Метод сжатия : С потерями
Бит/(Пиксели*Кадры) : 0.493
Временной код первого кадра : 00:00:00:00
Оригинал временного кода : Group of pictures header
GOP, открыто/закрыто : Открыто
GOP, открыто/закрыто на первом кадре : Закрыто
Размер потока : 121 Мбайт (93%)
Аудио
Идентификатор : 192 (0xC0)
Формат файла : MPEG Audio
Версия формата : Version 1
Профиль формата : Layer 2
Продолжительность : 3 м. 18 с.
Вид битрейта : Постоянный
Битрейт : 256 Кбит/сек
Каналы : 2 канала
Частота : 48,0 КГц
Частота кадров : 41,667 кадра/сек (1152 SPF)
Метод сжатия : С потерями
Размер потока : 6,04 Мбайт (5%)

Скриншоты



[islamvillage.com]_t_5566371.torrent
Торрент: Зарегистрирован ·  [ 2018-12-04 23:34 ] ·  4a1d989432647063b067a697d757ada24bf91e78

11 KB

Статус: проверено
Скачан: 0 раз
Размер: 129 MB
Оценка: 
(Голосов: 0)
Сказали спасибо: 0  Спасибо
Похожие темы
[Профиль]    [ЛС]
Показать сообщения:    
Ответить на тему

Текущее время: Сегодня 16:32

Часовой пояс: GMT + 7



Вы не можете начинать темы
Вы не можете отвечать на сообщения
Вы не можете редактировать свои сообщения
Вы не можете удалять свои сообщения
Вы не можете голосовать в опросах
Вы не можете прикреплять файлы к сообщениям
Вы можете скачивать файлы


World History v2.73 APK | download Vidmate cracked apk | Военная тайна