(Vocal Jazz, Musical) [CD] Harry Connick, Jr. & Kelli O\'Hara - Songs from Thou Shalt Not - 2006, FLAC (tracks+.cue), lossless

Ответить на тему
Статистика раздачи [Обновить пиров]
Размер:  231 MB   |    Зарегистрирован:  1 месяц 13 дней   |    Скачан:  0 раз

Полного источника не было: Никогда

 
   
 
 
 
Автор Сообщение

islamvillage.com

Создавать темы 05-Дек-2018 00:02

[Цитировать]

Harry Connick, Jr. & Kelli O'Hara - Songs from Thou Shalt Not
[img=right]http://i108.fastpic.ru/big/2018/1203/8e/2bc4ba0fc0...380e8e.jpg[/img]
Жанр: Vocal Jazz, Musical
Носитель: CD
Страна-производитель диска (релиза): США
Год издания: 2006
Издатель (лейбл): Columbia Records
Номер по каталогу: CK 99036
Аудиокодек: FLAC (*.flac)
Тип рипа: tracks+.cue
Битрейт аудио: lossless
Продолжительность: 45:05
Источник (релизер): catfish27
Наличие сканов в содержимом раздачи: сетевые
Треклист:
01. Oh, My Dear (Something's Gone Wrong) (4:19)
02. Can't We Tell (4:01)
03. Such Love (5:50)
04. I Like Love More (3:07)
05. My Little World (4:31)
06. All Things (2:24)
07. I Need to Be in Love (4:31)
08. Oh! Ain't That Sweet (4:01)
09. The Other Hours (3:49)
10. Take Advantage (4:46)
11. Take Her to the Mardi Gras (3:46)

Лог создания рипа

X Lossless Decoder version 20181019 (151.1)
XLD extraction logfile from 2018-12-01 19:54:49 -0800
Harry Connick, Jr. / Songs from Thou Shalt Not
Used drive : PIONEER BD-RW BDR-XD05 (revision 3.10)Media type : Pressed CD
Ripper mode : XLD Secure RipperDisable audio cache : OK for the drive with a cache less than 1375KiBMake use of C2 pointers : NORead offset correction : 667Max retry count : 100Gap status : Analyzed, Appended (except HTOA)
TOC of the extracted CD Track | Start | Length | Start sector | End sector --------------------------------------------------------- 1 | 00:00:00 | 04:18:47 | 0 | 19396 2 | 04:18:47 | 04:00:58 | 19397 | 37454 3 | 08:19:30 | 05:49:62 | 37455 | 63691 4 | 14:09:17 | 03:06:70 | 63692 | 77711 5 | 17:16:12 | 04:30:70 | 77712 | 98031 6 | 21:47:07 | 02:23:38 | 98032 | 108794 7 | 24:10:45 | 04:30:55 | 108795 | 129099 8 | 28:41:25 | 04:00:40 | 129100 | 147139 9 | 32:41:65 | 03:49:27 | 147140 | 164341 10 | 36:31:17 | 04:46:18 | 164342 | 185809 11 | 41:17:35 | 03:45:40 | 185810 | 202724
AccurateRip Summary (DiscID: 0012d518-00a21197-880a8f0b) Track 01 : OK (v1+v2, confidence 34/34) Track 02 : OK (v1+v2, confidence 34/34) Track 03 : OK (v1+v2, confidence 36/36) Track 04 : OK (v1+v2, confidence 36/36) Track 05 : OK (v1+v2, confidence 34/34) Track 06 : OK (v1+v2, confidence 36/36) Track 07 : OK (v1+v2, confidence 35/35) Track 08 : OK (v1+v2, confidence 36/36) Track 09 : OK (v1+v2, confidence 36/36) Track 10 : OK (v1+v2, confidence 36/36) Track 11 : OK (v1+v2, confidence 36/36) ->All tracks accurately ripped.
All Tracks Album gain : -0.91 dB Peak : 0.994507 Statistics Read error : 0 Jitter error (maybe fixed) : 0 Retry sector count : 0 Damaged sector count : 0
Track 01 Filename : /Volumes/Hollywood and Vine/Rips/Harry Connick, Jr. - Songs from Thou Shalt Not (2006) [FLAC]/01 Oh My Dear Something's Gone Wrong.flac Pre-gap length : 00:02:00
Track gain : -1.05 dB Peak : 0.994507 CRC32 hash (test run) : 6F79B83D CRC32 hash : 6F79B83D CRC32 hash (skip zero) : 438E009E AccurateRip v1 signature : 31F7A744 AccurateRip v2 signature : 85B8C538 ->Accurately ripped (v1+v2, confidence 16+18/34) Statistics Read error : 0 Jitter error (maybe fixed) : 0 Retry sector count : 0 Damaged sector count : 0
Track 02 Filename : /Volumes/Hollywood and Vine/Rips/Harry Connick, Jr. - Songs from Thou Shalt Not (2006) [FLAC]/02 Can't We Tell.flac Pre-gap length : 00:00:57
Track gain : -1.26 dB Peak : 0.988556 CRC32 hash (test run) : 72E46F28 CRC32 hash : 72E46F28 CRC32 hash (skip zero) : 0D3A75B2 AccurateRip v1 signature : 700DBF92 AccurateRip v2 signature : E0A0CFFB ->Accurately ripped (v1+v2, confidence 16+18/34) Statistics Read error : 0 Jitter error (maybe fixed) : 0 Retry sector count : 0 Damaged sector count : 0
Track 03 Filename : /Volumes/Hollywood and Vine/Rips/Harry Connick, Jr. - Songs from Thou Shalt Not (2006) [FLAC]/03 Such Love.flac Pre-gap length : 00:01:13
Track gain : -1.57 dB Peak : 0.933258 CRC32 hash (test run) : 517F1A57 CRC32 hash : 517F1A57 CRC32 hash (skip zero) : A602C551 AccurateRip v1 signature : 333B4FAB AccurateRip v2 signature : 7C948580 ->Accurately ripped (v1+v2, confidence 16+20/36) Statistics Read error : 0 Jitter error (maybe fixed) : 0 Retry sector count : 0 Damaged sector count : 0
Track 04 Filename : /Volumes/Hollywood and Vine/Rips/Harry Connick, Jr. - Songs from Thou Shalt Not (2006) [FLAC]/04 I Like Love More.flac Pre-gap length : 00:01:67
Track gain : 0.37 dB Peak : 0.977234 CRC32 hash (test run) : 510369E2 CRC32 hash : 510369E2 CRC32 hash (skip zero) : 936C21E9 AccurateRip v1 signature : DDB0D75B AccurateRip v2 signature : 5D25870F ->Accurately ripped (v1+v2, confidence 16+20/36) Statistics Read error : 0 Jitter error (maybe fixed) : 0 Retry sector count : 0 Damaged sector count : 0
Track 05 Filename : /Volumes/Hollywood and Vine/Rips/Harry Connick, Jr. - Songs from Thou Shalt Not (2006) [FLAC]/05 My Little World.flac Pre-gap length : 00:01:25
Track gain : -0.59 dB Peak : 0.881805 CRC32 hash (test run) : B7E17BC5 CRC32 hash : B7E17BC5 CRC32 hash (skip zero) : 17F4ED18 AccurateRip v1 signature : DD85B24A AccurateRip v2 signature : D89933B3 ->Accurately ripped (v1+v2, confidence 16+18/34) Statistics Read error : 0 Jitter error (maybe fixed) : 0 Retry sector count : 0 Damaged sector count : 0
Track 06 Filename : /Volumes/Hollywood and Vine/Rips/Harry Connick, Jr. - Songs from Thou Shalt Not (2006) [FLAC]/06 All Things.flac Pre-gap length : 00:01:07
Track gain : 0.57 dB Peak : 0.856995 CRC32 hash (test run) : 3B882506 CRC32 hash : 3B882506 CRC32 hash (skip zero) : 0EED7ECD AccurateRip v1 signature : 6EC5D5E5 AccurateRip v2 signature : F80C7A3B ->Accurately ripped (v1+v2, confidence 16+20/36) Statistics Read error : 0 Jitter error (maybe fixed) : 0 Retry sector count : 0 Damaged sector count : 0
Track 07 Filename : /Volumes/Hollywood and Vine/Rips/Harry Connick, Jr. - Songs from Thou Shalt Not (2006) [FLAC]/07 I Need to Be in Love.flac Pre-gap length : 00:00:68
Track gain : -0.57 dB Peak : 0.868073 CRC32 hash (test run) : 1CF0DE80 CRC32 hash : 1CF0DE80 CRC32 hash (skip zero) : E442D643 AccurateRip v1 signature : EDEF0F95 AccurateRip v2 signature : 5AC52983 ->Accurately ripped (v1+v2, confidence 15+20/35) Statistics Read error : 0 Jitter error (maybe fixed) : 0 Retry sector count : 0 Damaged sector count : 0
Track 08 Filename : /Volumes/Hollywood and Vine/Rips/Harry Connick, Jr. - Songs from Thou Shalt Not (2006) [FLAC]/08 Oh Ain't That Sweet.flac Pre-gap length : 00:01:13
Track gain : -0.86 dB Peak : 0.944061 CRC32 hash (test run) : 10A4651C CRC32 hash : 10A4651C CRC32 hash (skip zero) : 51F6A509 AccurateRip v1 signature : 33545472 AccurateRip v2 signature : F0E10860 ->Accurately ripped (v1+v2, confidence 16+20/36) Statistics Read error : 0 Jitter error (maybe fixed) : 0 Retry sector count : 0 Damaged sector count : 0
Track 09 Filename : /Volumes/Hollywood and Vine/Rips/Harry Connick, Jr. - Songs from Thou Shalt Not (2006) [FLAC]/09 The Other Hours.flac Pre-gap length : 00:00:48
Track gain : 1.75 dB Peak : 0.737213 CRC32 hash (test run) : 777BDFD2 CRC32 hash : 777BDFD2 CRC32 hash (skip zero) : 2B9A0C17 AccurateRip v1 signature : A770D4C6 AccurateRip v2 signature : 31B6E9F2 ->Accurately ripped (v1+v2, confidence 16+20/36) Statistics Read error : 0 Jitter error (maybe fixed) : 0 Retry sector count : 0 Damaged sector count : 0
Track 10 Filename : /Volumes/Hollywood and Vine/Rips/Harry Connick, Jr. - Songs from Thou Shalt Not (2006) [FLAC]/10 Take Advantage.flac Pre-gap length : 00:00:67
Track gain : -1.16 dB Peak : 0.977234 CRC32 hash (test run) : E2B7B8FA CRC32 hash : E2B7B8FA CRC32 hash (skip zero) : 817F4DFA AccurateRip v1 signature : E8D092F4 AccurateRip v2 signature : 9FD9B5BB ->Accurately ripped (v1+v2, confidence 16+20/36) Statistics Read error : 0 Jitter error (maybe fixed) : 0 Retry sector count : 0 Damaged sector count : 0
Track 11 Filename : /Volumes/Hollywood and Vine/Rips/Harry Connick, Jr. - Songs from Thou Shalt Not (2006) [FLAC]/11 Take Her to the Mardi Gras.flac Pre-gap length : 00:00:70
Track gain : -2.14 dB Peak : 0.977234 CRC32 hash (test run) : 7E8D034E CRC32 hash : 7E8D034E CRC32 hash (skip zero) : 3BD79946 AccurateRip v1 signature : 26E26FF0 AccurateRip v2 signature : D6A383E2 ->Accurately ripped (v1+v2, confidence 16+20/36) Statistics Read error : 0 Jitter error (maybe fixed) : 0 Retry sector count : 0 Damaged sector count : 0
No errors occurred
End of status report
-----BEGIN XLD SIGNATURE-----j6fwxxWVFhlFiDEK_O46IHBKegMkb95J56jjkWRD88BxHB4cg511lrDEhoreP3n6ywed3ovKnKVznCfpSHpif17WyCPcC48vkCWiZ94-----END XLD SIGNATURE-----

Содержание индексной карты (.CUE)

TITLE "Songs from Thou Shalt Not"PERFORMER "Harry Connick, Jr. & Kelli O'Hara"REM GENRE "Musical"REM DATE "2006"REM DISCID 880A8F0BREM REPLAYGAIN_ALBUM_GAIN -0.91 dBREM REPLAYGAIN_ALBUM_PEAK 0.994507FILE "01 - Oh, My Dear (Something's Gone Wrong).flac" WAVE TRACK 01 AUDIO TITLE "Oh, My Dear (Something's Gone Wrong)" ISRC USSM10601399 REM REPLAYGAIN_TRACK_GAIN -1.05 dB REM REPLAYGAIN_TRACK_PEAK 0.994507 INDEX 01 00:00:00 TRACK 02 AUDIO TITLE "Can't We Tell" ISRC USSM10601264 REM REPLAYGAIN_TRACK_GAIN -1.26 dB REM REPLAYGAIN_TRACK_PEAK 0.988556 INDEX 00 04:17:65FILE "02 - Can't We Tell.flac" WAVE INDEX 01 00:00:00 TRACK 03 AUDIO TITLE "Such Love" ISRC USSM10601400 REM REPLAYGAIN_TRACK_GAIN -1.57 dB REM REPLAYGAIN_TRACK_PEAK 0.933258 INDEX 00 03:59:45FILE "03 - Such Love.flac" WAVE INDEX 01 00:00:00 TRACK 04 AUDIO TITLE "I Like Love More" ISRC USSM10601260 REM REPLAYGAIN_TRACK_GAIN 0.37 dB REM REPLAYGAIN_TRACK_PEAK 0.977234 INDEX 00 05:47:70FILE "04 - I Like Love More.flac" WAVE INDEX 01 00:00:00 TRACK 05 AUDIO TITLE "My Little World" ISRC USSM10601263 REM REPLAYGAIN_TRACK_GAIN -0.59 dB REM REPLAYGAIN_TRACK_PEAK 0.881805 INDEX 00 03:05:45FILE "05 - My Little World.flac" WAVE INDEX 01 00:00:00 TRACK 06 AUDIO TITLE "All Things" ISRC USSM10601265 REM REPLAYGAIN_TRACK_GAIN 0.57 dB REM REPLAYGAIN_TRACK_PEAK 0.856995 INDEX 00 04:29:63FILE "06 - All Things.flac" WAVE INDEX 01 00:00:00 TRACK 07 AUDIO TITLE "I Need to Be in Love" ISRC USSM10601261 REM REPLAYGAIN_TRACK_GAIN -0.57 dB REM REPLAYGAIN_TRACK_PEAK 0.868073 INDEX 00 02:22:45FILE "07 - I Need to Be in Love.flac" WAVE INDEX 01 00:00:00 TRACK 08 AUDIO TITLE "Oh! Ain't That Sweet" ISRC USSM10601268 REM REPLAYGAIN_TRACK_GAIN -0.86 dB REM REPLAYGAIN_TRACK_PEAK 0.944061 INDEX 00 04:29:42FILE "08 - Oh! Ain't That Sweet.flac" WAVE INDEX 01 00:00:00 TRACK 09 AUDIO TITLE "The Other Hours" ISRC USSM10601262 REM REPLAYGAIN_TRACK_GAIN 1.75 dB REM REPLAYGAIN_TRACK_PEAK 0.737213 INDEX 00 03:59:67FILE "09 - The Other Hours.flac" WAVE INDEX 01 00:00:00 TRACK 10 AUDIO TITLE "Take Advantage" ISRC USSM10601269 REM REPLAYGAIN_TRACK_GAIN -1.16 dB REM REPLAYGAIN_TRACK_PEAK 0.977234 INDEX 00 03:48:35FILE "10 - Take Advantage.flac" WAVE INDEX 01 00:00:00 TRACK 11 AUDIO TITLE "Take Her to the Mardi Gras" ISRC USSM10601266 REM REPLAYGAIN_TRACK_GAIN -2.14 dB REM REPLAYGAIN_TRACK_PEAK 0.977234 INDEX 00 04:45:23FILE "11 - Take Her to the Mardi Gras.flac" WAVE INDEX 01 00:00:00

Отчет CUETools

[CUETools log; Date: 03.12.2018 1:55:49; Version: 2.1.6][CTDB TOCID: S6DlIDkuJTbQmATNkoYZRjhCVNg-] found.Track | CTDB Status 1 | (30/31) Accurately ripped 2 | (30/31) Accurately ripped 3 | (31/31) Accurately ripped 4 | (31/31) Accurately ripped 5 | (30/31) Accurately ripped 6 | (31/31) Accurately ripped 7 | (31/31) Accurately ripped 8 | (31/31) Accurately ripped 9 | (31/31) Accurately ripped 10 | (31/31) Accurately ripped 11 | (31/31) Accurately ripped[AccurateRip ID: 0012d518-00a21197-880a8f0b] found.Track [ CRC | V2 ] Status 01 [31f7a744|85b8c538] (16+18/34) Accurately ripped 02 [700dbf92|e0a0cffb] (16+18/34) Accurately ripped 03 [333b4fab|7c948580] (16+20/36) Accurately ripped 04 [ddb0d75b|5d25870f] (16+20/36) Accurately ripped 05 [dd85b24a|d89933b3] (16+18/34) Accurately ripped 06 [6ec5d5e5|f80c7a3b] (16+20/36) Accurately ripped 07 [edef0f95|5ac52983] (15+20/35) Accurately ripped 08 [33545472|f0e10860] (16+20/36) Accurately ripped 09 [a770d4c6|31b6e9f2] (16+20/36) Accurately ripped 10 [e8d092f4|9fd9b5bb] (16+20/36) Accurately ripped 11 [26e26ff0|d6a383e2] (16+20/36) Accurately ripped
Track Peak [ CRC32 ] [W/O NULL] -- 100,0 [F77B5451] [983D792A] 01 100,0 [6F79B83D] [438E009E] 02 98,8 [72E46F28] [0D3A75B2] 03 93,3 [517F1A57] [A602C551] 04 97,7 [510369E2] [936C21E9] 05 88,1 [B7E17BC5] [17F4ED18] 06 85,7 [3B882506] [0EED7ECD] 07 86,8 [1CF0DE80] [E442D643] 08 94,4 [10A4651C] [51F6A509] 09 73,7 [777BDFD2] [2B9A0C17] 10 97,7 [E2B7B8FA] [817F4DFA] 11 97,7 [7E8D034E] [3BD79946]

Об альбоме (сборнике)

Émile Zola’s novel Thérèse Raquin may seem an odd choice for a Broadway musical, but that was the ambitious idea behind the failed production that opened on October 25, 2001 at the Plymouth Theatre under the Biblical title Thou Shalt Not. Behind the project was the creative team of Susan Stroman (director), David Thompson (book) and Harry Connick, Jr. (music and lyrics). Despite its many assets, its impressive pedigree, and a cast that included Norbert Leo Butz (who earned a Tony® nomination for his depiction of Camille Raquin, husband and first cousin of Thérèse), Debra Monk, and Craig Bierko, the show was judged severely by the critics, and failed to find an audience. But its setting change from 1800s Paris to 1946 New Orleans compelled Harry Connick to do a jazzed up version of his score, with Kelli O’Hara providing some vocals and sharing duets.


[islamvillage.com]_t_5653835.torrent
Торрент: Зарегистрирован ·  [ 2018-12-05 00:01 ] ·  68063224721809edfbb3cd84f03e203a3e7f1c5c

20 KB

Статус: проверено
Скачан: 0 раз
Размер: 231 MB
Оценка: 
(Голосов: 0)
Сказали спасибо: 0  Спасибо
Похожие темы
[Профиль]    [ЛС]
Показать сообщения:    
Ответить на тему

Текущее время: Сегодня 06:26

Часовой пояс: GMT + 7



Вы не можете начинать темы
Вы не можете отвечать на сообщения
Вы не можете редактировать свои сообщения
Вы не можете удалять свои сообщения
Вы не можете голосовать в опросах
Вы не можете прикреплять файлы к сообщениям
Вы можете скачивать файлы


The Big Take | PILOT G2 Ersatzmine * 5 Stück * Mine Gelschreiber Gelmine refill G-2 07 BLS-G2-7 | 16GB 8GB 4GB USB 2.0 Swivel Flash Memory Stick Pen Drive Storage Thumb U Disk FT