(Vocal Jazz) [CD] Matt Belsante - Blame It on My Youth - 2008, FLAC (tracks), lossless

Ответить на тему
Статистика раздачи [Обновить пиров]
Размер:  294 MB   |    Зарегистрирован:  1 месяц 13 дней   |    Скачан:  0 раз

Полного источника не было: Никогда

 
   
 
 
 
Автор Сообщение

islamvillage.com

Создавать темы 05-Дек-2018 00:02

[Цитировать]

Matt Belsante - Blame It on My Youth
[img=right]http://i107.fastpic.ru/big/2018/1203/b7/42c5f2ff0d...f205b7.jpg[/img]
Жанр: Vocal Jazz
Носитель: CD
Страна-производитель диска (релиза): США
Год издания: 2008
Издатель (лейбл): Green Hill Productions
Номер по каталогу: GHD5569
Аудиокодек: FLAC (*.flac)
Тип рипа: tracks
Битрейт аудио: lossless
Продолжительность: 48:08
Источник (релизер): redacted
Наличие сканов в содержимом раздачи: нет
Треклист:
01. Beyond the Sea (3:16)
02. Brazil (4:03)
03. At Last (4:57)
04. A Whiter Shade of Pale (4:49)
05. I Saw Her Standing There (3:28)
06. Blame It on My Youth (3:59)
07. Witchcraft (3:16)
08. I Get Along Without You Very Well (4:09)
09. I Get a Kick Out of You (3:12)
10. Haven't Got Much (4:26)
11. All in Love Is Fair (4:06)
12. Never My Love (4:27)

Лог создания рипа

X Lossless Decoder version 20170729 (150.3)
XLD extraction logfile from 2018-07-20 18:32:59 -0500
Matt Belsante / Blame It On My Youth
Used drive : HL-DT-ST DVDRW GX40N (revision RQ00)Media type : Pressed CD
Ripper mode : XLD Secure RipperDisable audio cache : OK for the drive with a cache less than 1375KiBMake use of C2 pointers : NORead offset correction : 6Max retry count : 100Gap status : Analyzed, Appended (except HTOA)
TOC of the extracted CD Track | Start | Length | Start sector | End sector --------------------------------------------------------- 1 | 00:00:00 | 03:16:00 | 0 | 14699 2 | 03:16:00 | 04:03:20 | 14700 | 32944 3 | 07:19:20 | 04:57:05 | 32945 | 55224 4 | 12:16:25 | 04:48:54 | 55225 | 76878 5 | 17:05:04 | 03:27:63 | 76879 | 92466 6 | 20:32:67 | 03:58:50 | 92467 | 110366 7 | 24:31:42 | 03:15:47 | 110367 | 125038 8 | 27:47:14 | 04:08:57 | 125039 | 143695 9 | 31:55:71 | 03:12:02 | 143696 | 158097 10 | 35:07:73 | 04:26:21 | 158098 | 178068 11 | 39:34:19 | 04:05:47 | 178069 | 196490 12 | 43:39:66 | 04:26:41 | 196491 | 216481
List of alternate offset correction values # | Absolute | Relative | Confidence ------------------------------------------ 1 | -640 | -646 | 2
AccurateRip Summary (DiscID: 00155e8a-00c76087-a30b460c) Track 01 : OK (v1+v2, confidence 5/7) Track 02 : OK (v1+v2, confidence 5/7) Track 03 : OK (v1+v2, confidence 5/7) Track 04 : OK (v1+v2, confidence 5/7) Track 05 : OK (v1+v2, confidence 5/7) Track 06 : OK (v1+v2, confidence 5/7) Track 07 : OK (v1+v2, confidence 5/7) Track 08 : OK (v1+v2, confidence 5/5) Track 09 : OK (v1+v2, confidence 5/5) Track 10 : OK (v1+v2, confidence 5/7) Track 11 : OK (v1+v2, confidence 5/7) Track 12 : OK (v1+v2, confidence 5/7) ->All tracks accurately ripped.
All Tracks Album gain : -8.36 dB Peak : 0.995483 Statistics Read error : 0 Jitter error (maybe fixed) : 0 Retry sector count : 0 Damaged sector count : 0
Track 01 Filename : /XLD Rips/Matt Belsante - Blame It On My Youth (2008) [FLAC]/01 Beyond The Sea.flac /XLD Rips/Matt Belsante - Blame It On My Youth (2008) [V0]/01 Beyond The Sea.mp3 /XLD Rips/Matt Belsante - Blame It On My Youth (2008) [LAME MP3 (CBR 320kbps)]/01 Beyond The Sea.mp3 Pre-gap length : 00:02:00
Track gain : -8.60 dB Peak : 0.995422 CRC32 hash (test run) : FE0212C7 CRC32 hash : FE0212C7 CRC32 hash (skip zero) : A4722940 AccurateRip v1 signature : C88F8E76 AccurateRip v2 signature : 03CEE050 ->Accurately ripped (v1+v2, confidence 2+3/7) Statistics Read error : 0 Jitter error (maybe fixed) : 0 Retry sector count : 0 Damaged sector count : 0
Track 02 Filename : /XLD Rips/Matt Belsante - Blame It On My Youth (2008) [FLAC]/02 Brazil.flac /XLD Rips/Matt Belsante - Blame It On My Youth (2008) [V0]/02 Brazil.mp3 /XLD Rips/Matt Belsante - Blame It On My Youth (2008) [LAME MP3 (CBR 320kbps)]/02 Brazil.mp3
Track gain : -9.49 dB Peak : 0.995422 CRC32 hash (test run) : 64639ADF CRC32 hash : 64639ADF CRC32 hash (skip zero) : 31CE0995 AccurateRip v1 signature : 7ABEF531 AccurateRip v2 signature : BAD68582 ->Accurately ripped (v1+v2, confidence 2+3/7) Statistics Read error : 0 Jitter error (maybe fixed) : 0 Retry sector count : 0 Damaged sector count : 0
Track 03 Filename : /XLD Rips/Matt Belsante - Blame It On My Youth (2008) [FLAC]/03 At Last.flac /XLD Rips/Matt Belsante - Blame It On My Youth (2008) [V0]/03 At Last.mp3 /XLD Rips/Matt Belsante - Blame It On My Youth (2008) [LAME MP3 (CBR 320kbps)]/03 At Last.mp3
Track gain : -8.46 dB Peak : 0.995392 CRC32 hash (test run) : B227A83A CRC32 hash : B227A83A CRC32 hash (skip zero) : 4CBF4877 AccurateRip v1 signature : 05445307 AccurateRip v2 signature : D696CD76 ->Accurately ripped (v1+v2, confidence 2+3/7) Statistics Read error : 0 Jitter error (maybe fixed) : 0 Retry sector count : 0 Damaged sector count : 0
Track 04 Filename : /XLD Rips/Matt Belsante - Blame It On My Youth (2008) [FLAC]/04 Whiter Shade Of Pale.flac /XLD Rips/Matt Belsante - Blame It On My Youth (2008) [V0]/04 Whiter Shade Of Pale.mp3 /XLD Rips/Matt Belsante - Blame It On My Youth (2008) [LAME MP3 (CBR 320kbps)]/04 Whiter Shade Of Pale.mp3
Track gain : -6.20 dB Peak : 0.995392 CRC32 hash (test run) : 0B28BE0E CRC32 hash : 0B28BE0E CRC32 hash (skip zero) : 5087D264 AccurateRip v1 signature : 85E4D721 AccurateRip v2 signature : 3E2EFA87 ->Accurately ripped (v1+v2, confidence 2+3/7) Statistics Read error : 0 Jitter error (maybe fixed) : 0 Retry sector count : 0 Damaged sector count : 0
Track 05 Filename : /XLD Rips/Matt Belsante - Blame It On My Youth (2008) [FLAC]/05 I Saw Her Standing There.flac /XLD Rips/Matt Belsante - Blame It On My Youth (2008) [V0]/05 I Saw Her Standing There.mp3 /XLD Rips/Matt Belsante - Blame It On My Youth (2008) [LAME MP3 (CBR 320kbps)]/05 I Saw Her Standing There.mp3
Track gain : -10.41 dB Peak : 0.995422 CRC32 hash (test run) : D7391095 CRC32 hash : D7391095 CRC32 hash (skip zero) : 0E284924 AccurateRip v1 signature : 34D582F1 AccurateRip v2 signature : A595A11D ->Accurately ripped (v1+v2, confidence 2+3/7) Statistics Read error : 0 Jitter error (maybe fixed) : 0 Retry sector count : 0 Damaged sector count : 0
Track 06 Filename : /XLD Rips/Matt Belsante - Blame It On My Youth (2008) [FLAC]/06 Blame It On My Youth.flac /XLD Rips/Matt Belsante - Blame It On My Youth (2008) [V0]/06 Blame It On My Youth.mp3 /XLD Rips/Matt Belsante - Blame It On My Youth (2008) [LAME MP3 (CBR 320kbps)]/06 Blame It On My Youth.mp3 Pre-gap length : 00:00:40
Track gain : -8.30 dB Peak : 0.995361 CRC32 hash (test run) : DDBF7D19 CRC32 hash : DDBF7D19 CRC32 hash (skip zero) : ABB1664E AccurateRip v1 signature : 5CEF8B85 AccurateRip v2 signature : 05FC2198 ->Accurately ripped (v1+v2, confidence 2+3/7) Statistics Read error : 0 Jitter error (maybe fixed) : 0 Retry sector count : 0 Damaged sector count : 0
Track 07 Filename : /XLD Rips/Matt Belsante - Blame It On My Youth (2008) [FLAC]/07 Witchcraft.flac /XLD Rips/Matt Belsante - Blame It On My Youth (2008) [V0]/07 Witchcraft.mp3 /XLD Rips/Matt Belsante - Blame It On My Youth (2008) [LAME MP3 (CBR 320kbps)]/07 Witchcraft.mp3 Pre-gap length : 00:00:19
Track gain : -7.69 dB Peak : 0.995361 CRC32 hash (test run) : FEAC6B7E CRC32 hash : FEAC6B7E CRC32 hash (skip zero) : 6411F509 AccurateRip v1 signature : 753DF05F AccurateRip v2 signature : 221CA72F ->Accurately ripped (v1+v2, confidence 2+3/7) Statistics Read error : 0 Jitter error (maybe fixed) : 0 Retry sector count : 0 Damaged sector count : 0
Track 08 Filename : /XLD Rips/Matt Belsante - Blame It On My Youth (2008) [FLAC]/08 I Get Along Without You Very Well.flac /XLD Rips/Matt Belsante - Blame It On My Youth (2008) [V0]/08 I Get Along Without You Very Well.mp3 /XLD Rips/Matt Belsante - Blame It On My Youth (2008) [LAME MP3 (CBR 320kbps)]/08 I Get Along Without You Very Well.mp3
Track gain : -4.73 dB Peak : 0.995209 CRC32 hash (test run) : AB222AAF CRC32 hash : AB222AAF CRC32 hash (skip zero) : BC67CFB5 AccurateRip v1 signature : 800ED370 AccurateRip v2 signature : E47A80B5 ->Accurately ripped (v1+v2, confidence 2+3/5) Statistics Read error : 0 Jitter error (maybe fixed) : 0 Retry sector count : 0 Damaged sector count : 0
Track 09 Filename : /XLD Rips/Matt Belsante - Blame It On My Youth (2008) [FLAC]/09 I Get A Kick Out Of You.flac /XLD Rips/Matt Belsante - Blame It On My Youth (2008) [V0]/09 I Get A Kick Out Of You.mp3 /XLD Rips/Matt Belsante - Blame It On My Youth (2008) [LAME MP3 (CBR 320kbps)]/09 I Get A Kick Out Of You.mp3 Pre-gap length : 00:00:60
Track gain : -6.35 dB Peak : 0.995483 CRC32 hash (test run) : 71C8420D CRC32 hash : 71C8420D CRC32 hash (skip zero) : 31D48172 AccurateRip v1 signature : AD28829E AccurateRip v2 signature : 1D65FED4 ->Accurately ripped (v1+v2, confidence 2+3/5) Statistics Read error : 0 Jitter error (maybe fixed) : 0 Retry sector count : 0 Damaged sector count : 0
Track 10 Filename : /XLD Rips/Matt Belsante - Blame It On My Youth (2008) [FLAC]/10 Haven't Got Much.flac /XLD Rips/Matt Belsante - Blame It On My Youth (2008) [V0]/10 Haven't Got Much.mp3 /XLD Rips/Matt Belsante - Blame It On My Youth (2008) [LAME MP3 (CBR 320kbps)]/10 Haven't Got Much.mp3 Pre-gap length : 00:00:17
Track gain : -7.26 dB Peak : 0.995453 CRC32 hash (test run) : 29C6EE7A CRC32 hash : 29C6EE7A CRC32 hash (skip zero) : EAE80D23 AccurateRip v1 signature : 8B4C84C5 AccurateRip v2 signature : 9B12F95B ->Accurately ripped (v1+v2, confidence 2+3/7) Statistics Read error : 0 Jitter error (maybe fixed) : 0 Retry sector count : 0 Damaged sector count : 0
Track 11 Filename : /XLD Rips/Matt Belsante - Blame It On My Youth (2008) [FLAC]/11 All In Love Is Fair.flac /XLD Rips/Matt Belsante - Blame It On My Youth (2008) [V0]/11 All In Love Is Fair.mp3 /XLD Rips/Matt Belsante - Blame It On My Youth (2008) [LAME MP3 (CBR 320kbps)]/11 All In Love Is Fair.mp3 Pre-gap length : 00:00:47
Track gain : -7.86 dB Peak : 0.995392 CRC32 hash (test run) : A2736907 CRC32 hash : A2736907 CRC32 hash (skip zero) : 66E270B1 AccurateRip v1 signature : 35D4A72C AccurateRip v2 signature : 7E3A1630 ->Accurately ripped (v1+v2, confidence 2+3/7) Statistics Read error : 0 Jitter error (maybe fixed) : 0 Retry sector count : 0 Damaged sector count : 0
Track 12 Filename : /XLD Rips/Matt Belsante - Blame It On My Youth (2008) [FLAC]/12 Never My Love.flac /XLD Rips/Matt Belsante - Blame It On My Youth (2008) [V0]/12 Never My Love.mp3 /XLD Rips/Matt Belsante - Blame It On My Youth (2008) [LAME MP3 (CBR 320kbps)]/12 Never My Love.mp3 Pre-gap length : 00:00:33
Track gain : -7.55 dB Peak : 0.995453 CRC32 hash (test run) : 1BC6D885 CRC32 hash : 1BC6D885 CRC32 hash (skip zero) : 3D73FFF3 AccurateRip v1 signature : 156C964B AccurateRip v2 signature : 1E985FBC ->Accurately ripped (v1+v2, confidence 2+3/7) Statistics Read error : 0 Jitter error (maybe fixed) : 0 Retry sector count : 0 Damaged sector count : 0
No errors occurred
End of status report
-----BEGIN XLD SIGNATURE-----6GLvuWQZB74Yct2UJMWhVTSZBXDZq2qs0Dkx97b75lwzPmgtfwYXwECpzbGvXLpEUDSI1v8hG8byxzbohdCkqZxR2fwdzvJVZTB.06m-----END XLD SIGNATURE-----

Лог проверки качества

-----------------------
DON'T MODIFY THIS FILE
-----------------------
PERFORMER: auCDtect Task Manager, ver. 1.6.0 RC1 build 1.6.0.1Copyright (c) 2008-2010 y-soft. All rights reservedhttp://y-soft.org
ANALYZER: auCDtect: CD records authenticity detector, version 0.8.2Copyright (c) 2004 Oleg Berngardt. All rights reserved.Copyright (c) 2004 Alexander Djourik. All rights reserved.
FILE: 12 - Never My Love.flac Size: 28921410 Hash: F59A324FD424A746762331A41E90D399 Accuracy: -m0 Conclusion: CDDA 100% Signature: EB49D187024F6F9B7C68BD80CD6C80E0CC35515FFILE: 11 - All in Love Is Fair.flac Size: 24125244 Hash: ABAF4ABC7E8C0366B9F9BBD82608A7AA Accuracy: -m0 Conclusion: CDDA 100% Signature: 2D55D28CA039CA554B791120E8A27BAC52DD3CE4FILE: 10 - Haven't Got Much.flac Size: 27779599 Hash: 3D0F1736078496C703EAFE4BF57D6F6A Accuracy: -m0 Conclusion: CDDA 100% Signature: 5354CBC8D15516F5F73A7ED7C2AC82B422B8DB2BFILE: 09 - I Get a Kick Out of You.flac Size: 20155223 Hash: 8A585E9D6CC8569326A80BF468329A30 Accuracy: -m0 Conclusion: CDDA 100% Signature: 8230290794CB844C52BBD4184285FFEC98EF361EFILE: 08 - I Get Along Without You Very Well.flac Size: 23278127 Hash: 710524021265C1350D210BCDE4D0232C Accuracy: -m0 Conclusion: CDDA 100% Signature: 83FCE543A70AA5C44A9B62C2BE8E94AF9BF1955BFILE: 07 - Witchcraft.flac Size: 21234589 Hash: 89FB758230E80DB3C0C45CA9E3132218 Accuracy: -m0 Conclusion: CDDA 100% Signature: E4A17990F48F5AB03CC0274DAAE8BB9B54D9A35DFILE: 06 - Blame It on My Youth.flac Size: 24942159 Hash: 75FA944FAFE747FE8244501A4BB88600 Accuracy: -m0 Conclusion: CDDA 100% Signature: 3BD3DBD1FA0768A6DD9E0E9BBAAD0798B2A22062FILE: 05 - I Saw Her Standing There.flac Size: 25207029 Hash: CC3F1DB078F3A19E13B6B8D69AA3DEEC Accuracy: -m0 Conclusion: CDDA 100% Signature: 89D8A047FA885728718668495765384F7794B885FILE: 04 - A Whiter Shade of Pale.flac Size: 30541408 Hash: 602AE3258DF58FB62E4B13F799CC2B21 Accuracy: -m0 Conclusion: CDDA 100% Signature: 068DB00DF04A471D2A7E2AFAF9FFC7127D751260FILE: 03 - At Last.flac Size: 29764427 Hash: DC904D5465FD99FC247E55AB302268A8 Accuracy: -m0 Conclusion: CDDA 100% Signature: 113072D4A64FAA98F86C1BA92D007F9DF90DE4F3FILE: 02 - Brazil.flac Size: 28800217 Hash: 3BDDFFA6B627786D08438BE48AD1D9DB Accuracy: -m0 Conclusion: CDDA 100% Signature: 1AB0C2DBC0C03C340AA86F4F59184FAD2E4FBACDFILE: 01 - Beyond the Sea.flac Size: 22784342 Hash: CAE5937D60EDAADA8B036CD51E550E8F Accuracy: -m0 Conclusion: CDDA 100% Signature: 113EDE442C5285ECE5BD4B4AE6C183096ADAB5CD

Об альбоме (сборнике)

For fans of Frank Sinatra and Michael Buble, this collection is the perfect blend of swinging big band numbers, classic pop and soul hits.


[islamvillage.com]_t_5653823.torrent
Торрент: Зарегистрирован ·  [ 2018-12-05 00:01 ] ·  07bd93c597ec21e30b6d4e9debea52a29bda3a55

13 KB

Статус: проверено
Скачан: 0 раз
Размер: 294 MB
Оценка: 
(Голосов: 0)
Сказали спасибо: 0  Спасибо
Похожие темы
[Профиль]    [ЛС]
Показать сообщения:    
Ответить на тему

Текущее время: Сегодня 05:58

Часовой пояс: GMT + 7



Вы не можете начинать темы
Вы не можете отвечать на сообщения
Вы не можете редактировать свои сообщения
Вы не можете удалять свои сообщения
Вы не можете голосовать в опросах
Вы не можете прикреплять файлы к сообщениям
Вы можете скачивать файлы


Tower of God 2 chap 332.5 | חצאיות | French Guiana