Искатели - "Загадка смерти Стефана Батория" [2014, документальный, DVB]

Ответить на тему
Статистика раздачи [Обновить пиров]
Размер:  631 MB   |    Зарегистрирован:  2 месяца 12 дней   |    Скачан:  0 раз

Полного источника не было: Никогда

 
   
 
 
 
Автор Сообщение

islamvillage.com

Создавать темы 08-Дек-2018 23:40

[Цитировать]

Искатели - "Загадка смерти Стефана Батория" .
Год выхода: 2014
Страна: Россия
Жанр: Документальный
Продолжительность: 00:43:56
Перевод: Не требуется

Описание

Цикл познавательно-приключенческих программ, посвященный общественно значимым событиям истории России и зарубежья, а также частным историям известных людей, которые оставили потомкам много вопросов и тайн. Жанр цикла – историческое расследование, "телевизионные приключения для взрослых". Чтобы разгадать очередную тайну, "Искатели" исследуют как летописные источники, так и находки, обнаруженные непосредственно на месте исторических событий .
В выпуске: Стефан Баторий вошел в историю как один из самых влиятельных политиков и полководцев своего времени. Он был королем Польши всего 10 лет. Но за это время ему удалось объединить Королевство Польское и Великое княжество Литовское в единую державу - Речь Посполитую.
Но 12 декабря 1586 года случилось неожиданное. Стефан Баторий скончался. Причем при весьма загадочных обстоятельствах… По стране сразу поползли "нехорошие" слухи. Ему было 53. Он казался физически крепким и лично возглавлял все военные походы, мог часами охотиться. Обстоятельства смерти Батория, в самом деле, были странными... Для того чтобы разобраться, что же произошло 12 декабря 1586 года, "Искатели" решили отправиться туда, где умер польский король. В город Гродно...
Качество видео: DVB
Формат файла: MPEG-PS
Видео: MPEG2 Video, 720x576 (4:3), 25 fps, 1800 kbps
Аудио: MPEG Audiо, 2 сh, 48 kHz, 192 kbps
Трансляция спутникового канала:

MediaInfo

G:\Искатели. Загадка смерти Стефана Батория. (2014)_DVB by SLuMeP.mpg
General
Complete name : G:\Искатели. Загадка смерти Стефана Батория. (2014)_DVB by SLuMeP.mpg
Format : MPEG-PS
File size : 631 MiB
Duration : 43mn 56s
Overall bit rate mode : Variable
Overall bit rate : 2 007 Kbps
Writing library : (c) 1998-2010 Womble Multimedia, Inc. / MPEG Video Wizard DVD 5.0.0.114 (01/2010) / Apr 20 2010
Video #224
ID : 224 (0xE0)
Format : MPEG Video
Format version : Version 2
Format profile : Main@Main
Format settings, BVOP : Yes
Format settings, Matrix : Custom
Format settings, GOP : M=3, N=36
Duration : 43mn 56s
Bit rate mode : Variable
Bit rate : 1 775 Kbps
Maximum bit rate : 15.0 Mbps
Width : 720 pixels
Height : 576 pixels
Display aspect ratio : 4:3
Frame rate : 25.000 fps
Standard : PAL
Color space : YUV
Chroma subsampling : 4:2:0
Bit depth : 8 bits
Scan type : Interlaced
Scan order : Top Field First
Compression mode : Lossy
Bits/(Pixel*Frame) : 0.171
Stream size : 558 MiB (88%)
Writing library : (c) 1998-2010 Womble Multimedia, Inc. / MPEG Video Wizard DVD 5.0.0.114 (01/2010) / Apr 20 2010
Audio #192
ID : 192 (0xC0)
Format : MPEG Audio
Format version : Version 1
Format profile : Layer 2
Duration : 43mn 56s
Bit rate mode : Constant
Bit rate : 192 Kbps
Channel(s) : 2 channels
Sampling rate : 48.0 KHz
Compression mode : Lossy
Delay relative to video : -80ms
Stream size : 60.4 MiB (10%)
Menu

Скриншоты



[islamvillage.com]_t_4709813.torrent
Торрент: Зарегистрирован ·  [ 2018-12-08 23:40 ] ·  dea521e536a01a7eefa527b43d8daacff979c3f9

13 KB

Статус: проверено
Скачан: 0 раз
Размер: 631 MB
Оценка: 
(Голосов: 0)
Сказали спасибо: 0  Спасибо
Похожие темы
[Профиль]    [ЛС]
Показать сообщения:    
Ответить на тему

Текущее время: Сегодня 18:44

Часовой пояс: GMT + 7



Вы не можете начинать темы
Вы не можете отвечать на сообщения
Вы не можете редактировать свои сообщения
Вы не можете удалять свои сообщения
Вы не можете голосовать в опросах
Вы не можете прикреплять файлы к сообщениям
Вы можете скачивать файлы


épisode 4 | Movies films | Episode 51