(Vocal Jazz, Cool Jazz, Contemporary Jazz) [CD] Diana Krall - From This Moment On (Special Ltd.Edition) - 2006, FLAC (image+.cue), lossless

Ответить на тему
Статистика раздачи [Обновить пиров]
Размер:  384 MB   |    Зарегистрирован:  1 месяц 6 дней   |    Скачан:  1 раз

Полного источника не было: 1 день 11 часов

 
   
 
 
 
Автор Сообщение

islamvillage.com

Создавать темы 11-Дек-2018 23:06

[Цитировать]

Diana Krall - From This Moment On
[img=right]http://i108.fastpic.ru/big/2018/1209/9a/0927cd2a67...e8cc9a.jpg[/img]
Жанр: Vocal Jazz, Cool Jazz, Contemporary Jazz
Носитель: CD
Страна-производитель диска (релиза): Germany
Год издания: 2006
Издатель (лейбл): Verve Records
Номер по каталогу: 0602517050426
Страна исполнителя (группы): Canada
Аудиокодек: FLAC (*.flac)
Тип рипа: image+.cue
Битрейт аудио: lossless
Продолжительность: 00:57:14
Источник (релизер): собственный рип
Наличие сканов в содержимом раздачи: да
Треклист:
01. It Could Happen To You
02. Isn't This A Lovely Day
03. How Insensitive
04. Exactly Like You
05. From This Moment On
06. I Was Doing Alright
07. Little Girl Blue
08. Day In, Day Out
09. Willow Weep For Me
10. Come Dance With Me
11. You Can Depend On Me
12. The Boulevard Of Broken Dreams

Лог создания рипа

Exact Audio Copy V1.3 from 2. September 2016
Отчёт EAC об извлечении, выполненном 9. декабря 2018, 12:06
Diana Krall / From This Moment On
Дисковод: ASUS DRW-24B3ST Adapter: 1 ID: 0
Режим чтения : ДостоверностьИспользование точного потока : ДаОтключение кэша аудио : ДаИспользование указателей C2 : Нет
Коррекция смещения при чтении : 6Способность читать области Lead-in и Lead-out : НетЗаполнение пропущенных сэмплов тишиной : ДаУдаление блоков с тишиной в начале и конце : НетПри вычислениях CRC использовались нулевые сэмплы : ДаИнтерфейс : Встроенный Win32-интерфейс для Win NT/2000
Выходной формат : Пользовательский кодировщикВыбранный битрейт : 1024 kBit/sКачество : ВысокийДобавление ID3-тега : НетУтилита сжатия : C:\Program Files (x86)\Exact Audio Copy\Flac\flac.exeДополнительные параметры : -V -8 -T "Date=%year%" -T "Genre=%genre%" %source%
TOC извлечённого CD
Трек | Старт | Длительность | Начальный сектор | Конечный сектор --------------------------------------------------------------------- 1 | 0:00.00 | 3:28.32 | 0 | 15631 2 | 3:28.32 | 6:07.68 | 15632 | 43224 3 | 9:36.25 | 5:20.28 | 43225 | 67252 4 | 14:56.53 | 3:02.30 | 67253 | 80932 5 | 17:59.08 | 3:23.49 | 80933 | 96206 6 | 21:22.57 | 5:12.61 | 96207 | 119667 7 | 26:35.43 | 5:39.08 | 119668 | 145100 8 | 32:14.51 | 4:01.03 | 145101 | 163178 9 | 36:15.54 | 5:39.57 | 163179 | 188660 10 | 41:55.36 | 4:24.02 | 188661 | 208462 11 | 46:19.38 | 5:20.35 | 208463 | 232497 12 | 51:39.73 | 5:34.15 | 232498 | 257562
Характеристики диапазона извлечения и сообщения об ошибках
Выбранный диапазон
Имя файла E:\Torrents-seed\Diana Krall - 2006 - From This Moment On\Diana Krall - From This Moment On.wav
Пиковый уровень 99.7 % Скорость извлечения 8.5 X Качество диапазона 99.9 % CRC теста 7A21D901 CRC копии 7A21D901 Копирование... OK
Ошибок не произошло
AccurateRip: сводка
Трек 1 : извлечено точно (доверие 200) [63CAEB42] (AR v2)Трек 2 : извлечено точно (доверие 200) [7FC558A0] (AR v2)Трек 3 : извлечено точно (доверие 200) [6BCFFDAF] (AR v2)Трек 4 : извлечено точно (доверие 200) [34472E23] (AR v2)Трек 5 : извлечено точно (доверие 200) [88912E69] (AR v2)Трек 6 : извлечено точно (доверие 200) [E828AFEF] (AR v2)Трек 7 : извлечено точно (доверие 200) [6C34B3E5] (AR v2)Трек 8 : извлечено точно (доверие 200) [7880C14E] (AR v2)Трек 9 : извлечено точно (доверие 200) [289D8D12] (AR v2)Трек 10 : извлечено точно (доверие 200) [E7E31293] (AR v2)Трек 11 : извлечено точно (доверие 200) [FFF7623F] (AR v2)Трек 12 : извлечено точно (доверие 200) [41277E36] (AR v2)
Все треки извлечены точно
Конец отчёта
==== Контрольная сумма отчёта 8AD64069B652511F07B2A3259048384FAC3E8A65457CBFCCE0328C8F2B273326 ====

Замер динамического диапазона (DRM)

foobar2000 1.3.17 / Dynamic Range Meter 1.1.1log date: 2018-12-09 12:07:25
--------------------------------------------------------------------------------Analyzed: Diana Krall / From This Moment On--------------------------------------------------------------------------------
DR Peak RMS Duration Track--------------------------------------------------------------------------------DR10 -0.02 dB -12.03 dB 3:28 01-It Could Happen to YouDR11 -0.02 dB -13.95 dB 6:08 02-Isn't This a Lovely DayDR12 -0.02 dB -14.19 dB 5:20 03-How InsensitiveDR12 -0.02 dB -13.78 dB 3:02 04-Exactly Like YouDR8 -0.02 dB -9.86 dB 3:24 05-From This Moment onDR9 -0.02 dB -11.64 dB 5:13 06-I Was Doing AlrightDR12 -0.02 dB -15.55 dB 5:39 07-Little Girl BlueDR9 -0.02 dB -11.30 dB 4:01 08-Day In, Day OutDR10 -0.02 dB -13.25 dB 5:40 09-Willow Weep for MeDR8 -0.02 dB -10.21 dB 4:24 10-Come Dance With MeDR12 -0.02 dB -13.82 dB 5:20 11-You Can Depend on Me (It Was a Beautiful Day in August)DR12 -0.02 dB -13.80 dB 5:34 12-The Boulevard of Broken Dreams--------------------------------------------------------------------------------
Number of tracks: 12Official DR value: DR11
Samplerate: 44100 HzChannels: 2Bits per sample: 16Bitrate: 819 kbpsCodec: FLAC================================================================================

Об исполнителе

http://www.dianakrall.com/

Состав

Diana Krall - piano, vocals
Anthony Wilson - guitar
John Clayton - bass
Jeff Hamilton - drums
Tamir Hendelman - piano
Gerald Clayton - piano
With The Clayton/Hamilton Jazz Orchestra
Produced by Tommy LiPuma and Diana Krall
Recorded by Al Schmitt and Steve Genewick


[islamvillage.com]_t_5656940.torrent
Торрент: Зарегистрирован ·  [ 2018-12-11 23:06 ] ·  07bdce0b760527ddfc1306ad552559c9eb1b3b18

16 KB

Статус: проверено
Скачан: 1 раз
Размер: 384 MB
Оценка: 
(Голосов: 0)
Сказали спасибо: 0  Спасибо
Похожие темы
[Профиль]    [ЛС]
Показать сообщения:    
Ответить на тему

Текущее время: Сегодня 07:00

Часовой пояс: GMT + 7



Вы не можете начинать темы
Вы не можете отвечать на сообщения
Вы не можете редактировать свои сообщения
Вы не можете удалять свои сообщения
Вы не можете голосовать в опросах
Вы не можете прикреплять файлы к сообщениям
Вы можете скачивать файлы


leapfrog geo | Damsel Assistir Damsel 720p Dublado/Legendado Online Samuel Alabaster (Robert Pattinson), um rico pioneiro, aventura-se pela remota fronteira dos EUA para se casar com o amor de sua vida, Penelope (Mia Wasikowska). Enquanto Samuel atravessa o Velho Oeste com um bêbado chamado Parson Henry (David Zellner) e um minicavalo chamado Butterscotch, sua jornada vai se tornando traiçoeira, apagando as linhas divisórias entre herói, ... | General Discussions