(JMetal, Power Metal) [CD] Aldious - Die for you - Dearly - Believe myself (single) - 2015, FLAC (tracks+.cue), lossless

Ответить на тему
Статистика раздачи [Обновить пиров]
Размер:  138 MB   |    Зарегистрирован:  1 месяц 3 дня   |    Скачан:  0 раз

Полного источника не было: Никогда

 
   
 
 
 
Автор Сообщение

islamvillage.com

Создавать темы 13-Дек-2018 01:15

[Цитировать]

Aldious - Die for you - Dearly - Believe myself Жанр: JMetal, Power Metal
Носитель: CD
Год издания: 2015
Страна-производитель диска: Japan
Издатель (лейбл): Radiant A
Номер по каталогу: ALDI-003
Страна исполнителя (группы): Japan
Аудиокодек: FLAC (*.flac)
Тип рипа: tracks+.cue
Битрейт аудио: lossless
Продолжительность: 18:10
Источник (релизер): red
Наличие сканов: да
Треклист:
01. Dearly [04:16]
02. Believe Myself [05:17]
03. die for you [04:21]
04. Dearly (Instrumental) [04:17]

Лог

Exact Audio Copy V1.1 from 23. June 2015
EAC extraction logfile from 12. November 2015, 21:47
Aldious / die for you/Dearly/Believe Myself
Used drive : hp DVDRAM GT30L Adapter: 1 ID: 0
Read mode : SecureUtilize accurate stream : YesDefeat audio cache : YesMake use of C2 pointers : No
Read offset correction : 103Overread into Lead-In and Lead-Out : NoFill up missing offset samples with silence : YesDelete leading and trailing silent blocks : NoNull samples used in CRC calculations : YesUsed interface : Native Win32 interface for Win NT & 2000Gap handling : Appended to previous track
Used output format : User Defined EncoderSelected bitrate : 1024 kBit/sQuality : HighAdd ID3 tag : NoCommand line compressor : C:\Program Files (x86)\Exact Audio Copy\Flac\flac.exeAdditional command line options : -8 -V -T "ARTIST=%artist%" -T "TITLE=%title%" -T "ALBUM=%albumtitle%" -T "DATE=%year%" -T "TRACKNUMBER=%tracknr%" -T "GENRE=%genre%" -T "PERFORMER=%albuminterpret%" -T "COMPOSER=%composer%" %haslyrics%--tag-from-file=LYRICS="%lyricsfile%"%haslyrics% -T "ALBUMARTIST=%albumartist%" -T "DISCNUMBER=%cdnumber%" -T "TOTALDISCS=%totalcds%" -T "TOTALTRACKS=%numtracks%" -T "COMMENT=%comment%" %source% -o %dest%
TOC of the extracted CD
Track | Start | Length | Start sector | End sector --------------------------------------------------------- 1 | 0:00.00 | 4:16.15 | 0 | 19214 2 | 4:16.15 | 5:16.69 | 19215 | 42983 3 | 9:33.09 | 4:20.65 | 42984 | 62548 4 | 13:53.74 | 4:16.28 | 62549 | 81776
Track 1
Filename C:\EAC\01 - Dearly.wav
Pre-gap length 0:00:02.00
Peak level 99.2 % Extraction speed 1.2 X Track quality 100.0 % Test CRC 1BF09F48 Copy CRC 1BF09F48 Track not present in AccurateRip database Copy OK
Track 2
Filename C:\EAC\02 - Believe Myself.wav
Peak level 98.1 % Extraction speed 1.4 X Track quality 100.0 % Test CRC 80FD01E1 Copy CRC 80FD01E1 Track not present in AccurateRip database Copy OK
Track 3
Filename C:\EAC\03 - die for you.wav
Peak level 98.1 % Extraction speed 1.5 X Track quality 100.0 % Test CRC 258744CE Copy CRC 258744CE Track not present in AccurateRip database Copy OK
Track 4
Filename C:\EAC\04 - Dearly (Instrumental).wav
Peak level 98.1 % Extraction speed 1.7 X Track quality 100.0 % Test CRC 3ED752CB Copy CRC 3ED752CB Track not present in AccurateRip database Copy OK
None of the tracks are present in the AccurateRip database
No errors occurred
End of status report
---- CUETools DB Plugin V2.1.6
[CTDB TOCID: kP7Rmdrl6tfqOk00oBzBv_OGnsg-] foundSubmit result: kP7Rmdrl6tfqOk00oBzBv_OGnsg- has been confirmedTrack | CTDB Status 1 | (2/2) Accurately ripped 2 | (2/2) Accurately ripped 3 | (2/2) Accurately ripped 4 | (2/2) Accurately ripped
==== Log checksum AD88C7C8734C0F47E1523D99665A0EF734A91B8629D16B9A9DE7A42FF2BD13FB ====

Содержание индексной карты

REM GENRE MetalREM DATE 2015REM DISCID 32044204REM COMMENT "ExactAudioCopy v1.1"CATALOG 4580413072826PERFORMER "Aldious"TITLE "die for you/Dearly/Believe Myself"FILE "01 - Dearly.wav" WAVE TRACK 01 AUDIO TITLE "Dearly" PERFORMER "Aldious" ISRC JPH371500210 INDEX 01 00:00:00FILE "02 - Believe Myself.wav" WAVE TRACK 02 AUDIO TITLE "Believe Myself" PERFORMER "Aldious" ISRC JPH371500211 INDEX 01 00:00:00FILE "03 - die for you.wav" WAVE TRACK 03 AUDIO TITLE "die for you" PERFORMER "Aldious" ISRC JPH371500209 INDEX 01 00:00:00FILE "04 - Dearly (Instrumental).wav" WAVE TRACK 04 AUDIO TITLE "Dearly (Instrumental)" PERFORMER "Aldious" ISRC JPH371500214 INDEX 01 00:00:00
Не уходите с раздачи, я не смогу её поддерживать!


[islamvillage.com]_t_5657800.torrent
Торрент: Зарегистрирован ·  [ 2018-12-13 01:15 ] ·  aeb9f54425f76a32cda11b1fa094d350225f2ccc

12 KB

Статус: проверено
Скачан: 0 раз
Размер: 138 MB
Оценка: 
(Голосов: 0)
Сказали спасибо: 0  Спасибо
Похожие темы
[Профиль]    [ЛС]
Показать сообщения:    
Ответить на тему

Текущее время: Сегодня 15:04

Часовой пояс: GMT + 7



Вы не можете начинать темы
Вы не можете отвечать на сообщения
Вы не можете редактировать свои сообщения
Вы не можете удалять свои сообщения
Вы не можете голосовать в опросах
Вы не можете прикреплять файлы к сообщениям
Вы можете скачивать файлы


O Senhor dos Anéis - O Retorno do Rei Versão Estendida Torrent Ação / Aventura / Drama / Fantasia 2003 1080p Bluray Full HD MKV Download | April 2013 (4982) | Wishmaster 4: The Prophecy Fulfilled (2002)