(JMetal, Power Metal) [CD] Aldious - Radiant A - 2015, FLAC (tracks+.cue), lossless

Ответить на тему
Статистика раздачи [Обновить пиров]
Размер:  445 MB   |    Зарегистрирован:  1 месяц 3 дня   |    Скачан:  0 раз

Полного источника не было: Никогда

 
   
 
 
 
Автор Сообщение

islamvillage.com

Создавать темы 13-Дек-2018 01:15

[Цитировать]

Aldious - Radiant A Жанр: JMetal, Power Metal
Носитель: CD
Год издания: 2015
Страна-производитель диска: Japan
Издатель (лейбл): JPU Records
Номер по каталогу: JPU 027
Страна исполнителя (группы): Japan
Аудиокодек: FLAC (*.flac)
Тип рипа: tracks+.cue
Битрейт аудио: lossless
Продолжительность: 57:30
Источник (релизер): red
Наличие сканов: нет
Треклист:
01. Re_fire [03:45]
02. THE END [03:23]
03. die for you [04:19]
04. STEP [04:05]
05. Sweet Temptation [04:36]
06. One Way [04:33]
07. Believe Myself (new mix) [05:11]
08. PIECE OF MY WISH [06:11]
09. Moment [03:10]
10. Kochou no Yume [04:27]
11. Dearly (new mix) [04:19]

Лог

Exact Audio Copy V1.3 from 2. September 2016
EAC extraction logfile from 13. September 2017, 22:57
Aldious / Radiant A
Used drive : ATAPI iHAS124 W Adapter: 1 ID: 0
Read mode : SecureUtilize accurate stream : YesDefeat audio cache : YesMake use of C2 pointers : No
Read offset correction : 48Overread into Lead-In and Lead-Out : NoFill up missing offset samples with silence : YesDelete leading and trailing silent blocks : NoNull samples used in CRC calculations : YesUsed interface : Native Win32 interface for Win NT & 2000Gap handling : Appended to previous track
Used output format : User Defined EncoderSelected bitrate : 1024 kBit/sQuality : HighAdd ID3 tag : NoCommand line compressor : C:\Program Files (x86)\FLAC Frontend\tools\flac.exeAdditional command line options : -8 -V -T "ARTIST=%artist%" -T "TITLE=%title%" -T "ALBUM=%albumtitle%" -T "DATE=%year%" -T "TRACKNUMBER=%tracknr%" %source% -o %dest%
TOC of the extracted CD
Track | Start | Length | Start sector | End sector --------------------------------------------------------- 1 | 0:00.00 | 3:44.73 | 0 | 16872 2 | 3:44.73 | 3:22.41 | 16873 | 32063 3 | 7:07.39 | 4:18.70 | 32064 | 51483 4 | 11:26.34 | 4:04.51 | 51484 | 69834 5 | 15:31.10 | 4:35.31 | 69835 | 90490 6 | 20:06.41 | 4:32.19 | 90491 | 110909 7 | 24:38.60 | 5:11.01 | 110910 | 134235 8 | 29:49.61 | 6:10.56 | 134236 | 162041 9 | 36:00.42 | 3:09.60 | 162042 | 176276 10 | 39:10.27 | 4:26.15 | 176277 | 196241 11 | 43:36.42 | 4:18.45 | 196242 | 215636 12 | 47:55.12 | 4:28.11 | 215637 | 235747 13 | 52:23.23 | 5:06.66 | 235748 | 258763
Track 1
Filename H:\#flac rips\01 Aldious - Re_fire.wav
Pre-gap length 0:00:02.00
Peak level 98.1 % Extraction speed 4.5 X Track quality 100.0 % Test CRC 84D52EFA Copy CRC 84D52EFA Accurately ripped (confidence 1) [A915CEBA] (AR v2) Copy OK
Track 2
Filename H:\#flac rips\02 Aldious - The End.wav
Peak level 98.1 % Extraction speed 4.8 X Track quality 100.0 % Test CRC D237477B Copy CRC D237477B Accurately ripped (confidence 1) [AFD05CC3] (AR v2) Copy OK
Track 3
Filename H:\#flac rips\03 Aldious - Die for You.wav
Peak level 98.1 % Extraction speed 3.9 X Track quality 99.9 % Test CRC 04B6E363 Copy CRC 04B6E363 Accurately ripped (confidence 1) [AAC8B2D0] (AR v2) Copy OK
Track 4
Filename H:\#flac rips\04 Aldious - Step.wav
Peak level 98.1 % Extraction speed 4.1 X Track quality 99.9 % Test CRC 0C0A9419 Copy CRC 0C0A9419 Accurately ripped (confidence 1) [6A689F56] (AR v2) Copy OK
Track 5
Filename H:\#flac rips\05 Aldious - Sweet Temptation.wav
Peak level 98.1 % Extraction speed 6.3 X Track quality 100.0 % Test CRC A6DEBC64 Copy CRC A6DEBC64 Accurately ripped (confidence 1) [F5D47FE3] (AR v2) Copy OK
Track 6
Filename H:\#flac rips\06 Aldious - One Way.wav
Peak level 98.1 % Extraction speed 4.9 X Track quality 99.9 % Test CRC A78FB7EC Copy CRC A78FB7EC Accurately ripped (confidence 1) [613A1747] (AR v2) Copy OK
Track 7
Filename H:\#flac rips\07 Aldious - Believe Myself (New Mix).wav
Peak level 98.1 % Extraction speed 7.2 X Track quality 100.0 % Test CRC AD10A5E3 Copy CRC AD10A5E3 Accurately ripped (confidence 1) [DCE32534] (AR v2) Copy OK
Track 8
Filename H:\#flac rips\08 Aldious - Piece of My Wish.wav
Peak level 98.1 % Extraction speed 7.7 X Track quality 100.0 % Test CRC 8CF46376 Copy CRC 8CF46376 Accurately ripped (confidence 1) [F24BB49D] (AR v2) Copy OK
Track 9
Filename H:\#flac rips\09 Aldious - Moment.wav
Peak level 98.1 % Extraction speed 7.4 X Track quality 100.0 % Test CRC 5CB7CA05 Copy CRC 5CB7CA05 Accurately ripped (confidence 1) [64E58BC7] (AR v2) Copy OK
Track 10
Filename H:\#flac rips\10 Aldious - 胡蝶ノ夢 (Kochou no yume).wav
Peak level 98.1 % Extraction speed 8.0 X Track quality 100.0 % Test CRC 87387337 Copy CRC 87387337 Accurately ripped (confidence 1) [1972A4B8] (AR v2) Copy OK
Track 11
Filename H:\#flac rips\11 Aldious - Dearly (New Mix).wav
Peak level 98.1 % Extraction speed 5.9 X Track quality 99.9 % Test CRC 678CF5FF Copy CRC 678CF5FF Accurately ripped (confidence 1) [CD78F1AA] (AR v2) Copy OK
Track 12
Filename H:\#flac rips\12 Aldious - Dominator (Live).wav
Peak level 100.0 % Extraction speed 8.6 X Track quality 100.0 % Test CRC 7B2CAB81 Copy CRC 7B2CAB81 Accurately ripped (confidence 1) [ED835D2A] (AR v2) Copy OK
Track 13
Filename H:\#flac rips\13 Aldious - White Crow (Live).wav
Peak level 100.0 % Extraction speed 9.0 X Track quality 100.0 % Test CRC 8D80C9BD Copy CRC 8D80C9BD Accurately ripped (confidence 1) [531CB2B1] (AR v2) Copy OK
All tracks accurately ripped
No errors occurred
End of status report
---- CUETools DB Plugin V2.1.6
[CTDB TOCID: QK9qPyVk2OfRxPwLCgXJom7rP6Y-] foundSubmit result: QK9qPyVk2OfRxPwLCgXJom7rP6Y- has been confirmedTrack | CTDB Status 1 | (7/7) Accurately ripped 2 | (7/7) Accurately ripped 3 | (7/7) Accurately ripped 4 | (7/7) Accurately ripped 5 | (7/7) Accurately ripped 6 | (7/7) Accurately ripped 7 | (7/7) Accurately ripped 8 | (7/7) Accurately ripped 9 | (7/7) Accurately ripped 10 | (7/7) Accurately ripped 11 | (7/7) Accurately ripped 12 | (7/7) Accurately ripped 13 | (7/7) Accurately ripped
==== Log checksum C92097D8F63E9B1582BC0719C56EFBDEC2CA448A1937A3B2045D16854B5F4A17 ====

Содержание индексной карты

REM DATE 2015REM DISCID B70D7A0DREM COMMENT "ExactAudioCopy v1.3"PERFORMER "Aldious"TITLE "Radiant A"FILE "01 Aldious - Re_fire.wav" WAVE TRACK 01 AUDIO INDEX 01 00:00:00FILE "02 Aldious - The End.wav" WAVE TRACK 02 AUDIO INDEX 01 00:00:00FILE "03 Aldious - Die for You.wav" WAVE TRACK 03 AUDIO INDEX 01 00:00:00FILE "04 Aldious - Step.wav" WAVE TRACK 04 AUDIO INDEX 01 00:00:00FILE "05 Aldious - Sweet Temptation.wav" WAVE TRACK 05 AUDIO INDEX 01 00:00:00FILE "06 Aldious - One Way.wav" WAVE TRACK 06 AUDIO INDEX 01 00:00:00FILE "07 Aldious - Believe Myself (New Mix).wav" WAVE TRACK 07 AUDIO INDEX 01 00:00:00FILE "08 Aldious - Piece of My Wish.wav" WAVE TRACK 08 AUDIO INDEX 01 00:00:00FILE "09 Aldious - Moment.wav" WAVE TRACK 09 AUDIO INDEX 01 00:00:00FILE "10 Aldious - ???? (Kochou no yume).wav" WAVE TRACK 10 AUDIO INDEX 01 00:00:00FILE "11 Aldious - Dearly (New Mix).wav" WAVE TRACK 11 AUDIO INDEX 01 00:00:00FILE "12 Aldious - Dominator (Live).wav" WAVE TRACK 12 AUDIO INDEX 01 00:00:00FILE "13 Aldious - White Crow (Live).wav" WAVE TRACK 13 AUDIO INDEX 01 00:00:00
Не уходите с раздачи, я не смогу её поддерживать!


[islamvillage.com]_t_5657798.torrent
Торрент: Зарегистрирован ·  [ 2018-12-13 01:15 ] ·  69c22f77bae8b784e2456b072f90682be079e555

19 KB

Статус: проверено
Скачан: 0 раз
Размер: 445 MB
Оценка: 
(Голосов: 0)
Сказали спасибо: 0  Спасибо
Похожие темы
[Профиль]    [ЛС]
Показать сообщения:    
Ответить на тему

Текущее время: Сегодня 14:38

Часовой пояс: GMT + 7



Вы не можете начинать темы
Вы не можете отвечать на сообщения
Вы не можете редактировать свои сообщения
Вы не можете удалять свои сообщения
Вы не можете голосовать в опросах
Вы не можете прикреплять файлы к сообщениям
Вы можете скачивать файлы


Linda Thorson | └ Vastgoed | 10m Schrägband Baumwolle 20mm gefalzt (0,49€/m) Einfaßband Kantenband Farbwahl