(JMetal, Power Metal) [CD] Aldious - We are - 2017, FLAC (tracks+.cue), lossless

Ответить на тему
Статистика раздачи [Обновить пиров]
Размер:  272 MB   |    Зарегистрирован:  1 месяц 3 дня   |    Скачан:  0 раз

Полного источника не было: Никогда

 
   
 
 
 
Автор Сообщение

islamvillage.com

Создавать темы 13-Дек-2018 01:25

[Цитировать]

Aldious - We are[img=right]http://c.radikal.ru/c19/1801/b6/c1173d89f750.png[/img]
Жанр: JMetal, Power Metal
Носитель: CD
Год издания: 2017
Страна-производитель диска: Japan
Издатель (лейбл): Radiant A
Номер по каталогу: ALDI-016
Страна исполнителя (группы): Japan
Аудиокодек: FLAC (*.flac)
Тип рипа: tracks+.cue
Битрейт аудио: lossless
Продолжительность: 36:54
Источник (релизер): red
Наличие сканов: да
Треклист:
01. Intro [00:16]
02. We Are [04:13]
03. Persevere [03:52]
04. Absolute [04:19]
05. Never give up [04:56]
06. Koko ni Iru Fuzai [ここにいる不在] [04:55]
07. Itoshii Otoko [愛しい男] [04:30]
08. Happy Birthday [03:50]
09. Travelers [06:07]

Лог

Exact Audio Copy V1.3 from 2. September 2016
EAC extraction logfile from 5. January 2018, 23:47
Aldious / We Are
Used drive : ASUS BW-16D1HT Adapter: 1 ID: 0
Read mode : SecureUtilize accurate stream : YesDefeat audio cache : YesMake use of C2 pointers : No
Read offset correction : 6Overread into Lead-In and Lead-Out : NoFill up missing offset samples with silence : YesDelete leading and trailing silent blocks : NoNull samples used in CRC calculations : YesUsed interface : Native Win32 interface for Win NT & 2000Gap handling : Appended to previous track
Used output format : User Defined EncoderSelected bitrate : 1024 kBit/sQuality : HighAdd ID3 tag : NoCommand line compressor : C:\Program Files (x86)\Exact Audio Copy\Flac\flac.exeAdditional command line options : -8 -V -T "ARTIST=%artist%" -T "TITLE=%title%" -T "ALBUM=%albumtitle%" -T "DATE=%year%" -T "TRACKNUMBER=%tracknr%" -T "GENRE=%genre%" -T "PERFORMER=%albuminterpret%" -T "COMPOSER=%composer%" %haslyrics%--tag-from-file=LYRICS="%lyricsfile%"%haslyrics% -T "ALBUMARTIST=%albumartist%" -T "DISCNUMBER=%cdnumber%" -T "TOTALDISCS=%totalcds%" -T "TOTALTRACKS=%numtracks%" -T "COMMENT=%comment%" %source% -o %dest%
TOC of the extracted CD
Track | Start | Length | Start sector | End sector --------------------------------------------------------- 1 | 0:00.00 | 0:15.41 | 0 | 1165 2 | 0:15.41 | 4:12.36 | 1166 | 20101 3 | 4:28.02 | 3:51.60 | 20102 | 37486 4 | 8:19.62 | 4:19.14 | 37487 | 56925 5 | 12:39.01 | 4:55.36 | 56926 | 79086 6 | 17:34.37 | 4:54.59 | 79087 | 101195 7 | 22:29.21 | 4:29.26 | 101196 | 121396 8 | 26:58.47 | 3:49.41 | 121397 | 138612 9 | 30:48.13 | 6:06.12 | 138613 | 166074
Track 1
Filename E:\Music\EAC Rips\Aldious\[2017] We Are [EP] [FLAC]\01 - Intro.wav
Pre-gap length 0:00:02.00
Peak level 44.9 % Extraction speed 0.5 X Track quality 100.0 % Test CRC 8A2BB19B Copy CRC 8A2BB19B Accurately ripped (confidence 2) [84892528] (AR v2) Copy OK
Track 2
Filename E:\Music\EAC Rips\Aldious\[2017] We Are [EP] [FLAC]\02 - We Are.wav
Peak level 98.1 % Extraction speed 1.1 X Track quality 100.0 % Test CRC A20F07C6 Copy CRC A20F07C6 Accurately ripped (confidence 2) [3518D9CA] (AR v2) Copy OK
Track 3
Filename E:\Music\EAC Rips\Aldious\[2017] We Are [EP] [FLAC]\03 - Persevere.wav
Peak level 98.1 % Extraction speed 1.2 X Track quality 100.0 % Test CRC 021CE145 Copy CRC 021CE145 Accurately ripped (confidence 2) [BBAAD734] (AR v2) Copy OK
Track 4
Filename E:\Music\EAC Rips\Aldious\[2017] We Are [EP] [FLAC]\04 - Absolute.wav
Peak level 99.2 % Extraction speed 1.3 X Track quality 100.0 % Test CRC 6886C32D Copy CRC 6886C32D Accurately ripped (confidence 2) [503C54F5] (AR v2) Copy OK
Track 5
Filename E:\Music\EAC Rips\Aldious\[2017] We Are [EP] [FLAC]\05 - Never give up.wav
Pre-gap length 0:00:01.78
Peak level 99.2 % Extraction speed 1.4 X Track quality 99.9 % Test CRC 61806B0B Copy CRC 61806B0B Accurately ripped (confidence 2) [6823B76F] (AR v2) Copy OK
Track 6
Filename E:\Music\EAC Rips\Aldious\[2017] We Are [EP] [FLAC]\06 - Koko ni Iru Fuzai.wav
Peak level 98.1 % Extraction speed 1.5 X Track quality 99.9 % Test CRC 6039BE85 Copy CRC 6039BE85 Accurately ripped (confidence 2) [08D803A5] (AR v2) Copy OK
Track 7
Filename E:\Music\EAC Rips\Aldious\[2017] We Are [EP] [FLAC]\07 - Itoshii Otoko.wav
Peak level 100.0 % Extraction speed 1.6 X Track quality 100.0 % Test CRC 64CF6297 Copy CRC 64CF6297 Accurately ripped (confidence 2) [22C30488] (AR v2) Copy OK
Track 8
Filename E:\Music\EAC Rips\Aldious\[2017] We Are [EP] [FLAC]\08 - Happy Birthday.wav
Peak level 98.1 % Extraction speed 1.7 X Track quality 100.0 % Test CRC 81EB42AA Copy CRC 81EB42AA Accurately ripped (confidence 2) [25A40F1E] (AR v2) Copy OK
Track 9
Filename E:\Music\EAC Rips\Aldious\[2017] We Are [EP] [FLAC]\09 - Travelers.wav
Peak level 98.1 % Extraction speed 1.7 X Track quality 99.9 % Test CRC 29738451 Copy CRC 29738451 Accurately ripped (confidence 2) [5EECB7BF] (AR v2) Copy OK
All tracks accurately ripped
No errors occurred
End of status report
---- CUETools DB Plugin V2.1.6
[CTDB TOCID: CXrCpXbKTOPEA8rd_qLM4X.LzFo-] foundSubmit result: CXrCpXbKTOPEA8rd_qLM4X.LzFo- has been confirmedTrack | CTDB Status 1 | (27/27) Accurately ripped 2 | (27/27) Accurately ripped 3 | (27/27) Accurately ripped 4 | (27/27) Accurately ripped 5 | (26/27) Accurately ripped 6 | (26/27) Accurately ripped 7 | (26/27) Accurately ripped 8 | (26/27) Accurately ripped 9 | (26/27) Accurately ripped
==== Log checksum B08DEC07B6D06561A9FE6ED6C929FA552912204551EC69AF9B78A396B0A7B80A ====

Содержание индексной карты

REM GENRE RockREM DATE 2017REM DISCID 5408A609REM COMMENT "ExactAudioCopy v1.3"CATALOG 4580413075704PERFORMER "Aldious"TITLE "We Are"REM COMPOSER ""FILE "01 - Intro.wav" WAVE TRACK 01 AUDIO TITLE "Intro" PERFORMER "Aldious" REM COMPOSER "" ISRC JPH371700348 INDEX 01 00:00:00FILE "02 - We Are.wav" WAVE TRACK 02 AUDIO TITLE "We Are" PERFORMER "Aldious" REM COMPOSER "" ISRC JPH371700340 INDEX 01 00:00:00FILE "03 - Persevere.wav" WAVE TRACK 03 AUDIO TITLE "Persevere" PERFORMER "Aldious" REM COMPOSER "" ISRC JPH371700341 INDEX 01 00:00:00FILE "04 - Absolute.wav" WAVE TRACK 04 AUDIO TITLE "Absolute" PERFORMER "Aldious" REM COMPOSER "" ISRC JPH371700344 INDEX 01 00:00:00 TRACK 05 AUDIO TITLE "Never give up" PERFORMER "Aldious" REM COMPOSER "" ISRC JPH371700343 INDEX 00 04:17:30FILE "05 - Never give up.wav" WAVE INDEX 01 00:00:00FILE "06 - Koko ni Iru Fuzai.wav" WAVE TRACK 06 AUDIO TITLE " Koko ni Iru Fuzai" PERFORMER "Aldious" REM COMPOSER "" ISRC JPH371700342 INDEX 01 00:00:00FILE "07 - Itoshii Otoko.wav" WAVE TRACK 07 AUDIO TITLE "Itoshii Otoko" PERFORMER "Aldious" REM COMPOSER "" ISRC JPH371700346 INDEX 01 00:00:00FILE "08 - Happy Birthday.wav" WAVE TRACK 08 AUDIO TITLE "Happy Birthday" PERFORMER "Aldious" REM COMPOSER "" ISRC JPH371700345 INDEX 01 00:00:00FILE "09 - Travelers.wav" WAVE TRACK 09 AUDIO TITLE "Travelers" PERFORMER "Aldious" REM COMPOSER "" ISRC JPH371700347 INDEX 01 00:00:00
Не уходите с раздачи, я не смогу её поддерживать!


[islamvillage.com]_t_5657793.torrent
Торрент: Зарегистрирован ·  [ 2018-12-13 01:25 ] ·  098a86c7e166505b10749e3aa7eaf9716fc7f45d

12 KB

Статус: проверено
Скачан: 0 раз
Размер: 272 MB
Оценка: 
(Голосов: 0)
Сказали спасибо: 0  Спасибо
Похожие темы
[Профиль]    [ЛС]
Показать сообщения:    
Ответить на тему

Текущее время: Сегодня 15:22

Часовой пояс: GMT + 7



Вы не можете начинать темы
Вы не можете отвечать на сообщения
Вы не можете редактировать свои сообщения
Вы не можете удалять свои сообщения
Вы не можете голосовать в опросах
Вы не можете прикреплять файлы к сообщениям
Вы можете скачивать файлы


1x06 Rapina in TV | Jack Kirby | AAH, WAIT, I REMEMBER NOW!