(Vocal Jazz) [CD] The Kristin Berardi Band - Just as You Are - 2016, FLAC (tracks+.cue), lossless

Ответить на тему
Статистика раздачи [Обновить пиров]
Размер:  364 MB   |    Зарегистрирован:  1 месяц 4 дня   |    Скачан:  0 раз

Полного источника не было: Никогда

 
   
 
 
 
Автор Сообщение

islamvillage.com

Создавать темы 13-Дек-2018 16:37

[Цитировать]

The Kristin Berardi Band - Just as You Are
[img=right]http://i107.fastpic.ru/big/2018/1212/bc/24804e166c...7afbbc.jpg[/img]
Жанр: Vocal Jazz
Носитель: CD
Страна-производитель диска (релиза): Австралия
Год издания: 2016
Издатель (лейбл): Self-Released
Номер по каталогу: 9324690123391
Аудиокодек: FLAC (*.flac)
Тип рипа: tracks+.cue
Битрейт аудио: lossless
Продолжительность: 62:13
Источник (релизер): dalbot1980
Наличие сканов в содержимом раздачи: нет
Треклист:
01. Yellow (3:51)
02. Just as You Are (3:48)
03. Better Day (7:24)
04. Embraced I (5:41)
05. Just Squeeze Me (5:08)
06. Sara's Sea Song (6:11)
07. Memories of You (6:41)
08. Ode to Oli (4:29)
09. White Flag (7:44)
10. Mr. Jackson (5:46)
11. Body and Soul (live) (5:30)
Состав:
Kristin Berardi - vocals
Greg Coffin - piano
Carl Morgan - guitar
Brett Hirst - bass
Tim Firth - drums

Лог создания рипа

Exact Audio Copy V1.3 from 2. September 2016
EAC extraction logfile from 12. December 2018, 7:12
The Kristin Berardi Band / Just As You Are
Used drive : HL-DT-STDVDRAM GP60NB50 Adapter: 1 ID: 1
Read mode : SecureUtilize accurate stream : YesDefeat audio cache : YesMake use of C2 pointers : No
Read offset correction : 6Overread into Lead-In and Lead-Out : NoFill up missing offset samples with silence : YesDelete leading and trailing silent blocks : NoNull samples used in CRC calculations : YesUsed interface : Native Win32 interface for Win NT & 2000Gap handling : Appended to previous track
Used output format : User Defined EncoderSelected bitrate : 1024 kBit/sQuality : HighAdd ID3 tag : NoCommand line compressor : C:\flac-1.3.2-win\flac-1.3.2-win\win64\flac.exeAdditional command line options : -8 -e -p -V -T "ARTIST=%artist%" -T "TITLE=%title%" -T "ALBUM=%albumtitle%" -T "DATE=%year%" -T "TRACKNUMBER=%tracknr%" -T "GENRE=%genre%" -T "PERFORMER=%albuminterpret%" -T "COMPOSER=%composer%" %haslyrics%--tag-from-file=LYRICS="%lyricsfile%"%haslyrics% -T "ALBUMARTIST=%albumartist%" -T "DISCNUMBER=%cdnumber%" -T "TOTALDISCS=%totalcds%" -T "TOTALTRACKS=%numtracks%" -T "COMMENT=%comment%" %source% -o %dest%
TOC of the extracted CD
Track | Start | Length | Start sector | End sector --------------------------------------------------------- 1 | 0:00.00 | 3:50.67 | 0 | 17316 2 | 3:50.67 | 3:48.35 | 17317 | 34451 3 | 7:39.27 | 7:23.52 | 34452 | 67728 4 | 15:03.04 | 5:40.65 | 67729 | 93293 5 | 20:43.69 | 5:07.61 | 93294 | 116379 6 | 25:51.55 | 6:11.19 | 116380 | 144223 7 | 32:02.74 | 6:41.33 | 144224 | 174331 8 | 38:44.32 | 4:29.29 | 174332 | 194535 9 | 43:13.61 | 7:44.35 | 194536 | 229370 10 | 50:58.21 | 5:45.57 | 229371 | 255302 11 | 56:44.03 | 5:30.13 | 255303 | 280065
Track 1
Filename C:\EAC Rips\The Kristin Berardi Band - Just As You Are (2016) [CD - FLAC] {9324690123391}\01 - Yellow.wav
Pre-gap length 0:00:02.00
Peak level 96.6 % Extraction speed 2.7 X Track quality 100.0 % Test CRC 01FBE4C4 Copy CRC 01FBE4C4 Accurately ripped (confidence 1) [B27D82BA] (AR v2) Copy OK
Track 2
Filename C:\EAC Rips\The Kristin Berardi Band - Just As You Are (2016) [CD - FLAC] {9324690123391}\02 - Just As You Are.wav
Pre-gap length 0:00:02.00
Peak level 89.7 % Extraction speed 3.0 X Track quality 100.0 % Test CRC CE2140DD Copy CRC CE2140DD Accurately ripped (confidence 1) [90F6D8F3] (AR v2) Copy OK
Track 3
Filename C:\EAC Rips\The Kristin Berardi Band - Just As You Are (2016) [CD - FLAC] {9324690123391}\03 - Better Day.wav
Pre-gap length 0:00:02.00
Peak level 90.0 % Extraction speed 3.6 X Track quality 100.0 % Test CRC 7006A331 Copy CRC 7006A331 Accurately ripped (confidence 1) [F0ACC56E] (AR v2) Copy OK
Track 4
Filename C:\EAC Rips\The Kristin Berardi Band - Just As You Are (2016) [CD - FLAC] {9324690123391}\04 - Embraced I.wav
Pre-gap length 0:00:02.00
Peak level 96.6 % Extraction speed 3.9 X Track quality 100.0 % Test CRC 01B3A0DD Copy CRC 01B3A0DD Accurately ripped (confidence 1) [85C01F86] (AR v2) Copy OK
Track 5
Filename C:\EAC Rips\The Kristin Berardi Band - Just As You Are (2016) [CD - FLAC] {9324690123391}\05 - Just Squeeze Me.wav
Pre-gap length 0:00:02.00
Peak level 96.6 % Extraction speed 4.1 X Track quality 100.0 % Test CRC 80B34F8C Copy CRC 80B34F8C Accurately ripped (confidence 1) [3940E617] (AR v2) Copy OK
Track 6
Filename C:\EAC Rips\The Kristin Berardi Band - Just As You Are (2016) [CD - FLAC] {9324690123391}\06 - Sara's Sea Song.wav
Pre-gap length 0:00:02.00
Peak level 96.6 % Extraction speed 4.5 X Track quality 100.0 % Test CRC 28F5FDBA Copy CRC 28F5FDBA Accurately ripped (confidence 1) [8F28081B] (AR v2) Copy OK
Track 7
Filename C:\EAC Rips\The Kristin Berardi Band - Just As You Are (2016) [CD - FLAC] {9324690123391}\07 - Memories Of You.wav
Pre-gap length 0:00:02.00
Peak level 96.6 % Extraction speed 4.8 X Track quality 100.0 % Test CRC D29B8423 Copy CRC D29B8423 Accurately ripped (confidence 1) [E39DAFD8] (AR v2) Copy OK
Track 8
Filename C:\EAC Rips\The Kristin Berardi Band - Just As You Are (2016) [CD - FLAC] {9324690123391}\08 - Ode To Oli.wav
Pre-gap length 0:00:02.00
Peak level 83.4 % Extraction speed 4.2 X Track quality 99.9 % Test CRC 657BA8F7 Copy CRC 657BA8F7 Accurately ripped (confidence 1) [E94E0ED6] (AR v2) Copy OK
Track 9
Filename C:\EAC Rips\The Kristin Berardi Band - Just As You Are (2016) [CD - FLAC] {9324690123391}\09 - White Flag.wav
Pre-gap length 0:00:02.00
Peak level 96.6 % Extraction speed 4.9 X Track quality 99.9 % Test CRC C48E0E07 Copy CRC C48E0E07 Accurately ripped (confidence 1) [0C44FC34] (AR v2) Copy OK
Track 10
Filename C:\EAC Rips\The Kristin Berardi Band - Just As You Are (2016) [CD - FLAC] {9324690123391}\10 - Mr. JAckson.wav
Pre-gap length 0:00:02.00
Peak level 96.6 % Extraction speed 5.5 X Track quality 100.0 % Test CRC 18104BB6 Copy CRC 18104BB6 Accurately ripped (confidence 1) [181DFBDA] (AR v2) Copy OK
Track 11
Filename C:\EAC Rips\The Kristin Berardi Band - Just As You Are (2016) [CD - FLAC] {9324690123391}\11 - Body And Soul (Live).wav
Pre-gap length 0:00:02.00
Peak level 77.4 % Extraction speed 5.7 X Track quality 100.0 % Test CRC 33DB35C9 Copy CRC 33DB35C9 Accurately ripped (confidence 1) [4337AF8A] (AR v2) Copy OK
All tracks accurately ripped
No errors occurred
End of status report
==== Log checksum A856CAFFDABD9FF62059FAE678216566AC4AAE0AC749099D003042E57D0A0FBC ====

Содержание индексной карты (.CUE)

REM GENRE JazzREM DATE 2016REM DISCID 840E960BREM COMMENT "ExactAudioCopy v1.3"PERFORMER "Kristin Berardi"TITLE "Just as You Are"FILE "01 - Yellow.wav" WAVE TRACK 01 AUDIO TITLE "Yellow" PERFORMER "Kristin Berardi" ISRC AUPC31600030 INDEX 01 00:00:00 TRACK 02 AUDIO TITLE "Just as You Are" PERFORMER "Kristin Berardi" ISRC AUPC31600031 INDEX 00 03:48:67FILE "02 - Just as You Are.wav" WAVE INDEX 01 00:00:00 TRACK 03 AUDIO TITLE "Better Day" PERFORMER "Kristin Berardi" ISRC AUPC31600032 INDEX 00 03:46:35FILE "03 - Better Day.wav" WAVE INDEX 01 00:00:00 TRACK 04 AUDIO TITLE "Embraced I" PERFORMER "Kristin Berardi" ISRC AUPC31600033 INDEX 00 07:21:52FILE "04 - Embraced I.wav" WAVE INDEX 01 00:00:00 TRACK 05 AUDIO TITLE "Just Squeeze Me" PERFORMER "Kristin Berardi" ISRC AUPC31600034 INDEX 00 05:38:65FILE "05 - Just Squeeze Me.wav" WAVE INDEX 01 00:00:00 TRACK 06 AUDIO TITLE "Sara's Sea Song" PERFORMER "Kristin Berardi" ISRC AUPC31600035 INDEX 00 05:05:61FILE "06 - Sara's Sea Song.wav" WAVE INDEX 01 00:00:00 TRACK 07 AUDIO TITLE "Memories of You" PERFORMER "Kristin Berardi" ISRC AUPC31600036 INDEX 00 06:09:19FILE "07 - Memories of You.wav" WAVE INDEX 01 00:00:00 TRACK 08 AUDIO TITLE "Ode to Oli" PERFORMER "Kristin Berardi" ISRC AUPC31600037 INDEX 00 06:39:33FILE "08 - Ode to Oli.wav" WAVE INDEX 01 00:00:00 TRACK 09 AUDIO TITLE "White Flag" PERFORMER "Kristin Berardi" ISRC AUPC31600038 INDEX 00 04:27:29FILE "09 - White Flag.wav" WAVE INDEX 01 00:00:00 TRACK 10 AUDIO TITLE "Mr. Jackson" PERFORMER "Kristin Berardi" ISRC AUPC31600039 INDEX 00 07:42:35FILE "10 - Mr. Jackson.wav" WAVE INDEX 01 00:00:00 TRACK 11 AUDIO TITLE "Body and Soul (live)" PERFORMER "Kristin Berardi" ISRC AUPC31600040 INDEX 00 05:43:57FILE "11 - Body and Soul (live).wav" WAVE INDEX 01 00:00:00

Отчет CUETools

[CUETools log; Date: 12.12.2018 0:38:16; Version: 2.1.6][CTDB TOCID: RkrfIGt.d8BrmQuQctDc_FDx.Vw-] found.Track | CTDB Status 1 | (3/3) Accurately ripped 2 | (3/3) Accurately ripped 3 | (3/3) Accurately ripped 4 | (3/3) Accurately ripped 5 | (3/3) Accurately ripped 6 | (3/3) Accurately ripped 7 | (3/3) Accurately ripped 8 | (3/3) Accurately ripped 9 | (3/3) Accurately ripped 10 | (3/3) Accurately ripped 11 | (3/3) Accurately ripped[AccurateRip ID: 0018855c-00d88bb4-840e960b] found.Track [ CRC | V2 ] Status 01 [cdbc5387|b27d82ba] (0+1/1) Accurately ripped 02 [c7acd789|90f6d8f3] (0+1/1) Accurately ripped 03 [cc2e4b5f|f0acc56e] (0+1/1) Accurately ripped 04 [6c6256ce|85c01f86] (0+1/1) Accurately ripped 05 [76b0eae9|3940e617] (0+1/1) Accurately ripped 06 [29bbff75|8f28081b] (0+1/1) Accurately ripped 07 [57e2b5f7|e39dafd8] (0+1/1) Accurately ripped 08 [0d17f10e|e94e0ed6] (0+1/1) Accurately ripped 09 [f843b0f9|0c44fc34] (0+1/1) Accurately ripped 10 [ac904795|181dfbda] (0+1/1) Accurately ripped 11 [c47bd3a5|4337af8a] (0+1/1) Accurately ripped
Track Peak [ CRC32 ] [W/O NULL] [ LOG ] -- 96,6 [931E66F2] [C66CD60A] 01 96,6 [01FBE4C4] [8A918073] CRC32 02 89,7 [CE2140DD] [E6ACDD95] CRC32 03 90,0 [7006A331] [20509C86] CRC32 04 96,6 [01B3A0DD] [D2C8EFC5] CRC32 05 96,6 [80B34F8C] [E37EFEC7] CRC32 06 96,6 [28F5FDBA] [083D755A] CRC32 07 96,6 [D29B8423] [F6C005D5] CRC32 08 83,4 [657BA8F7] [295D0F64] CRC32 09 96,6 [C48E0E07] [3776D499] CRC32 10 96,6 [18104BB6] [FE0B4858] CRC32 11 77,4 [33DB35C9] [D83A7327] CRC32

Review by John McBeath

A major problem for jazz vocalists is to find new performance material since all of the standard songs with the best music and lyrics have been recorded dozens of times, often by top vocalists.
On this album, the tenth from Brisbane-based, multi award-winning vocalist Kristin Berardi, she has tackled the problem of new material by writing nine of the eleven tracks herself.
An important contribution to the collection is the quality backing quartet from Sydney, led by pianist Greg Coffin, whose accompanying work and improvisations are major features.
One of the non-originals is a swinging rendition of Just Squeeze Me where Coffin’s piano solo plus Berardi’s vocals, including occasional scat phrases, are underpinned by Carl Morgan’s guitar passages and a thriving rhythm established by Brett Hirst’s bass and Tim Firth on drums.
The other standard is the aching ballad Body and Soul, given ultra-slow treatment and a quite moving vocal interpretation recorded live at a concert performance.
The original pieces are mostly about romantic love and break-up; two exceptions are Sara’s Sea Song with a lilting rhythm and mystical story and Mr Jackson, about an aging eccentric encountered in a laundromat.
One of the longer originals at seven and a half minutes, Better Day also has Berardi scatting, and a strong guitar solo, while a brisker tempo drives Memories of You despite its sad tale of a fractured relationship.
In most of its lyric content this album has an overall sad and doleful atmosphere, although the accompaniments are often sprightly. The ambience could have been lightened by a few brighter, more optimistic songs.


[islamvillage.com]_t_5658283.torrent
Торрент: Зарегистрирован ·  [ 2018-12-13 16:36 ] ·  50128aaf3c7c036396c80277bec88310448915a3

16 KB

Статус: проверено
Скачан: 0 раз
Размер: 364 MB
Оценка: 
(Голосов: 0)
Сказали спасибо: 0  Спасибо
Похожие темы
[Профиль]    [ЛС]
Показать сообщения:    
Ответить на тему

Текущее время: Сегодня 06:04

Часовой пояс: GMT + 7



Вы не можете начинать темы
Вы не можете отвечать на сообщения
Вы не можете редактировать свои сообщения
Вы не можете удалять свои сообщения
Вы не можете голосовать в опросах
Вы не можете прикреплять файлы к сообщениям
Вы можете скачивать файлы


Grown-ish | Yesterday, 23:36 | Google Chromecast Ultra 4K Passerelle multimédia