(Vocal Jazz) [CD] Lea DeLaria - Play It Cool - 2001, FLAC (tracks+.cue), lossless

Ответить на тему
Статистика раздачи [Обновить пиров]
Размер:  319 MB   |    Зарегистрирован:  1 месяц 4 дня   |    Скачан:  0 раз

Полного источника не было: Никогда

 
   
 
 
 
Автор Сообщение

islamvillage.com

Создавать темы 13-Дек-2018 16:37

[Цитировать]

Lea DeLaria - Play It Cool
[img=right]http://i107.fastpic.ru/big/2018/1210/6e/98d5375e4f...84c06e.jpg[/img]
Жанр: Vocal Jazz
Носитель: CD
Страна-производитель диска (релиза): США
Год издания: 2001
Издатель (лейбл): Warner Bros. Records
Номер по каталогу: 9 47993-2
Аудиокодек: FLAC (*.flac)
Тип рипа: tracks+.cue
Битрейт аудио: lossless
Продолжительность: 51:18
Источник (релизер): L9
Наличие сканов в содержимом раздачи: нет
Треклист:
01. The Ballad of Sweeney Todd (from "Sweeney Todd") (4:51)
02. Cool (from "West Side Story") (5:23)
03. I've Got Your Number (from "Little Me") (4:52)
04. With Every Breath I Take (from "City of Angels") (3:17)
05. All That Jazz (from "Chicago") (4:11)
06. Life Has Been Good to Me (from "Faust") (5:24)
07. Welcome to My Party (from "The Wild Party") (3:25)
08. Lowdown-Down (from "The Wild Party") (5:52)
09. Once in a Lifetime (from "Stop the World I Want to Get Off") (4:31)
10. Losing My Mind (from "Follies") (5:21)
11. Straight to the Top (from "Franks Wild Years") (4:11)
Состав:
Lea DeLaria - vocals
Seamus Blake - tenor saxophone
Larry Goldings, Brad Mehldau - piano
Gil Goldstein - piano, accordion
Larry Grenadier - bass
Gregory Hutchinson - drums

Лог создания рипа

Exact Audio Copy V1.3 from 2. September 2016
EAC extraction logfile from 8. December 2018, 11:36
Lea DeLaria / Play It Cool
Used drive : ASUS DRW-24B1ST j Adapter: 1 ID: 0
Read mode : SecureUtilize accurate stream : YesDefeat audio cache : YesMake use of C2 pointers : No
Read offset correction : 6Overread into Lead-In and Lead-Out : NoFill up missing offset samples with silence : YesDelete leading and trailing silent blocks : NoNull samples used in CRC calculations : YesUsed interface : Native Win32 interface for Win NT & 2000Gap handling : Appended to previous track
Used output format : User Defined EncoderSelected bitrate : 1024 kBit/sQuality : HighAdd ID3 tag : NoCommand line compressor : C:\Program Files\Exact Audio Copy\Flac\flac.exeAdditional command line options : -8 -V -T "artist=%artist%" -T "title=%title%" -T "album=%albumtitle%" -T "date=%year%" -T "tracknumber=%tracknr%" -T "genre=%genre%" %source%
TOC of the extracted CD
Track | Start | Length | Start sector | End sector --------------------------------------------------------- 1 | 0:00.32 | 4:51.30 | 32 | 21886 2 | 4:51.62 | 5:23.10 | 21887 | 46121 3 | 10:14.72 | 4:51.65 | 46122 | 68011 4 | 15:06.62 | 3:17.18 | 68012 | 82804 5 | 18:24.05 | 4:11.32 | 82805 | 101661 6 | 22:35.37 | 5:23.70 | 101662 | 125956 7 | 27:59.32 | 3:24.73 | 125957 | 141329 8 | 31:24.30 | 5:51.72 | 141330 | 167726 9 | 37:16.27 | 4:31.28 | 167727 | 188079 10 | 41:47.55 | 5:20.72 | 188080 | 212151 11 | 47:08.52 | 4:11.18 | 212152 | 230994
Track 1
Filename C:\EAC rips\Lea DeLaria - Play It Cool (2001) [FLAC]\ 01 - The Ballad Of Sweeney Todd.wav
Pre-gap length 0:00:02.32
Peak level 99.8 % Extraction speed 3.6 X Track quality 100.0 % Test CRC DD378FB6 Copy CRC DD378FB6 Accurately ripped (confidence 11) [CEB33419] (AR v2) Copy OK
Track 2
Filename C:\EAC rips\Lea DeLaria - Play It Cool (2001) [FLAC]\ 02 - Cool.wav
Peak level 99.8 % Extraction speed 4.1 X Track quality 100.0 % Test CRC EF0E5B7F Copy CRC EF0E5B7F Accurately ripped (confidence 11) [35CE313F] (AR v2) Copy OK
Track 3
Filename C:\EAC rips\Lea DeLaria - Play It Cool (2001) [FLAC]\ 03 - I've Got Your Number.wav
Peak level 94.7 % Extraction speed 4.5 X Track quality 100.0 % Test CRC 506C9529 Copy CRC 506C9529 Accurately ripped (confidence 11) [CEEE2E0B] (AR v2) Copy OK
Track 4
Filename C:\EAC rips\Lea DeLaria - Play It Cool (2001) [FLAC]\ 04 - With Every Breath I Take.wav
Pre-gap length 0:00:01.55
Peak level 89.2 % Extraction speed 4.6 X Track quality 100.0 % Test CRC 35C6DBFA Copy CRC 35C6DBFA Accurately ripped (confidence 10) [3338BEE5] (AR v2) Copy OK
Track 5
Filename C:\EAC rips\Lea DeLaria - Play It Cool (2001) [FLAC]\ 05 - All That Jazz.wav
Pre-gap length 0:00:01.33
Peak level 99.8 % Extraction speed 5.0 X Track quality 100.0 % Test CRC 3A9DDCC5 Copy CRC 3A9DDCC5 Accurately ripped (confidence 11) [B65A601F] (AR v2) Copy OK
Track 6
Filename C:\EAC rips\Lea DeLaria - Play It Cool (2001) [FLAC]\ 06 - Life Has Been Good To Me.wav
Pre-gap length 0:00:01.20
Peak level 98.4 % Extraction speed 5.5 X Track quality 100.0 % Test CRC 2516DBEA Copy CRC 2516DBEA Accurately ripped (confidence 11) [E2AC3849] (AR v2) Copy OK
Track 7
Filename C:\EAC rips\Lea DeLaria - Play It Cool (2001) [FLAC]\ 07 - Welcome To My Party.wav
Peak level 93.6 % Extraction speed 5.5 X Track quality 100.0 % Test CRC E2EE6F41 Copy CRC E2EE6F41 Accurately ripped (confidence 11) [23FB8A03] (AR v2) Copy OK
Track 8
Filename C:\EAC rips\Lea DeLaria - Play It Cool (2001) [FLAC]\ 08 - Lowdown-Down.wav
Peak level 99.8 % Extraction speed 6.1 X Track quality 100.0 % Test CRC 6EEEBE0A Copy CRC 6EEEBE0A Accurately ripped (confidence 11) [19E845AA] (AR v2) Copy OK
Track 9
Filename C:\EAC rips\Lea DeLaria - Play It Cool (2001) [FLAC]\ 09 - Once In A Lifetime.wav
Pre-gap length 0:00:02.05
Peak level 99.8 % Extraction speed 6.3 X Track quality 100.0 % Test CRC DCB83BBB Copy CRC DCB83BBB Accurately ripped (confidence 11) [3C6A23FE] (AR v2) Copy OK
Track 10
Filename C:\EAC rips\Lea DeLaria - Play It Cool (2001) [FLAC]\ 10 - Losing My Mind.wav
Pre-gap length 0:00:01.08
Peak level 86.9 % Extraction speed 6.6 X Track quality 100.0 % Test CRC BDE32FF7 Copy CRC BDE32FF7 Accurately ripped (confidence 11) [D19BAA0D] (AR v2) Copy OK
Track 11
Filename C:\EAC rips\Lea DeLaria - Play It Cool (2001) [FLAC]\ 11 - Straight To The Top.wav
Pre-gap length 0:00:01.15
Peak level 99.8 % Extraction speed 6.7 X Track quality 100.0 % Test CRC 7B452E43 Copy CRC 7B452E43 Accurately ripped (confidence 11) [B34B3BE8] (AR v2) Copy OK
All tracks accurately ripped
No errors occurred
End of status report
---- CUETools DB Plugin V2.1.6
[CTDB TOCID: 5mHOOR1y8aFv4gFdpxwxuNU.gpo-] foundSubmit result: 5mHOOR1y8aFv4gFdpxwxuNU.gpo- has been confirmedTrack | CTDB Status 1 | (5/5) Accurately ripped 2 | (5/5) Accurately ripped 3 | (5/5) Accurately ripped 4 | (5/5) Accurately ripped 5 | (5/5) Accurately ripped 6 | (5/5) Accurately ripped 7 | (5/5) Accurately ripped 8 | (5/5) Accurately ripped 9 | (5/5) Accurately ripped 10 | (5/5) Accurately ripped 11 | (5/5) Accurately ripped
==== Log checksum 179A6ABA3537417F7E4A2C1FEF44924E6873B2D5D98422B50029B3336525C339 ====

Содержание индексной карты (.CUE)

REM GENRE JazzREM DATE 2001REM DISCID 990C070BREM COMMENT "ExactAudioCopy v1.3"PERFORMER "Lea DeLaria"TITLE "Play It Cool"FILE "01 - The Ballad of Sweeney Todd (from 'Sweeney Todd').wav" WAVE TRACK 01 AUDIO TITLE "The Ballad of Sweeney Todd (from 'Sweeney Todd')" PERFORMER "Lea DeLaria" PREGAP 00:00:32 INDEX 01 00:00:00FILE "02 - Cool (from 'West Side Story').wav" WAVE TRACK 02 AUDIO TITLE "Cool (from 'West Side Story')" PERFORMER "Lea DeLaria" INDEX 01 00:00:00FILE "03 - I've Got Your Number (from 'Little Me').wav" WAVE TRACK 03 AUDIO TITLE "I've Got Your Number (from 'Little Me')" PERFORMER "Lea DeLaria" INDEX 01 00:00:00 TRACK 04 AUDIO TITLE "With Every Breath I Take (from 'City of Angels')" PERFORMER "Lea DeLaria" INDEX 00 04:50:10FILE "04 - With Every Breath I Take (from 'City of Angels').wav" WAVE INDEX 01 00:00:00 TRACK 05 AUDIO TITLE "All That Jazz (from 'Chicago')" PERFORMER "Lea DeLaria" INDEX 00 03:15:60FILE "05 - All That Jazz (from 'Chicago').wav" WAVE INDEX 01 00:00:00 TRACK 06 AUDIO TITLE "Life Has Been Good to Me (from 'Faust')" PERFORMER "Lea DeLaria" INDEX 00 04:10:12FILE "06 - Life Has Been Good to Me (from 'Faust').wav" WAVE INDEX 01 00:00:00FILE "07 - Welcome to My Party (from 'The Wild Party').wav" WAVE TRACK 07 AUDIO TITLE "Welcome to My Party (from 'The Wild Party')" PERFORMER "Lea DeLaria" INDEX 01 00:00:00FILE "08 - Lowdown-Down (from 'The Wild Party').wav" WAVE TRACK 08 AUDIO TITLE "Lowdown-Down (from 'The Wild Party')" PERFORMER "Lea DeLaria" INDEX 01 00:00:00 TRACK 09 AUDIO TITLE "Once in a Lifetime (from 'Stop the World I Want to Get Off')" PERFORMER "Lea DeLaria" INDEX 00 05:49:67FILE "09 - Once in a Lifetime (from 'Stop the World I Want to Get Off').wav" WAVE INDEX 01 00:00:00 TRACK 10 AUDIO TITLE "Losing My Mind (from 'Follies')" PERFORMER "Lea DeLaria" INDEX 00 04:30:20FILE "10 - Losing My Mind (from 'Follies').wav" WAVE INDEX 01 00:00:00 TRACK 11 AUDIO TITLE "Straight to the Top (from 'Franks Wild Years')" PERFORMER "Lea DeLaria" INDEX 00 05:19:57FILE "11 - Straight to the Top (from 'Franks Wild Years').wav" WAVE INDEX 01 00:00:00

Отчет CUETools

[CUETools log; Date: 10.12.2018 1:58:25; Version: 2.1.6]Pregap length 00:00:32.[CTDB TOCID: 5mHOOR1y8aFv4gFdpxwxuNU.gpo-] found.Track | CTDB Status 1 | (6/6) Accurately ripped 2 | (6/6) Accurately ripped 3 | (6/6) Accurately ripped 4 | (6/6) Accurately ripped 5 | (6/6) Accurately ripped 6 | (6/6) Accurately ripped 7 | (6/6) Accurately ripped 8 | (6/6) Accurately ripped 9 | (6/6) Accurately ripped 10 | (6/6) Accurately ripped 11 | (6/6) Accurately ripped[AccurateRip ID: 00152909-00b6e64f-990c070b] found.Track [ CRC | V2 ] Status 01 [f54e6ad1|ceb33419] (05+11/16) Accurately ripped 02 [6ce0d656|35ce313f] (05+11/16) Accurately ripped 03 [bb3f6aa7|ceee2e0b] (04+11/15) Accurately ripped 04 [41eb572a|3338bee5] (04+10/14) Accurately ripped 05 [fd04b48b|b65a601f] (04+11/15) Accurately ripped 06 [400357c6|e2ac3849] (05+11/16) Accurately ripped 07 [e2852db7|23fb8a03] (05+11/16) Accurately ripped 08 [7baeb87a|19e845aa] (04+11/15) Accurately ripped 09 [b119b019|3c6a23fe] (04+11/15) Accurately ripped 10 [cd1b3281|d19baa0d] (04+11/15) Accurately ripped 11 [208cf263|b34b3be8] (05+11/16) Accurately ripped
Track Peak [ CRC32 ] [W/O NULL] [ LOG ] -- 99,8 [B19A820C] [242FEB55] 01 99,8 [DD378FB6] [3C2E3ADA] CRC32 02 99,8 [EF0E5B7F] [B638594E] CRC32 03 94,7 [506C9529] [DE205D11] CRC32 04 89,2 [35C6DBFA] [DCB3BDE8] CRC32 05 99,8 [3A9DDCC5] [6E6A68B3] CRC32 06 98,4 [2516DBEA] [080AFEF3] CRC32 07 93,6 [E2EE6F41] [9ADFC778] CRC32 08 99,8 [6EEEBE0A] [B8B7BCD0] CRC32 09 99,8 [DCB83BBB] [79A9F112] CRC32 10 86,9 [BDE32FF7] [17BB087E] CRC32 11 99,8 [7B452E43] [2C57B08C] CRC32

AllMusic Review by Paula Edelstein

On Play It Cool, her debut CD for Warner Bros. Records, vocalist Lea DeLaria reinterprets 11 compositions from contemporary musical theater, including "Cool" from West Side Story, "The Ballad of Sweeney Todd" from Sweeney Todd, and "All That Jazz" from Chicago. Her vocal instrument is both complementary and unique in its interpretations of the lyrics, and covers a broad range of musical theater, both comedy and drama. This is not an easy task. DeLaria utilizes several vocal techniques to bring each song to life, including scatting, elongated phrasing, swing, and balladeering. She also makes excellent use of the basic skills of music theory: harmony, rhythm, and melody. Among the more memorable highlights on the CD is her great phrasing and delivery on "Lowdown-Down" from The Wild Party. Her vocals provide an excellent foil for the saxophone voices of Seamus Blake, Roger Rosenberg, Vincent Herring, and Scott Robinson, who play tenor, baritone, alto, and bass, respectively. Her up-tempo swinging rendition of "Once in a Lifetime" is a refreshing change from the overly used ballad approach of the Leslie Bricusse/Anthony Newley hit from Stop the World, I Want to Get Off. She's doing great things on this CD, and it is one any collector of Broadway show tunes would appreciate having in his or her collection.


[islamvillage.com]_t_5657364.torrent
Торрент: Зарегистрирован ·  [ 2018-12-13 16:36 ] ·  5b69eeaf01b27d581e0e283d9f31c4b0003b71b8

14 KB

Статус: проверено
Скачан: 0 раз
Размер: 319 MB
Оценка: 
(Голосов: 0)
Сказали спасибо: 0  Спасибо
Похожие темы
[Профиль]    [ЛС]
Показать сообщения:    
Ответить на тему

Текущее время: Сегодня 06:49

Часовой пояс: GMT + 7



Вы не можете начинать темы
Вы не можете отвечать на сообщения
Вы не можете редактировать свои сообщения
Вы не можете удалять свои сообщения
Вы не можете голосовать в опросах
Вы не можете прикреплять файлы к сообщениям
Вы можете скачивать файлы


einsteinbd | Gunslinger Girl (1) | Yes, Yes Y'All (feat. Black Thought, Chali 2na, Debi Nova & Will.i.am)