(Vocal Jazz, Classical) [CD] Bobby McFerrin - Mouth Music - 2001, FLAC (tracks+.cue), lossless

Ответить на тему
Статистика раздачи [Обновить пиров]
Размер:  191 MB   |    Зарегистрирован:  1 месяц 4 дня   |    Скачан:  0 раз

Полного источника не было: Никогда

 
   
 
 
 
Автор Сообщение

islamvillage.com

Создавать темы 13-Дек-2018 16:37

[Цитировать]

Bobby McFerrin - Mouth Music
[img=right]http://i108.fastpic.ru/big/2018/1210/86/541cba32d0...af8c86.jpg[/img]
Жанр: Vocal Jazz, Classical
Носитель: CD
Страна-производитель диска (релиза): США
Год издания: 2001
Издатель (лейбл): Sony Music Special Products
Номер по каталогу: A 50304
Аудиокодек: FLAC (*.flac)
Тип рипа: tracks+.cue
Битрейт аудио: lossless
Продолжительность: 41:15
Источник (релизер): catfish27
Наличие сканов в содержимом раздачи: нет
Треклист:
01. Overture to "The Marriage of Figaro" K.492 (Mozart) - 4:19
02. 'Round Midnight (Monk-Williams-Hanighen) - 5:36
03. Song for Amadeus (Improvisation on Mozart's Sonata No.2 in F Major, K.280/189e: II. Adagio) (Mozart) - 2:31
04. Pavane, Op.50 (Faure) - 5:25
05. Minuet from String Quintet No.1 in E Major, Op.13 No.5, G.275 (Boccherini) - 3:43
06. Circlesong 1 (McFerrin) - 6:10
07. Circlesong 2 (McFerrin) - 4:14
08. Hush Little Baby (Trad.) - 2:34
09. Flight of the Bumblebee from "The Legend of Tsar Saltan" (Rimsky-Korsakov) - 1:09
10. Hoedown! (McFerrin) - 5:34

Лог создания рипа

X Lossless Decoder version 20181019 (151.1)
XLD extraction logfile from 2018-12-06 22:19:58 -0800
Bobby McFerrin / Mouth Music
Used drive : PIONEER BD-RW BDR-XD05 (revision 3.10)Media type : Pressed CD
Ripper mode : XLD Secure RipperDisable audio cache : OK for the drive with a cache less than 1375KiBMake use of C2 pointers : NORead offset correction : 667Max retry count : 100Gap status : Analyzed, Appended (except HTOA)
TOC of the extracted CD Track | Start | Length | Start sector | End sector --------------------------------------------------------- 1 | 00:00:00 | 04:19:35 | 0 | 19459 2 | 04:19:35 | 05:36:22 | 19460 | 44681 3 | 09:55:57 | 02:31:35 | 44682 | 56041 4 | 12:27:17 | 05:24:50 | 56042 | 80391 5 | 17:51:67 | 03:42:45 | 80392 | 97086 6 | 21:34:37 | 06:10:18 | 97087 | 124854 7 | 27:44:55 | 04:14:10 | 124855 | 143914 8 | 31:58:65 | 02:34:05 | 143915 | 155469 9 | 34:32:70 | 01:08:47 | 155470 | 160616 10 | 35:41:42 | 05:34:33 | 160617 | 185699
AccurateRip Summary (DiscID: 00104cbc-0081036e-8709ac0a) Track 01 : OK (v2, confidence 1/2) Track 02 : OK (v2, confidence 1/2) Track 03 : OK (v2, confidence 1/2) Track 04 : OK (v2, confidence 1/2) Track 05 : OK (v2, confidence 1/2) Track 06 : OK (v2, confidence 1/2) Track 07 : OK (v2, confidence 1/2) Track 08 : OK (v2, confidence 1/2) Track 09 : OK (v2, confidence 1/2) Track 10 : OK (v2, confidence 1/2) ->All tracks accurately ripped.
All Tracks Album gain : 2.07 dB Peak : 0.999969 Statistics Read error : 0 Jitter error (maybe fixed) : 0 Retry sector count : 0 Damaged sector count : 0
Track 01 Filename : /Volumes/Hollywood and Vine/Rips/Bobby McFerrin - Mouth Music (2001) [FLAC]/01 The Marriage of Figaro K492 - Overture.flac Pre-gap length : 00:02:00
Track gain : -0.54 dB Peak : 0.988861 CRC32 hash (test run) : 168308FB CRC32 hash : 168308FB CRC32 hash (skip zero) : 9215FF71 AccurateRip v1 signature : 3560D0C5 AccurateRip v2 signature : 23983C9F ->Accurately ripped (v2, confidence 1/2) Statistics Read error : 0 Jitter error (maybe fixed) : 0 Retry sector count : 0 Damaged sector count : 0
Track 02 Filename : /Volumes/Hollywood and Vine/Rips/Bobby McFerrin - Mouth Music (2001) [FLAC]/02 'Round Midnight.flac Pre-gap length : 00:03:00
Track gain : 2.55 dB Peak : 0.999969 CRC32 hash (test run) : 465F98D4 CRC32 hash : 465F98D4 CRC32 hash (skip zero) : A9ED1634 AccurateRip v1 signature : 902FA5B4 AccurateRip v2 signature : 4D937782 ->Accurately ripped (v2, confidence 1/2) Statistics Read error : 0 Jitter error (maybe fixed) : 0 Retry sector count : 0 Damaged sector count : 0
Track 03 Filename : /Volumes/Hollywood and Vine/Rips/Bobby McFerrin - Mouth Music (2001) [FLAC]/03 Song for Amadeus (Improvisation on Sonata nВ°2 in F Major, K280-189e - II. Adagio).flac Pre-gap length : 00:02:12
Track gain : 7.91 dB Peak : 0.370636 CRC32 hash (test run) : 48EA7E6E CRC32 hash : 48EA7E6E CRC32 hash (skip zero) : F7B3AD41 AccurateRip v1 signature : DDCB451A AccurateRip v2 signature : C50192F4 ->Accurately ripped (v2, confidence 1/2) Statistics Read error : 0 Jitter error (maybe fixed) : 0 Retry sector count : 0 Damaged sector count : 0
Track 04 Filename : /Volumes/Hollywood and Vine/Rips/Bobby McFerrin - Mouth Music (2001) [FLAC]/04 Pavane, Op. 50.flac Pre-gap length : 00:02:60
Track gain : 3.66 dB Peak : 0.863037 CRC32 hash (test run) : 7C87E27B CRC32 hash : 7C87E27B CRC32 hash (skip zero) : 419A5FF3 AccurateRip v1 signature : BC33EC52 AccurateRip v2 signature : 0393F1C4 ->Accurately ripped (v2, confidence 1/2) Statistics Read error : 0 Jitter error (maybe fixed) : 0 Retry sector count : 0 Damaged sector count : 0
Track 05 Filename : /Volumes/Hollywood and Vine/Rips/Bobby McFerrin - Mouth Music (2001) [FLAC]/05 String Quartet nВ°1 in E Major, Op. 13 nВ°5, G275 - Minuet.flac Pre-gap length : 00:03:35
Track gain : 5.70 dB Peak : 0.421448 CRC32 hash (test run) : C807BA9F CRC32 hash : C807BA9F CRC32 hash (skip zero) : 4E1F4EFD AccurateRip v1 signature : 3C15821D AccurateRip v2 signature : C4788ADC ->Accurately ripped (v2, confidence 1/2) Statistics Read error : 0 Jitter error (maybe fixed) : 0 Retry sector count : 0 Damaged sector count : 0
Track 06 Filename : /Volumes/Hollywood and Vine/Rips/Bobby McFerrin - Mouth Music (2001) [FLAC]/06 Circlesong 1.flac Pre-gap length : 00:03:47
Track gain : -0.04 dB Peak : 0.501190 CRC32 hash (test run) : 92F32FC0 CRC32 hash : 92F32FC0 CRC32 hash (skip zero) : 6B2007A5 AccurateRip v1 signature : 580D5936 AccurateRip v2 signature : DFC5C712 ->Accurately ripped (v2, confidence 1/2) Statistics Read error : 0 Jitter error (maybe fixed) : 0 Retry sector count : 0 Damaged sector count : 0
Track 07 Filename : /Volumes/Hollywood and Vine/Rips/Bobby McFerrin - Mouth Music (2001) [FLAC]/07 Circlesong 2.flac Pre-gap length : 00:01:60
Track gain : 1.45 dB Peak : 0.501190 CRC32 hash (test run) : 767E6A75 CRC32 hash : 767E6A75 CRC32 hash (skip zero) : 196C3179 AccurateRip v1 signature : 9A1C4D1B AccurateRip v2 signature : BC6983F1 ->Accurately ripped (v2, confidence 1/2) Statistics Read error : 0 Jitter error (maybe fixed) : 0 Retry sector count : 0 Damaged sector count : 0
Track 08 Filename : /Volumes/Hollywood and Vine/Rips/Bobby McFerrin - Mouth Music (2001) [FLAC]/08 Hush Little Baby.flac Pre-gap length : 00:03:38
Track gain : 1.95 dB Peak : 0.968536 CRC32 hash (test run) : 813EBE2A CRC32 hash : 813EBE2A CRC32 hash (skip zero) : BE83DCC0 AccurateRip v1 signature : F48F4868 AccurateRip v2 signature : FF93D889 ->Accurately ripped (v2, confidence 1/2) Statistics Read error : 0 Jitter error (maybe fixed) : 0 Retry sector count : 0 Damaged sector count : 0
Track 09 Filename : /Volumes/Hollywood and Vine/Rips/Bobby McFerrin - Mouth Music (2001) [FLAC]/09 The Legend of Tsar Saltan - Flight of the Bumblebee.flac Pre-gap length : 00:00:68
Track gain : 3.00 dB Peak : 0.596863 CRC32 hash (test run) : 62404A50 CRC32 hash : 62404A50 CRC32 hash (skip zero) : 988D69B3 AccurateRip v1 signature : EBBA7D0B AccurateRip v2 signature : 2CDD3923 ->Accurately ripped (v2, confidence 1/2) Statistics Read error : 0 Jitter error (maybe fixed) : 0 Retry sector count : 0 Damaged sector count : 0
Track 10 Filename : /Volumes/Hollywood and Vine/Rips/Bobby McFerrin - Mouth Music (2001) [FLAC]/10 Hoedown!.flac Pre-gap length : 00:03:00
Track gain : 4.16 dB Peak : 0.977264 CRC32 hash (test run) : 78025846 CRC32 hash : 78025846 CRC32 hash (skip zero) : 48DFA867 AccurateRip v1 signature : AC3997B2 AccurateRip v2 signature : BECBAB04 ->Accurately ripped (v2, confidence 1/2) Statistics Read error : 0 Jitter error (maybe fixed) : 0 Retry sector count : 0 Damaged sector count : 0
No errors occurred
End of status report
-----BEGIN XLD SIGNATURE-----imrE7dwqsZycgB0v.s_Sfs2N0lZ0AuEMxIYOCkAR6GrKZ8UGrNlTGhzjhdSkCNqpuaTyE0rO2Waza2GfM8ihgHxnmYEya188JC8S2BG-----END XLD SIGNATURE-----

Содержание индексной карты (.CUE)

TITLE "Mouth Music"PERFORMER "Bobby McFerrin"REM GENRE "Jazz"REM DATE "2001"REM DISCID 8709AC0AREM REPLAYGAIN_ALBUM_GAIN 2.07 dBREM REPLAYGAIN_ALBUM_PEAK 0.999969FILE "01 - Overture to 'The Marriage of Figaro' K.492.flac" WAVE TRACK 01 AUDIO TITLE "Overture to 'The Marriage of Figaro' K.492" ISRC USSM19504158 REM REPLAYGAIN_TRACK_GAIN -0.54 dB REM REPLAYGAIN_TRACK_PEAK 0.988861 INDEX 01 00:00:00 TRACK 02 AUDIO TITLE "'Round Midnight" ISRC USSM19921783 REM REPLAYGAIN_TRACK_GAIN 2.55 dB REM REPLAYGAIN_TRACK_PEAK 0.999969 INDEX 00 04:16:35FILE "02 - 'Round Midnight.flac" WAVE INDEX 01 00:00:00 TRACK 03 AUDIO TITLE "Song for Amadeus (Improvisation on Mozart's Sonata No.2 in F Major, K.280/189e: II. Adagio)" ISRC USSM19605937 REM REPLAYGAIN_TRACK_GAIN 7.91 dB REM REPLAYGAIN_TRACK_PEAK 0.370636 INDEX 00 05:34:10FILE "03 - Song for Amadeus (Improvisation on Mozart's Sonata No.2 in F Major, K.280-189e- II. Adagio).flac" WAVE INDEX 01 00:00:00 TRACK 04 AUDIO TITLE "Pavane, Op.50" ISRC USSM19504146 REM REPLAYGAIN_TRACK_GAIN 3.66 dB REM REPLAYGAIN_TRACK_PEAK 0.863037 INDEX 00 02:28:50FILE "04 - Pavane, Op.50.flac" WAVE INDEX 01 00:00:00 TRACK 05 AUDIO TITLE "Minuet from String Quintet No.1 in E Major, Op.13 No.5, G.275" ISRC USSM19504145 REM REPLAYGAIN_TRACK_GAIN 5.70 dB REM REPLAYGAIN_TRACK_PEAK 0.421448 INDEX 00 05:21:15FILE "05 - Minuet from String Quintet No.1 in E Major, Op.13 No.5, G.275.flac" WAVE INDEX 01 00:00:00 TRACK 06 AUDIO TITLE "Circlesong 1" ISRC USSM19604410 REM REPLAYGAIN_TRACK_GAIN -0.04 dB REM REPLAYGAIN_TRACK_PEAK 0.501190 INDEX 00 03:38:73FILE "06 - Circlesong 1.flac" WAVE INDEX 01 00:00:00 TRACK 07 AUDIO TITLE "Circlesong 2" ISRC USSM19604411 REM REPLAYGAIN_TRACK_GAIN 1.45 dB REM REPLAYGAIN_TRACK_PEAK 0.501190 INDEX 00 06:08:33FILE "07 - Circlesong 2.flac" WAVE INDEX 01 00:00:00 TRACK 08 AUDIO TITLE "Hush Little Baby" ISRC USSM10014162 REM REPLAYGAIN_TRACK_GAIN 1.95 dB REM REPLAYGAIN_TRACK_PEAK 0.968536 INDEX 00 04:10:47FILE "08 - Hush Little Baby.flac" WAVE INDEX 01 00:00:00 TRACK 09 AUDIO TITLE "Flight of the Bumblebee from 'The Legend of Tsar Saltan'" ISRC USSM10014160 REM REPLAYGAIN_TRACK_GAIN 3.00 dB REM REPLAYGAIN_TRACK_PEAK 0.596863 INDEX 00 02:33:12FILE "09 - Flight of the Bumblebee from 'The Legend of Tsar Saltan'.flac" WAVE INDEX 01 00:00:00 TRACK 10 AUDIO TITLE "Hoedown!" ISRC USSM10014168 REM REPLAYGAIN_TRACK_GAIN 4.16 dB REM REPLAYGAIN_TRACK_PEAK 0.977264 INDEX 00 01:05:47FILE "10 - Hoedown!.flac" WAVE INDEX 01 00:00:00

Отчет CUETools

[CUETools log; Date: 10.12.2018 1:39:05; Version: 2.1.6][CTDB TOCID: u2PXzi7VK7Lpn1RIWsJZaTD019Y-] found.Track | CTDB Status 1 | (3/3) Accurately ripped 2 | (3/3) Accurately ripped 3 | (2/3) Accurately ripped, or (1/3) differs in 219 samples @00:14:62,00:20:68-00:20:69,00:21:43,00:21:67-00:21:68,00:22:05,00:54:50-00:54:51,01:00:25 4 | (3/3) Accurately ripped 5 | (3/3) Accurately ripped 6 | (3/3) Accurately ripped 7 | (3/3) Accurately ripped 8 | (3/3) Accurately ripped 9 | (3/3) Accurately ripped 10 | (3/3) Accurately ripped[AccurateRip ID: 00104cbc-0081036e-8709ac0a] found.Track [ CRC | V2 ] Status 01 [3560d0c5|23983c9f] (0+1/2) Accurately ripped 02 [902fa5b4|4d937782] (0+1/2) Accurately ripped 03 [ddcb451a|c50192f4] (0+1/2) Accurately ripped 04 [bc33ec52|0393f1c4] (0+1/2) Accurately ripped 05 [3c15821d|c4788adc] (0+1/2) Accurately ripped 06 [580d5936|dfc5c712] (0+1/2) Accurately ripped 07 [9a1c4d1b|bc6983f1] (0+1/2) Accurately ripped 08 [f48f4868|ff93d889] (0+1/2) Accurately ripped 09 [ebba7d0b|2cdd3923] (0+1/2) Accurately ripped 10 [ac3997b2|becbab04] (0+1/2) Accurately ripped
Track Peak [ CRC32 ] [W/O NULL] -- 99,9 [EA43E9F1] [69A8AC1D] 01 98,8 [168308FB] [9215FF71] 02 99,9 [465F98D4] [A9ED1634] 03 37,0 [48EA7E6E] [F7B3AD41] 04 86,3 [7C87E27B] [419A5FF3] 05 42,1 [C807BA9F] [4E1F4EFD] 06 50,1 [92F32FC0] [6B2007A5] 07 50,1 [767E6A75] [196C3179] 08 96,8 [813EBE2A] [BE83DCC0] 09 59,6 [62404A50] [988D69B3] 10 97,7 [78025846] [48DFA867]

Об альбоме (сборнике)

"Mouth Music" has a photo of a smiling McFerrin, thinly-wrapped dreadlocks hanging down, in an incongruous white tie and tux; and the first cut is Overture to "The Marriage of Figaro" by the St. Paul Chamber Orchestra-conducted by Bobby McFerrin. The 2nd cut is the jazz standard "'Round Midnight," with Bobby's smoky, faux-trumpet solo lead, Herbie Hancock on piano, Ron Carter on bass and Tony Williams on drums. Next is "Song for Amadeus," Bobby's improvisation on Mozart's Sonata No.2 in F Major," with Chick Corea on piano. The 4th and 5th cuts are "Pavane, Op. 50" and "Minuet" from String Quintet No. 1 in E Major, Op. 13, with Bobby conducting the Chamber Orchestra and providing soaring, joyful vocals, especially on "Minuet." The wonderful, rhythmic a cappella "Circlesong 1" and "Circlesong 2" are followed by a sublime "Hush Little Baby," "Flight of the Bumblebee" and the surprising "Hoedown," with Bobby's freeform vocals accompanied by Yo-Yo Ma. When we have a tendency to think that singers and other musicians aren't really so special, a CD like "Mouth Music" will show us exactly how extraordinary they can be. A beautiful CD from Master Bobby and his talented guests!


[islamvillage.com]_t_5657357.torrent
Торрент: Зарегистрирован ·  [ 2018-12-13 16:36 ] ·  57f53a8180ba0a3fa9dacb082175a27cef9f6b5c

16 KB

Статус: проверено
Скачан: 0 раз
Размер: 191 MB
Оценка: 
(Голосов: 0)
Сказали спасибо: 0  Спасибо
Похожие темы
[Профиль]    [ЛС]
Показать сообщения:    
Ответить на тему

Текущее время: Сегодня 06:19

Часовой пояс: GMT + 7



Вы не можете начинать темы
Вы не можете отвечать на сообщения
Вы не можете редактировать свои сообщения
Вы не можете удалять свои сообщения
Вы не можете голосовать в опросах
Вы не можете прикреплять файлы к сообщениям
Вы можете скачивать файлы


Business Management of Owning a Construction Company | Benziner Motor-Steuerbox Chip-Tuning-Box, mehr Leistung BMW e46 318i | Anthony Padilla