(Punk Rock) [CD, WEB] Brutto - Дискография (2014-17) (3 альбома, 2 CD | 1 WEB), ALAC (tracks+.cue), lossless

Ответить на тему
Статистика раздачи [Обновить пиров]
Размер:  1.02 GB   |    Зарегистрирован:  1 месяц 19 дней   |    Скачан:  0 раз

Полного источника не было: Никогда

 
   
 
 
 
Автор Сообщение

islamvillage.com

Создавать темы 02-Янв-2019 14:53

[Цитировать]

Brutto / Дискография
Жанр: Rock
Носитель: CD, WEB
Страна-производитель диска: Україна
Год издания: 2014-2015
Страна исполнителя (группы): Беларусь / Україна
Аудио кодек: ALAC (*.m4a)
Тип рипа: tracks+.cue
Программа-конвертер: CueTools
Битрейт аудио: lossless
Продолжительность: 01:00:40 + 00:39:55 + 00:40:39
Наличие сканов в содержимом раздачи: да
Тексты: вшиты

2014. Underdog

Источник
Треклист:
1. Brutto
2. Underdog
3. Гири
4. Наша Возьме
5. Веселей
6. Мяч
7. I Get Wet
8. Гарэза
9. Регби
10. The Chauffeur
11. Дворняги
12. Труд
13. Воины Света (bonus track)
14. Железный (bonus track)
15. Адидас (bonus track)
16. Kapital (bonus track)
17. Священный Огонь (bonus track)
18. Гарри (bonus track)
19. Будзь Смелым (bonus track)

Лог создания рипа

Exact Audio Copy V1.0 beta 5 from 2. April 2015
Отчёт EAC об извлечении, выполненном 4. мая 2015, 22:06
BRUTTO / Underdog
Дисковод: ASUS DRW-24B3LT Adapter: 1 ID: 0
Режим чтения : ДостоверностьИспользование точного потока : ДаОтключение кэша аудио : ДаИспользование указателей C2 : Нет
Коррекция смещения при чтении : 6Способность читать области Lead-in и Lead-out : НетЗаполнение пропущенных сэмплов тишиной : ДаУдаление блоков с тишиной в начале и конце : НетПри вычислениях CRC использовались нулевые сэмплы : ДаИнтерфейс : Встроенный Win32-интерфейс для Win NT/2000
Выходной формат : Пользовательский кодировщикВыбранный битрейт : 1024 kBit/sКачество : ВысокийДобавление ID3-тега : НетУтилита сжатия : C:\Program Files (x86)\Exact Audio Copy\Flac\flac.exeДополнительные параметры : -V -8 -T "Date=%year%" -T "Genre=%genre%" %source%
TOC извлечённого CD
Трек | Старт | Длительность | Начальный сектор | Конечный сектор --------------------------------------------------------------------- 1 | 0:00.00 | 3:59.69 | 0 | 17993 2 | 3:59.69 | 2:31.65 | 17994 | 29383 3 | 6:31.59 | 2:23.51 | 29384 | 40159 4 | 8:55.35 | 1:52.46 | 40160 | 48605 5 | 10:48.06 | 1:53.46 | 48606 | 57126 6 | 12:41.52 | 3:15.26 | 57127 | 71777 7 | 15:57.03 | 4:49.16 | 71778 | 93468 8 | 20:46.19 | 2:53.55 | 93469 | 106498 9 | 23:39.74 | 2:06.72 | 106499 | 116020 10 | 25:46.71 | 3:48.16 | 116021 | 133136 11 | 29:35.12 | 3:22.01 | 133137 | 148287 12 | 32:57.13 | 3:23.53 | 148288 | 163565 13 | 36:20.66 | 4:35.65 | 163566 | 184255 14 | 40:56.56 | 3:37.09 | 184256 | 200539 15 | 44:33.65 | 2:48.22 | 200540 | 213161 16 | 47:22.12 | 3:50.62 | 213162 | 230473 17 | 51:12.74 | 2:22.30 | 230474 | 241153 18 | 53:35.29 | 3:58.38 | 241154 | 259041 19 | 57:33.67 | 3:05.64 | 259042 | 272980
Характеристики диапазона извлечения и сообщения об ошибках
Выбранный диапазон
Имя файла C:\!!!\b\BRUTTO - Underdog.wav
Пиковый уровень 100.0 % Скорость извлечения 8.9 X Качество диапазона 100.0 % CRC теста C50F2B50 CRC копии C50F2B50 Копирование... OK
Ошибок не произошло
Конец отчёта
==== Контрольная сумма отчёта C1E9236A5E1C5A8B7C25E4C77A87C03D36BC15FD2E19DFF2415AAB5F1755600A ====

Содержание индексной карты (.CUE)

REM DATE 2015REM DISCID 250E3713PERFORMER "BRUTTO"TITLE "Underdog"REM GENRE "Rock"FILE "01. Brutto.m4a" WAVE TRACK 01 AUDIO TITLE "Brutto" PERFORMER "BRUTTO" INDEX 01 00:00:00FILE "02. Underdog.m4a" WAVE TRACK 02 AUDIO TITLE "Underdog" PERFORMER "BRUTTO" INDEX 01 00:00:00FILE "03. Гири.m4a" WAVE TRACK 03 AUDIO TITLE "Гири" PERFORMER "BRUTTO" INDEX 01 00:00:00FILE "04. Наша возьме.m4a" WAVE TRACK 04 AUDIO TITLE "Наша возьме" PERFORMER "BRUTTO" INDEX 01 00:00:00FILE "05. Веселей.m4a" WAVE TRACK 05 AUDIO TITLE "Веселей" PERFORMER "BRUTTO" INDEX 01 00:00:00FILE "06. Мяч.m4a" WAVE TRACK 06 AUDIO TITLE "Мяч" PERFORMER "BRUTTO" INDEX 01 00:00:00FILE "07. I get wet.m4a" WAVE TRACK 07 AUDIO TITLE "I get wet" PERFORMER "BRUTTO" INDEX 01 00:00:00FILE "08. Гарэза.m4a" WAVE TRACK 08 AUDIO TITLE "Гарэза" PERFORMER "BRUTTO" INDEX 01 00:00:00FILE "09. Регби.m4a" WAVE TRACK 09 AUDIO TITLE "Регби" PERFORMER "BRUTTO" INDEX 01 00:00:00FILE "10. The chauffeur.m4a" WAVE TRACK 10 AUDIO TITLE "The chauffeur" PERFORMER "BRUTTO" INDEX 01 00:00:00FILE "11. Дворняги.m4a" WAVE TRACK 11 AUDIO TITLE "Дворняги" PERFORMER "BRUTTO" INDEX 01 00:00:00FILE "12. Труд.m4a" WAVE TRACK 12 AUDIO TITLE "Труд" PERFORMER "BRUTTO" INDEX 01 00:00:00FILE "13. Воины Света (bonus track).m4a" WAVE TRACK 13 AUDIO TITLE "Воины Света (bonus track)" PERFORMER "BRUTTO" INDEX 01 00:00:00FILE "14. Железный (bonus track).m4a" WAVE TRACK 14 AUDIO TITLE "Железный (bonus track)" PERFORMER "BRUTTO" INDEX 01 00:00:00FILE "15. Адидас (bonus track).m4a" WAVE TRACK 15 AUDIO TITLE "Адидас (bonus track)" PERFORMER "BRUTTO" INDEX 01 00:00:00FILE "16. Kapital (bonus track).m4a" WAVE TRACK 16 AUDIO TITLE "Kapital (bonus track)" PERFORMER "BRUTTO" INDEX 01 00:00:00FILE "17. Священный огонь (bonus track).m4a" WAVE TRACK 17 AUDIO TITLE "Священный огонь (bonus track)" PERFORMER "BRUTTO" INDEX 01 00:00:00FILE "18. Гарри (bonus track).m4a" WAVE TRACK 18 AUDIO TITLE "Гарри (bonus track)" PERFORMER "BRUTTO" INDEX 01 00:00:00FILE "19. Будзь смелым (bonus track).m4a" WAVE TRACK 19 AUDIO TITLE "Будзь смелым (bonus track)" PERFORMER "BRUTTO" INDEX 01 00:00:00

Лог проверки качества

[CUETools log; Date: 26.01.2018 18:17:37; Version: 2.1.6][CTDB TOCID: AXFDGvD37oIo6V0HDZgcG5CN2UM-] found.Track | CTDB Status 1 | (1/1) Accurately ripped 2 | (1/1) Accurately ripped 3 | (1/1) Accurately ripped 4 | (1/1) Accurately ripped 5 | (1/1) Accurately ripped 6 | (1/1) Accurately ripped 7 | (1/1) Accurately ripped 8 | (1/1) Accurately ripped 9 | (1/1) Accurately ripped 10 | (1/1) Accurately ripped 11 | (1/1) Accurately ripped 12 | (1/1) Accurately ripped 13 | (1/1) Accurately ripped 14 | (1/1) Accurately ripped 15 | (1/1) Accurately ripped 16 | (1/1) Accurately ripped 17 | (1/1) Accurately ripped 18 | (1/1) Accurately ripped 19 | (1/1) Accurately ripped[AccurateRip ID: 00281836-02385d3d-250e3713] found.Track [ CRC | V2 ] Status 01 [866f809b|e9956046] (0+1/1) Accurately ripped 02 [94b233bc|47f9a163] (0+1/1) Accurately ripped 03 [327deea8|c0fc1553] (0+1/1) Accurately ripped 04 [902a1c1e|d1c89d58] (0+1/1) Accurately ripped 05 [aa45dbdb|87916441] (0+1/1) Accurately ripped 06 [4f576dae|2f4e8603] (0+1/1) Accurately ripped 07 [82eba648|b0246393] (0+1/1) Accurately ripped 08 [b6381f8f|57c1d0cd] (0+1/1) Accurately ripped 09 [d365ba0e|dd8244c1] (0+1/1) Accurately ripped 10 [669255df|b724d7bc] (0+1/1) Accurately ripped 11 [066e997b|ba957bac] (0+1/1) Accurately ripped 12 [9a3cb6e4|203984a4] (0+1/1) Accurately ripped 13 [d26e1f62|b68a1ee7] (0+1/1) Accurately ripped 14 [ba0a0f33|c4c4d7be] (0+1/1) Accurately ripped 15 [eeaafaa1|d006aa9e] (0+1/1) Accurately ripped 16 [7de80fb5|6d1060f3] (0+1/1) Accurately ripped 17 [2ef610e1|d1e2e5e8] (0+1/1) Accurately ripped 18 [fba92ee9|08aa9c5a] (0+1/1) Accurately ripped 19 [64f0c2b1|88951b24] (0+1/1) Accurately ripped
Track Peak [ CRC32 ] [W/O NULL] [ LOG ] -- 100,0 [C50F2B50] [E87B03CA] CRC32 01 92,0 [22F886E0] [A11AF5C2] 02 92,8 [BD89D1BA] [02A14908] 03 90,1 [AE84C71B] [DDBBE11F] 04 93,8 [86F82923] [60C65007] 05 100,0 [C2A9925B] [6B517C7D] 06 93,6 [FFF098A6] [17A1B39C] 07 100,0 [33DE04BA] [9CC35523] 08 96,5 [5887AD25] [F76D3252] 09 100,0 [8ABACEF8] [92434C1A] 10 90,2 [5D9470AD] [4B495402] 11 93,2 [02E3B49C] [57AC7F50] 12 95,0 [DEF80139] [E68C710E] 13 100,0 [8C3DA2DC] [7E13865D] 14 97,1 [E309A4D5] [31665CBF] 15 100,0 [F21E98B3] [839EF802] 16 100,0 [9AFE578E] [866DFB47] 17 100,0 [5BB50FED] [3A88BB6C] 18 100,0 [317AD5F6] [0FAB7A4E] 19 99,6 [48E5B74A] [F792AB97]

2015. Родны Край

Источник
Треклист:
1. Человек
2. Родны Край
3. Чёрная Сотня
4. Moscow Calling
5. Будзь Смелым
6. Гарри
7. Партизан Рок
8. Воины Света
9. Приказ Эрнесто
10. Священный Огонь
11. Просперо
12. Реввоенсовет

Лог создания рипа

Exact Audio Copy V1.0 beta 3 from 29. August 2011
EAC extraction logfile from 31. October 2015, 20:38
BRUTTO / Родны Край
Used drive : ATAPI iHAS124 B Adapter: 4 ID: 0
Read mode : SecureUtilize accurate stream : YesDefeat audio cache : YesMake use of C2 pointers : No
Read offset correction : 6Overread into Lead-In and Lead-Out : NoFill up missing offset samples with silence : YesDelete leading and trailing silent blocks : NoNull samples used in CRC calculations : YesUsed interface : Native Win32 interface for Win NT & 2000
Used output format : Internal WAV RoutinesSample format : 44.100 Hz; 16 Bit; Stereo
TOC of the extracted CD
Track | Start | Length | Start sector | End sector --------------------------------------------------------- 1 | 0:00.00 | 3:20.21 | 0 | 15020 2 | 3:20.21 | 3:50.73 | 15021 | 32343 3 | 7:11.19 | 2:37.29 | 32344 | 44147 4 | 9:48.48 | 3:24.55 | 44148 | 59502 5 | 13:13.28 | 3:07.64 | 59503 | 73591 6 | 16:21.17 | 3:55.69 | 73592 | 91285 7 | 20:17.11 | 2:27.39 | 91286 | 102349 8 | 22:44.50 | 4:36.13 | 102350 | 123062 9 | 27:20.63 | 2:54.48 | 123063 | 136160 10 | 30:15.36 | 2:22.01 | 136161 | 146811 11 | 32:37.37 | 3:56.31 | 146812 | 164542 12 | 36:33.68 | 3:27.23 | 164543 | 180090
Range status and errors
Selected range
Filename I:\Українська музика\BRUTTO - 2015 - Родны Край\BRUTTO (2015) Родны Край.wav
Peak level 100.0 % Extraction speed 5.4 X Range quality 100.0 % Test CRC 5C1995C3 Copy CRC 5C1995C3 Copy OK
No errors occurred
AccurateRip summary
Track 1 not present in databaseTrack 2 not present in databaseTrack 3 not present in databaseTrack 4 not present in databaseTrack 5 not present in databaseTrack 6 not present in databaseTrack 7 not present in databaseTrack 8 not present in databaseTrack 9 not present in databaseTrack 10 not present in databaseTrack 11 not present in databaseTrack 12 not present in database
None of the tracks are present in the AccurateRip database
End of status report
==== Log checksum 3867CB499A8981932A073B98AD60E08604420DF17A644D49B24147E245C2B2F2 ====

Содержание индексной карты (.CUE)

REM DATE 2015REM DISCID AB09610CPERFORMER "Brutto"TITLE "Родны край"REM DISCNUMBER 1REM TOTALDISCS 1REM GENRE "Rock"FILE "01. Человек.m4a" WAVE TRACK 01 AUDIO TITLE "Человек" PERFORMER "Brutto" INDEX 01 00:00:00FILE "02. Родны край.m4a" WAVE TRACK 02 AUDIO TITLE "Родны край" PERFORMER "Brutto" INDEX 01 00:00:00FILE "03. Чёрная сотня.m4a" WAVE TRACK 03 AUDIO TITLE "Чёрная сотня" PERFORMER "Brutto" INDEX 01 00:00:00FILE "04. Moscow calling.m4a" WAVE TRACK 04 AUDIO TITLE "Moscow calling" PERFORMER "Brutto" INDEX 01 00:00:00FILE "05. Будзь смелым.m4a" WAVE TRACK 05 AUDIO TITLE "Будзь смелым" PERFORMER "Brutto" INDEX 01 00:00:00FILE "06. Гарри.m4a" WAVE TRACK 06 AUDIO TITLE "Гарри" PERFORMER "Brutto" INDEX 01 00:00:00FILE "07. Партизан рок.m4a" WAVE TRACK 07 AUDIO TITLE "Партизан рок" PERFORMER "Brutto" INDEX 01 00:00:00FILE "08. Воины света.m4a" WAVE TRACK 08 AUDIO TITLE "Воины света" PERFORMER "Brutto" INDEX 01 00:00:00FILE "09. Приказ Эрнесто.m4a" WAVE TRACK 09 AUDIO TITLE "Приказ Эрнесто" PERFORMER "Brutto" INDEX 01 00:00:00FILE "10. Священный огонь.m4a" WAVE TRACK 10 AUDIO TITLE "Священный огонь" PERFORMER "Brutto" INDEX 01 00:00:00FILE "11. Просперо.m4a" WAVE TRACK 11 AUDIO TITLE "Просперо" PERFORMER "Brutto" INDEX 01 00:00:00FILE "12. Реввоенсовет.m4a" WAVE TRACK 12 AUDIO TITLE "Реввоенсовет" PERFORMER "Brutto" INDEX 01 00:00:00

Лог проверки качества

[CUETools log; Date: 26.01.2018 18:22:06; Version: 2.1.6][CTDB TOCID: q8ubFdZxNlL6GaX8xBQ1OmJBQ0E-] found.Track | CTDB Status 1 | (3/3) Accurately ripped 2 | (3/3) Accurately ripped 3 | (3/3) Accurately ripped 4 | (3/3) Accurately ripped 5 | (3/3) Accurately ripped 6 | (3/3) Accurately ripped 7 | (3/3) Accurately ripped 8 | (3/3) Accurately ripped 9 | (3/3) Accurately ripped 10 | (3/3) Accurately ripped 11 | (3/3) Accurately ripped 12 | (3/3) Accurately ripped[AccurateRip ID: 0011d612-00a65378-ab09610c] found.Track [ CRC | V2 ] Status 01 [4490b75f|48a35584] (0+1/1) Accurately ripped 02 [c987530c|efbaf59d] (0+1/1) Accurately ripped 03 [5e3941d7|4da34391] (0+1/1) Accurately ripped 04 [d41daa7c|bfd99eb8] (0+1/1) Accurately ripped 05 [76d09e61|505568a2] (0+1/1) Accurately ripped 06 [87ffadec|54c3e760] (0+1/1) Accurately ripped 07 [8809d2dd|042a9da7] (0+1/1) Accurately ripped 08 [be5dfc10|7790f290] (0+1/1) Accurately ripped 09 [db450d77|252c1270] (0+1/1) Accurately ripped 10 [0930747a|250f1799] (0+1/1) Accurately ripped 11 [873ece2e|fa74ced7] (0+1/1) Accurately ripped 12 [4cbb4d0e|ae64cd26] (0+1/1) Accurately ripped
Track Peak [ CRC32 ] [W/O NULL] [ LOG ] -- 100,0 [5C1995C3] [20B9715A] CRC32 01 100,0 [D2F1130A] [51B2A590] 02 100,0 [053EE398] [35A6EB62] 03 100,0 [BF0FDD8C] [80196256] 04 100,0 [166DD7C2] [843972A2] 05 100,0 [AF1E2EE0] [11759D63] 06 99,2 [BD05F685] [3A2ACC80] 07 100,0 [13B9A5EC] [8D4296D8] 08 100,0 [AB2BBC6C] [F37EB465] 09 100,0 [34ACFBBD] [226994D3] 10 100,0 [B818CFB4] [21A1EE62] 11 100,0 [0E37910E] [9A2C4389] 12 100,0 [B73F69D8] [3AAAE48E]

2017. Рокі (WEB)

Источник
Треклист:
1. Рокі
2. Саботаж
3. Новый Сайгон
4. Телевизор
5. Золотой петушок
6. Cambodia
7. Реконструктор
8. Матрёшка
9. Чёрный обелиск
10. Папяроска
11. Середні віки
12. Годзе

Содержание индексной карты (.CUE)

PERFORMER "Brutto"TITLE "Рокі"REM DATE 2017REM DISCNUMBER 1REM TOTALDISCS 1FILE "01. Рокі.m4a" WAVE TRACK 01 AUDIO PERFORMER "Brutto" TITLE "Рокі" INDEX 01 00:00:00FILE "02. Саботаж.m4a" WAVE TRACK 02 AUDIO PERFORMER "Brutto" TITLE "Саботаж" INDEX 01 00:00:00FILE "03. Новый Сайгон.m4a" WAVE TRACK 03 AUDIO PERFORMER "Brutto" TITLE "Новый Сайгон" INDEX 01 00:00:00FILE "04. Телевизор.m4a" WAVE TRACK 04 AUDIO PERFORMER "Brutto" TITLE "Телевизор" INDEX 01 00:00:00FILE "05. Золотой петушок.m4a" WAVE TRACK 05 AUDIO PERFORMER "Brutto" TITLE "Золотой петушок" INDEX 01 00:00:00FILE "06. Cambodia.m4a" WAVE TRACK 06 AUDIO PERFORMER "Brutto" TITLE "Cambodia" INDEX 01 00:00:00FILE "07. Реконструктор.m4a" WAVE TRACK 07 AUDIO PERFORMER "Brutto" TITLE "Реконструктор" INDEX 01 00:00:00FILE "08. Матрёшка.m4a" WAVE TRACK 08 AUDIO PERFORMER "Brutto" TITLE "Матрёшка" INDEX 01 00:00:00FILE "09. Чёрный обелиск.m4a" WAVE TRACK 09 AUDIO PERFORMER "Brutto" TITLE "Чёрный обелиск" INDEX 01 00:00:00FILE "10. Папяроска.m4a" WAVE TRACK 10 AUDIO PERFORMER "Brutto" TITLE "Папяроска" INDEX 01 00:00:00FILE "11. Середні віки.m4a" WAVE TRACK 11 AUDIO PERFORMER "Brutto" TITLE "Середні віки" INDEX 01 00:00:00FILE "12. Годзе.m4a" WAVE TRACK 12 AUDIO PERFORMER "Brutto" TITLE "Годзе" INDEX 01 00:00:00

Лог проверки качества

AUDIOCHECKER v2.0 beta (build 457) - by Dester - opdester@freemail.hu~~~~~~~~~~~~~~~~~~~~~~~~~~~~~~~~~~-=== НЕ РЕДАКТИРУЙТЕ ЭТОТ ФАЙЛ! ===-
Путь: ...\Brutto - 2017 - Рокі
01 -=- 01. Рокі.flac -=- CDDA (100%)02 -=- 02. Саботаж.flac -=- CDDA (100%)03 -=- 03. Новый Сайгон.flac -=- CDDA (99%)04 -=- 04. Телевизор.flac -=- CDDA (99%)05 -=- 05. Золотой петушок.flac -=- CDDA (100%)06 -=- 06. Cambodia.flac -=- CDDA (100%)07 -=- 07. Реконструктор.flac -=- CDDA (100%)08 -=- 08. Матрёшка.flac -=- CDDA (100%)09 -=- 09. Чёрный обелиск.flac -=- CDDA (100%)10 -=- 10. Папяроска.flac -=- CDDA (99%)11 -=- 11. Середні віки.flac -=- CDDA (100%)12 -=- 12. Годзе.flac -=- CDDA (100%)
Сводка 99,75% CDDA
266357060

Скриншот(ы) тегов iTunes

Об исполнителе (группе)

BRUTTO - Бригада Революционного Угара и Творческого отпора имени Орнеллы Мутти!


[islamvillage.com]_t_5513129.torrent
Торрент: Зарегистрирован ·  [ 2019-01-02 14:14 ] ·  6290bbd70497735308a5b29ebdbb3427f3e281e0

16 KB

Статус: проверено
Скачан: 0 раз
Размер: 1.02 GB
Оценка: 
(Голосов: 0)
Сказали спасибо: 0  Спасибо
Похожие темы
[Профиль]    [ЛС]
Показать сообщения:    
Ответить на тему

Текущее время: Сегодня 18:22

Часовой пояс: GMT + 7



Вы не можете начинать темы
Вы не можете отвечать на сообщения
Вы не можете редактировать свои сообщения
Вы не можете удалять свои сообщения
Вы не можете голосовать в опросах
Вы не можете прикреплять файлы к сообщениям
Вы можете скачивать файлы


Steve Coulter | #46 - Red Storm 46 01-20-2016 | #34 - Unbridled 02-02-2017