(Rap) [CD] Krec - Коллекция (9 альбомов) - 2007-2018, ALAC (tracks+.cue), lossless

Ответить на тему
Статистика раздачи [Обновить пиров]
Размер:  3.1 GB   |    Зарегистрирован:  16 дней   |    Скачан:  0 раз

Полного источника не было: Никогда

 
   
 
 
 
Автор Сообщение

islamvillage.com

Создавать темы 02-Янв-2019 14:53

[Цитировать]

Krec / Коллекция
Жанр: Rap
Носитель: CD
Страна-производитель диска: Россия
Год издания: 2007-2018
Страна исполнителя (группы): Россия
Аудио кодек: ALAC (*.m4a)
Тип рипа: tracks+.cue
Программа-конвертер: Собственный рип (EAC); Собственный рип (iTunes)
Битрейт аудио: lossless
Наличие сканов в содержимом раздачи: да (Для альбома "FRVTR 812", сканы от FiLbI4_meloman'a
Тексты: вшиты частично (для альбома Vol. 1 NYC, только для трека "Покоряя волны" есть текст; для альбома "Head" нет текстов)
Источник : Собственные диски

2007 - Меломан ( 01:15:09)

Издатель (лейбл): 2+2=5
Номер по каталогу: 225CD-07
Треклист:
01. Интро
02. Новый день
03. Без подоплёки
04. В ритме самба
05. Раскаты грома
06. Фэмили
07. Cafe People
08. Доброе утро страна
09. На посту feat. Maestro A-Sid
10. О Любви
11. Меломан
12. Дорога
13. Imagination
14. Всё будет хорошо feat. Maestro A-Sid
15. Через весь город
16. Кухня-Пати
17. Не от мира сего
18. Улыбка принцессы
19. Оставайся собой
20. В память о тех днях
21. Дороги ведут
22. Аутро

Лог создания рипа

Exact Audio Copy V1.0 beta 4 from 7. December 2014
Отчёт EAC об извлечении, выполненном 17. апреля 2015, 10:42
Krec / Меломан
Дисковод: HL-DT-STDVDRAM GP60NB50 Adapter: 1 ID: 0
Режим чтения : ДостоверностьИспользование точного потока : ДаОтключение кэша аудио : ДаИспользование указателей C2 : Нет
Коррекция смещения при чтении : 6Способность читать области Lead-in и Lead-out : НетЗаполнение пропущенных сэмплов тишиной : ДаУдаление блоков с тишиной в начале и конце : НетПри вычислениях CRC использовались нулевые сэмплы : ДаИнтерфейс : Встроенный Win32-интерфейс для Win NT/2000Обработка зазоров : Добавлено к предыдущему треку
Выходной формат : Пользовательский кодировщикВыбранный битрейт : 896 kBit/sКачество : ВысокийДобавление ID3-тега : НетУтилита сжатия : C:\Program Files (x86)\Exact Audio Copy\refalac_1.46\x64\refalac64.exeДополнительные параметры : -s --ignorelength --artist "%artist%" --title "%title%" --album "%albumtitle%" --date "%year%" --track "%tracknr%" --genre "%genre%" -o %dest% %source%
TOC извлечённого CD
Трек | Старт | Длительность | Начальный сектор | Конечный сектор --------------------------------------------------------------------- 1 | 0:00.00 | 2:42.71 | 0 | 12220 2 | 2:42.71 | 3:47.47 | 12221 | 29292 3 | 6:30.43 | 3:57.01 | 29293 | 47068 4 | 10:27.44 | 4:06.61 | 47069 | 65579 5 | 14:34.30 | 3:57.00 | 65580 | 83354 6 | 18:31.30 | 3:35.28 | 83355 | 99507 7 | 22:06.58 | 3:25.44 | 99508 | 114926 8 | 25:32.27 | 3:10.30 | 114927 | 129206 9 | 28:42.57 | 3:33.00 | 129207 | 145181 10 | 32:15.57 | 4:27.16 | 145182 | 165222 11 | 36:42.73 | 3:10.49 | 165223 | 179521 12 | 39:53.47 | 4:39.10 | 179522 | 200456 13 | 44:32.57 | 2:39.18 | 200457 | 212399 14 | 47:12.00 | 3:11.58 | 212400 | 226782 15 | 50:23.58 | 3:29.33 | 226783 | 242490 16 | 53:53.16 | 2:59.73 | 242491 | 255988 17 | 56:53.14 | 3:21.67 | 255989 | 271130 18 | 60:15.06 | 3:40.49 | 271131 | 287679 19 | 63:55.55 | 3:07.02 | 287680 | 301706 20 | 67:02.57 | 3:16.00 | 301707 | 316406 21 | 70:18.57 | 3:15.36 | 316407 | 331067 22 | 73:34.18 | 1:34.41 | 331068 | 338158
Трек 1
Имя файла C:\Users\Home\Downloads\Музыка\Krec\Меломан\01 Интро.wav
Длина предзазора 0:00:02.00
Пиковый уровень 99.9 % Скорость извлечения 1.1 X Качество трека 100.0 % CRC теста F7B7B694 CRC копии F7B7B694 Точность не определена (достоверность 1) [D6774A31], AccurateRip вернул [1CBB853B] (AR v2) Копирование... OK
Трек 2
Имя файла C:\Users\Home\Downloads\Музыка\Krec\Меломан\02 Новый день.wav
Длина предзазора 0:00:01.00
Пиковый уровень 99.9 % Скорость извлечения 1.3 X Качество трека 100.0 % CRC теста 7569BC05 CRC копии 7569BC05 Точность не определена (достоверность 1) [C7D32EF9], AccurateRip вернул [96C6E6C2] (AR v2) Копирование... OK
Трек 3
Имя файла C:\Users\Home\Downloads\Музыка\Krec\Меломан\03 Без подоплёки.wav
Длина предзазора 0:00:01.00
Пиковый уровень 99.9 % Скорость извлечения 1.3 X Качество трека 99.9 % CRC теста EF5B47FB CRC копии EF5B47FB Точность не определена (достоверность 1) [8DB3456F], AccurateRip вернул [C28E3405] (AR v2) Копирование... OK
Трек 4
Имя файла C:\Users\Home\Downloads\Музыка\Krec\Меломан\04 В ритме самба.wav
Длина предзазора 0:00:01.00
Пиковый уровень 99.9 % Скорость извлечения 1.6 X Качество трека 100.0 % CRC теста 7A2497B5 CRC копии 7A2497B5 Точность не определена (достоверность 1) [CC6C7E8F], AccurateRip вернул [8D7162FE] (AR v2) Копирование... OK
Трек 5
Имя файла C:\Users\Home\Downloads\Музыка\Krec\Меломан\05 Раскаты грома.wav
Длина предзазора 0:00:01.00
Пиковый уровень 99.9 % Скорость извлечения 1.7 X Качество трека 100.0 % CRC теста 50E9EA8C CRC копии 50E9EA8C Точность не определена (достоверность 1) [09BD2CF3], AccurateRip вернул [FC5868AB] (AR v2) Копирование... OK
Трек 6
Имя файла C:\Users\Home\Downloads\Музыка\Krec\Меломан\06 Фэмили.wav
Длина предзазора 0:00:01.00
Пиковый уровень 99.9 % Скорость извлечения 1.7 X Качество трека 100.0 % CRC теста 750897F8 CRC копии 750897F8 Точность не определена (достоверность 1) [1D550D62], AccurateRip вернул [C580BFF3] (AR v2) Копирование... OK
Трек 7
Имя файла C:\Users\Home\Downloads\Музыка\Krec\Меломан\07 Cafe People.wav
Длина предзазора 0:00:01.00
Пиковый уровень 99.9 % Скорость извлечения 1.8 X Качество трека 100.0 % CRC теста 7DCFCC2B CRC копии 7DCFCC2B Точность не определена (достоверность 1) [7A0D6A3C], AccurateRip вернул [CFD66CE3] (AR v2) Копирование... OK
Трек 8
Имя файла C:\Users\Home\Downloads\Музыка\Krec\Меломан\08 Доброе утро страна.wav
Длина предзазора 0:00:01.00
Пиковый уровень 99.9 % Скорость извлечения 1.9 X Качество трека 100.0 % CRC теста 67090236 CRC копии 67090236 Точность не определена (достоверность 1) [5C3080A7], AccurateRip вернул [69C6BC2E] (AR v2) Копирование... OK
Трек 9
Имя файла C:\Users\Home\Downloads\Музыка\Krec\Меломан\09 На посту feat. Maestro A-Sid.wav
Длина предзазора 0:00:01.00
Пиковый уровень 99.9 % Скорость извлечения 1.9 X Качество трека 100.0 % CRC теста 6ECC4BD2 CRC копии 6ECC4BD2 Точность не определена (достоверность 1) [68C1CE67], AccurateRip вернул [DDA7624F] (AR v2) Копирование... OK
Трек 10
Имя файла C:\Users\Home\Downloads\Музыка\Krec\Меломан\10 О любви.wav
Длина предзазора 0:00:01.00
Пиковый уровень 99.9 % Скорость извлечения 1.9 X Качество трека 99.9 % CRC теста 1BC2DEEE CRC копии 1BC2DEEE Точность не определена (достоверность 1) [DCBB268C], AccurateRip вернул [C9D343DD] (AR v2) Копирование... OK
Трек 11
Имя файла C:\Users\Home\Downloads\Музыка\Krec\Меломан\11 Меломан.wav
Длина предзазора 0:00:01.00
Пиковый уровень 99.9 % Скорость извлечения 2.1 X Качество трека 100.0 % CRC теста DA01657B CRC копии DA01657B Точность не определена (достоверность 1) [FFD070CA], AccurateRip вернул [24F2DF01] (AR v2) Копирование... OK
Трек 12
Имя файла C:\Users\Home\Downloads\Музыка\Krec\Меломан\12 Дорога.wav
Длина предзазора 0:00:01.00
Пиковый уровень 99.9 % Скорость извлечения 2.3 X Качество трека 100.0 % CRC теста E290E10C CRC копии E290E10C Точность не определена (достоверность 1) [A0803BA9], AccurateRip вернул [86310485] (AR v2) Копирование... OK
Трек 13
Имя файла C:\Users\Home\Downloads\Музыка\Krec\Меломан\13 Imagination.wav
Длина предзазора 0:00:01.00
Пиковый уровень 99.9 % Скорость извлечения 2.1 X Качество трека 100.0 % CRC теста 11089732 CRC копии 11089732 Точность не определена (достоверность 1) [8353C6C4], AccurateRip вернул [242D9138] (AR v2) Копирование... OK
Трек 14
Имя файла C:\Users\Home\Downloads\Музыка\Krec\Меломан\14 Всё будет хорошо feat. Maestro A-Sid.wav
Длина предзазора 0:00:01.00
Пиковый уровень 99.9 % Скорость извлечения 2.2 X Качество трека 100.0 % CRC теста 9924A822 CRC копии 9924A822 Точность не определена (достоверность 1) [E0609F4A], AccurateRip вернул [2C0A092A] (AR v2) Копирование... OK
Трек 15
Имя файла C:\Users\Home\Downloads\Музыка\Krec\Меломан\15 Через весь город.wav
Длина предзазора 0:00:01.00
Пиковый уровень 98.9 % Скорость извлечения 2.3 X Качество трека 100.0 % CRC теста 9FD40869 CRC копии 9FD40869 Точность не определена (достоверность 1) [71B8B16A], AccurateRip вернул [3532CC95] (AR v2) Копирование... OK
Трек 16
Имя файла C:\Users\Home\Downloads\Музыка\Krec\Меломан\16 Кухня-Пати.wav
Длина предзазора 0:00:01.00
Пиковый уровень 99.9 % Скорость извлечения 2.4 X Качество трека 100.0 % CRC теста 1DE9B4F3 CRC копии 1DE9B4F3 Точность не определена (достоверность 1) [4ED9B627], AccurateRip вернул [BBAF2020] (AR v2) Копирование... OK
Трек 17
Имя файла C:\Users\Home\Downloads\Музыка\Krec\Меломан\17 Не от мира сего.wav
Длина предзазора 0:00:01.00
Пиковый уровень 99.9 % Скорость извлечения 2.5 X Качество трека 100.0 % CRC теста 6371F140 CRC копии 6371F140 Точность не определена (достоверность 1) [D8B6FE68], AccurateRip вернул [FA720FA1] (AR v2) Копирование... OK
Трек 18
Имя файла C:\Users\Home\Downloads\Музыка\Krec\Меломан\18 Улыбка принцессы.wav
Длина предзазора 0:00:01.00
Пиковый уровень 99.9 % Скорость извлечения 2.5 X Качество трека 100.0 % CRC теста 411CB780 CRC копии 411CB780 Точность не определена (достоверность 1) [8FE3D4A9], AccurateRip вернул [281E79D0] (AR v2) Копирование... OK
Трек 19
Имя файла C:\Users\Home\Downloads\Музыка\Krec\Меломан\19 Оставайся собой.wav
Длина предзазора 0:00:01.00
Пиковый уровень 99.9 % Скорость извлечения 2.5 X Качество трека 100.0 % CRC теста 2BC12606 CRC копии 2BC12606 Точность не определена (достоверность 1) [10A86154], AccurateRip вернул [7DA25E6D] (AR v2) Копирование... OK
Трек 20
Имя файла C:\Users\Home\Downloads\Музыка\Krec\Меломан\20 В память о тех днях.wav
Длина предзазора 0:00:01.00
Пиковый уровень 99.9 % Скорость извлечения 2.6 X Качество трека 100.0 % CRC теста 46089AD5 CRC копии 46089AD5 Точность не определена (достоверность 1) [16E2FF9B], AccurateRip вернул [6AB44272] (AR v2) Копирование... OK
Трек 21
Имя файла C:\Users\Home\Downloads\Музыка\Krec\Меломан\21 Дороги ведут.wav
Длина предзазора 0:00:01.00
Пиковый уровень 99.9 % Скорость извлечения 2.6 X Качество трека 100.0 % CRC теста CCA4C587 CRC копии CCA4C587 Точность не определена (достоверность 1) [DA5F3DD4], AccurateRip вернул [25673E6D] (AR v2) Копирование... OK
Трек 22
Имя файла C:\Users\Home\Downloads\Музыка\Krec\Меломан\22 Аутро.wav
Длина предзазора 0:00:01.00
Пиковый уровень 99.9 % Скорость извлечения 2.2 X Качество трека 100.0 % CRC теста 94231C25 CRC копии 94231C25 Точность не определена (достоверность 1) [8BD68E6F], AccurateRip вернул [4E33C371] (AR v2) Копирование... OK
Ни один трек не прошёл проверки на точностьВ вашей базе может быть иной вариант штамповки диска
Ошибок не произошло
Конец отчёта
---- CUETools DB Plugin V2.1.4
[CTDB TOCID: wiBIbMbSC6c44vDPRw2Q0Rfc7Bg-] foundSubmit result: wiBIbMbSC6c44vDPRw2Q0Rfc7Bg- has been confirmedTrack | CTDB Status 1 | (1/1) Accurately ripped 2 | (1/1) Accurately ripped 3 | (1/1) Accurately ripped 4 | (1/1) Accurately ripped 5 | (1/1) Accurately ripped 6 | (1/1) Accurately ripped 7 | (1/1) Accurately ripped 8 | (1/1) Accurately ripped 9 | (1/1) Accurately ripped 10 | (1/1) Accurately ripped 11 | (1/1) Accurately ripped 12 | (1/1) Accurately ripped 13 | (1/1) Accurately ripped 14 | (1/1) Accurately ripped 15 | (1/1) Accurately ripped 16 | (1/1) Accurately ripped 17 | (1/1) Accurately ripped 18 | (1/1) Accurately ripped 19 | (1/1) Accurately ripped 20 | (1/1) Accurately ripped 21 | (1/1) Accurately ripped 22 | (1/1) Accurately ripped
==== Контрольная сумма отчёта 10F186AC29E29941C257A3FD37F85B2349784A721B0F0426A561F04D6F60DDCB ====

Содержание индексной карты (.CUE)

REM GENRE RapREM DATE 2007REM DISCID 2F119C16REM COMMENT "ExactAudioCopy v1.0b4"PERFORMER "Krec"TITLE "Меломан"FILE "01 Интро.wav" WAVE TRACK 01 AUDIO TITLE "Интро" PERFORMER "Krec" FLAGS DCP INDEX 01 00:00:00 TRACK 02 AUDIO TITLE "Новый день" PERFORMER "Krec" FLAGS DCP INDEX 00 02:41:71FILE "02 Новый день.wav" WAVE INDEX 01 00:00:00 TRACK 03 AUDIO TITLE "Без подоплёки" PERFORMER "Krec" FLAGS DCP INDEX 00 03:46:47FILE "03 Без подоплёки.wav" WAVE INDEX 01 00:00:00 TRACK 04 AUDIO TITLE "В ритме самба" PERFORMER "Krec" FLAGS DCP INDEX 00 03:56:01FILE "04 В ритме самба.wav" WAVE INDEX 01 00:00:00 TRACK 05 AUDIO TITLE "Раскаты грома" PERFORMER "Krec" FLAGS DCP INDEX 00 04:05:61FILE "05 Раскаты грома.wav" WAVE INDEX 01 00:00:00 TRACK 06 AUDIO TITLE "Фэмили" PERFORMER "Krec" FLAGS DCP INDEX 00 03:56:00FILE "06 Фэмили.wav" WAVE INDEX 01 00:00:00 TRACK 07 AUDIO TITLE "Cafe People" PERFORMER "Krec" FLAGS DCP INDEX 00 03:34:28FILE "07 Cafe People.wav" WAVE INDEX 01 00:00:00 TRACK 08 AUDIO TITLE "Доброе утро страна" PERFORMER "Krec" FLAGS DCP INDEX 00 03:24:44FILE "08 Доброе утро страна.wav" WAVE INDEX 01 00:00:00 TRACK 09 AUDIO TITLE "На посту feat. Maestro A-Sid" PERFORMER "Krec" FLAGS DCP INDEX 00 03:09:30FILE "09 На посту feat. Maestro A-Sid.wav" WAVE INDEX 01 00:00:00 TRACK 10 AUDIO TITLE "О любви" PERFORMER "Krec" FLAGS DCP INDEX 00 03:32:00FILE "10 О любви.wav" WAVE INDEX 01 00:00:00 TRACK 11 AUDIO TITLE "Меломан" PERFORMER "Krec" FLAGS DCP INDEX 00 04:26:16FILE "11 Меломан.wav" WAVE INDEX 01 00:00:00 TRACK 12 AUDIO TITLE "Дорога" PERFORMER "Krec" FLAGS DCP INDEX 00 03:09:49FILE "12 Дорога.wav" WAVE INDEX 01 00:00:00 TRACK 13 AUDIO TITLE "Imagination" PERFORMER "Krec" FLAGS DCP INDEX 00 04:38:10FILE "13 Imagination.wav" WAVE INDEX 01 00:00:00 TRACK 14 AUDIO TITLE "Всё будет хорошо feat. Maestro A-Sid" PERFORMER "Krec" FLAGS DCP INDEX 00 02:38:18FILE "14 Всё будет хорошо feat. Maestro A-Sid.wav" WAVE INDEX 01 00:00:00 TRACK 15 AUDIO TITLE "Через весь город" PERFORMER "Krec" FLAGS DCP INDEX 00 03:10:58FILE "15 Через весь город.wav" WAVE INDEX 01 00:00:00 TRACK 16 AUDIO TITLE "Кухня-Пати" PERFORMER "Krec" FLAGS DCP INDEX 00 03:28:33FILE "16 Кухня-Пати.wav" WAVE INDEX 01 00:00:00 TRACK 17 AUDIO TITLE "Не от мира сего" PERFORMER "Krec" FLAGS DCP INDEX 00 02:58:73FILE "17 Не от мира сего.wav" WAVE INDEX 01 00:00:00 TRACK 18 AUDIO TITLE "Улыбка принцессы" PERFORMER "Krec" FLAGS DCP INDEX 00 03:20:67FILE "18 Улыбка принцессы.wav" WAVE INDEX 01 00:00:00 TRACK 19 AUDIO TITLE "Оставайся собой" PERFORMER "Krec" FLAGS DCP INDEX 00 03:39:49FILE "19 Оставайся собой.wav" WAVE INDEX 01 00:00:00 TRACK 20 AUDIO TITLE "В память о тех днях" PERFORMER "Krec" FLAGS DCP INDEX 00 03:06:02FILE "20 В память о тех днях.wav" WAVE INDEX 01 00:00:00 TRACK 21 AUDIO TITLE "Дороги ведут" PERFORMER "Krec" FLAGS DCP INDEX 00 03:15:00FILE "21 Дороги ведут.wav" WAVE INDEX 01 00:00:00 TRACK 22 AUDIO TITLE "Аутро" PERFORMER "Krec" FLAGS DCP INDEX 00 03:14:36FILE "22 Аутро.wav" WAVE INDEX 01 00:00:00

Лог проверки качества

CUE Corrector v.6.12.8 (build 513)--------------------------------------------------------------------------- / Меломан
Folder: Меломанaudio files: 01 Интро [02:42.71, ALAC, 44100Hz, Stereo, 16bit; 19,52 MB (20 467 569 bytes)] 02 Новый день [03:47.47, ALAC, 44100Hz, Stereo, 16bit; 26,21 MB (27 478 316 bytes)] 03 Без подоплёки [03:57.01, ALAC, 44100Hz, Stereo, 16bit; 28,39 MB (29 765 268 bytes)] 04 В ритме самба [04:06.61, ALAC, 44100Hz, Stereo, 16bit; 27,90 MB (29 252 299 bytes)] 05 Раскаты грома [03:57.00, ALAC, 44100Hz, Stereo, 16bit; 27,53 MB (28 866 014 bytes)] 06 Фэмили [03:35.28, ALAC, 44100Hz, Stereo, 16bit; 23,43 MB (24 572 046 bytes)] 07 Cafe People [03:25.44, ALAC, 44100Hz, Stereo, 16bit; 22,50 MB (23 597 814 bytes)] 08 Доброе утро страна [03:10.30, ALAC, 44100Hz, Stereo, 16bit; 21,79 MB (22 852 926 bytes)] 09 На посту feat. Maestro A-Sid [03:33.00, ALAC, 44100Hz, Stereo, 16bit; 23,42 MB (24 553 947 bytes)] 10 О любви [04:27.16, ALAC, 44100Hz, Stereo, 16bit; 31,53 MB (33 058 714 bytes)] 11 Меломан [03:10.49, ALAC, 44100Hz, Stereo, 16bit; 21,68 MB (22 728 277 bytes)] 12 Дорога [04:39.10, ALAC, 44100Hz, Stereo, 16bit; 28,96 MB (30 363 084 bytes)] 13 Imagination [02:39.18, ALAC, 44100Hz, Stereo, 16bit; 17,37 MB (18 213 375 bytes)] 14 Всё будет хорошо feat. Maestro A-Sid [03:11.58, ALAC, 44100Hz, Stereo, 16bit; 21,38 MB (22 413 353 bytes)] 15 Через весь город [03:29.33, ALAC, 44100Hz, Stereo, 16bit; 22,94 MB (24 051 348 bytes)] 16 Кухня-Пати [02:59.73, ALAC, 44100Hz, Stereo, 16bit; 20,48 MB (21 477 396 bytes)] 17 Не от мира сего [03:21.67, ALAC, 44100Hz, Stereo, 16bit; 23,62 MB (24 770 403 bytes)] 18 Улыбка принцессы [03:40.49, ALAC, 44100Hz, Stereo, 16bit; 23,55 MB (24 697 372 bytes)] 19 Оставайся собой [03:07.02, ALAC, 44100Hz, Stereo, 16bit; 21,42 MB (22 463 099 bytes)] 20 В память о тех днях [03:16.00, ALAC, 44100Hz, Stereo, 16bit; 21,45 MB (22 493 703 bytes)] 21 Дороги ведут [03:15.36, ALAC, 44100Hz, Stereo, 16bit; 22,31 MB (23 391 139 bytes)] 22 Аутро [01:34.41, ALAC, 44100Hz, Stereo, 16bit; 10,81 MB (11 339 660 bytes)]
Accuracy: -m8
File 01 Интро - 100% CDDA [02:42.71]
Detected average hi-boundary frequency : 2.052728e+004 Hz Detected average lo-boundary frequency : 1.382460e+004 Hz Detected average hi-cut frequency : 2.131768e+004 Hz Detected average lo-cut frequency : 1.367889e+004 Hz Maximum probablis boundary frequency : 2.189100e+004 Hz Coefficient of nonlinearity of a phase : 3.284881e-001 First order smothness : 4.793814e-001 Second order smothness : 7.010309e-001
File 02 Новый день - 100% CDDA [03:47.47]
Detected average hi-boundary frequency : 2.036294e+004 Hz Detected average lo-boundary frequency : 1.240353e+004 Hz Detected average hi-cut frequency : 2.143065e+004 Hz Detected average lo-cut frequency : 1.307185e+004 Hz Maximum probablis boundary frequency : 2.189100e+004 Hz Coefficient of nonlinearity of a phase : 9.224575e-001 First order smothness : 4.558824e-001 Second order smothness : 6.433824e-001
File 03 Без подоплёки - 100% CDDA [03:57.01]
Detected average hi-boundary frequency : 2.022613e+004 Hz Detected average lo-boundary frequency : 1.457231e+004 Hz Detected average hi-cut frequency : 2.143663e+004 Hz Detected average lo-cut frequency : 7.783709e+003 Hz Maximum probablis boundary frequency : 2.115400e+004 Hz Coefficient of nonlinearity of a phase : 6.179843e-001 First order smothness : 4.381625e-001 Second order smothness : 4.487633e-001
File 04 В ритме самба - 100% CDDA [04:06.61]
Detected average hi-boundary frequency : 2.029699e+004 Hz Detected average lo-boundary frequency : 1.342590e+004 Hz Detected average hi-cut frequency : 2.131181e+004 Hz Detected average lo-cut frequency : 1.257239e+004 Hz Maximum probablis boundary frequency : 2.189600e+004 Hz Coefficient of nonlinearity of a phase : 1.305922e+000 First order smothness : 4.949153e-001 Second order smothness : 4.338983e-001
File 05 Раскаты грома - 100% CDDA [03:57.00]
Detected average hi-boundary frequency : 2.029385e+004 Hz Detected average lo-boundary frequency : 1.219096e+004 Hz Detected average hi-cut frequency : 2.149271e+004 Hz Detected average lo-cut frequency : 1.105831e+004 Hz Maximum probablis boundary frequency : 2.162200e+004 Hz Coefficient of nonlinearity of a phase : 8.383834e-001 First order smothness : 4.416961e-001 Second order smothness : 4.840989e-001
File 06 Фэмили - 100% CDDA [03:35.28]
Detected average hi-boundary frequency : 2.003021e+004 Hz Detected average lo-boundary frequency : 1.258024e+004 Hz Detected average hi-cut frequency : 2.146335e+004 Hz Detected average lo-cut frequency : 8.962037e+003 Hz Maximum probablis boundary frequency : 2.119700e+004 Hz Coefficient of nonlinearity of a phase : 1.123641e+000 First order smothness : 4.941634e-001 Second order smothness : 4.163424e-001
File 07 Cafe People - 100% CDDA [03:25.44]
Detected average hi-boundary frequency : 2.040053e+004 Hz Detected average lo-boundary frequency : 1.132077e+004 Hz Detected average hi-cut frequency : 2.176204e+004 Hz Detected average lo-cut frequency : 1.459977e+004 Hz Maximum probablis boundary frequency : 2.128300e+004 Hz Coefficient of nonlinearity of a phase : 1.247918e+000 First order smothness : 4.408163e-001 Second order smothness : 7.224490e-001
File 08 Доброе утро страна - 100% CDDA [03:10.30]
Detected average hi-boundary frequency : 2.017387e+004 Hz Detected average lo-boundary frequency : 1.256621e+004 Hz Detected average hi-cut frequency : 2.156952e+004 Hz Detected average lo-cut frequency : 9.750910e+003 Hz Maximum probablis boundary frequency : 2.135300e+004 Hz Coefficient of nonlinearity of a phase : 1.142516e+000 First order smothness : 5.022026e-001 Second order smothness : 5.903084e-001
File 09 На посту feat. Maestro A-Sid - 100% CDDA [03:33.00]
Detected average hi-boundary frequency : 2.023022e+004 Hz Detected average lo-boundary frequency : 1.230390e+004 Hz Detected average hi-cut frequency : 2.126218e+004 Hz Detected average lo-cut frequency : 4.718598e+003 Hz Maximum probablis boundary frequency : 2.149800e+004 Hz Coefficient of nonlinearity of a phase : 9.068313e-001 First order smothness : 4.921260e-001 Second order smothness : 3.622047e-001
File 10 О любви - 100% CDDA [04:27.16]
Detected average hi-boundary frequency : 2.016621e+004 Hz Detected average lo-boundary frequency : 1.207115e+004 Hz Detected average hi-cut frequency : 2.142001e+004 Hz Detected average lo-cut frequency : 7.909511e+003 Hz Maximum probablis boundary frequency : 2.189100e+004 Hz Coefficient of nonlinearity of a phase : 6.351114e-001 First order smothness : 3.667712e-001 Second order smothness : 4.231975e-001
File 11 Меломан - 100% CDDA [03:10.49]
Detected average hi-boundary frequency : 2.043286e+004 Hz Detected average lo-boundary frequency : 1.281736e+004 Hz Detected average hi-cut frequency : 2.127333e+004 Hz Detected average lo-cut frequency : 8.530838e+003 Hz Maximum probablis boundary frequency : 2.190200e+004 Hz Coefficient of nonlinearity of a phase : 1.045393e+000 First order smothness : 3.964758e-001 Second order smothness : 5.726872e-001
File 12 Дорога - 99% CDDA [04:39.10]
Detected average hi-boundary frequency : 2.031059e+004 Hz Detected average lo-boundary frequency : 1.227795e+004 Hz Detected average hi-cut frequency : 2.109034e+004 Hz Detected average lo-cut frequency : 7.643670e+003 Hz Maximum probablis boundary frequency : 2.189100e+004 Hz Coefficient of nonlinearity of a phase : 1.184901e+000 First order smothness : 4.744745e-001 Second order smothness : 5.645646e-001
File 13 Imagination - 100% CDDA [02:39.18]
Detected average hi-boundary frequency : 2.012556e+004 Hz Detected average lo-boundary frequency : 1.156637e+004 Hz Detected average hi-cut frequency : 2.128523e+004 Hz Detected average lo-cut frequency : 5.486062e+003 Hz Maximum probablis boundary frequency : 2.189100e+004 Hz Coefficient of nonlinearity of a phase : 1.352749e+000 First order smothness : 4.789474e-001 Second order smothness : 5.105263e-001
File 14 Всё будет хорошо feat. Maestro A-Sid - 100% CDDA [03:11.58]
Detected average hi-boundary frequency : 2.015201e+004 Hz Detected average lo-boundary frequency : 1.311469e+004 Hz Detected average hi-cut frequency : 2.088483e+004 Hz Detected average lo-cut frequency : 9.874173e+003 Hz Maximum probablis boundary frequency : 2.075500e+004 Hz Coefficient of nonlinearity of a phase : 1.001434e+000 First order smothness : 4.061135e-001 Second order smothness : 4.541485e-001
File 15 Через весь город - 100% CDDA [03:29.33]
Detected average hi-boundary frequency : 2.024235e+004 Hz Detected average lo-boundary frequency : 1.317784e+004 Hz Detected average hi-cut frequency : 2.119742e+004 Hz Detected average lo-cut frequency : 1.021642e+004 Hz Maximum probablis boundary frequency : 2.133100e+004 Hz Coefficient of nonlinearity of a phase : 9.908853e-001 First order smothness : 4.200000e-001 Second order smothness : 4.200000e-001
File 16 Кухня-Пати - 100% CDDA [02:59.73]
Detected average hi-boundary frequency : 2.011150e+004 Hz Detected average lo-boundary frequency : 1.443361e+004 Hz Detected average hi-cut frequency : 2.139869e+004 Hz Detected average lo-cut frequency : 6.065456e+003 Hz Maximum probablis boundary frequency : 2.163300e+004 Hz Coefficient of nonlinearity of a phase : 1.188705e+000 First order smothness : 4.558140e-001 Second order smothness : 3.674419e-001
File 17 Не от мира сего - 100% CDDA [03:21.67]
Detected average hi-boundary frequency : 2.048328e+004 Hz Detected average lo-boundary frequency : 1.304265e+004 Hz Detected average hi-cut frequency : 2.155326e+004 Hz Detected average lo-cut frequency : 1.406437e+004 Hz Maximum probablis boundary frequency : 2.125600e+004 Hz Coefficient of nonlinearity of a phase : 4.294970e-001 First order smothness : 4.937759e-001 Second order smothness : 6.348548e-001
File 18 Улыбка принцессы - 100% CDDA [03:40.49]
Detected average hi-boundary frequency : 2.019911e+004 Hz Detected average lo-boundary frequency : 1.208666e+004 Hz Detected average hi-cut frequency : 2.130065e+004 Hz Detected average lo-cut frequency : 6.593110e+003 Hz Maximum probablis boundary frequency : 2.190700e+004 Hz Coefficient of nonlinearity of a phase : 1.417955e+000 First order smothness : 4.182510e-001 Second order smothness : 5.551331e-001
File 19 Оставайся собой - 100% CDDA [03:07.02]
Detected average hi-boundary frequency : 2.010808e+004 Hz Detected average lo-boundary frequency : 1.145102e+004 Hz Detected average hi-cut frequency : 2.095869e+004 Hz Detected average lo-cut frequency : 5.201789e+003 Hz Maximum probablis boundary frequency : 2.171300e+004 Hz Coefficient of nonlinearity of a phase : 5.707783e-001 First order smothness : 4.439462e-001 Second order smothness : 4.260090e-001
File 20 В память о тех днях - 99% CDDA [03:16.00]
Detected average hi-boundary frequency : 2.035988e+004 Hz Detected average lo-boundary frequency : 1.230537e+004 Hz Detected average hi-cut frequency : 2.143746e+004 Hz Detected average lo-cut frequency : 1.329486e+004 Hz Maximum probablis boundary frequency : 2.038900e+004 Hz Coefficient of nonlinearity of a phase : 3.674743e-001 First order smothness : 4.401709e-001 Second order smothness : 6.666667e-001
File 21 Дороги ведут - 100% CDDA [03:15.36]
Detected average hi-boundary frequency : 2.032646e+004 Hz Detected average lo-boundary frequency : 1.377172e+004 Hz Detected average hi-cut frequency : 2.113817e+004 Hz Detected average lo-cut frequency : 6.772179e+003 Hz Maximum probablis boundary frequency : 2.190200e+004 Hz Coefficient of nonlinearity of a phase : 1.095124e+000 First order smothness : 3.819742e-001 Second order smothness : 4.806867e-001
File 22 Аутро - 100% CDDA [01:34.41]
Detected average hi-boundary frequency : 1.996089e+004 Hz Detected average lo-boundary frequency : 1.441333e+004 Hz Detected average hi-cut frequency : 2.092070e+004 Hz Detected average lo-cut frequency : 8.813145e+003 Hz Maximum probablis boundary frequency : 2.189100e+004 Hz Coefficient of nonlinearity of a phase : 1.052173e+000 First order smothness : 4.298246e-001 Second order smothness : 5.438596e-001
----- Summary: -----These tracks looks like CDDA with probability 100%.------------------------------------------------------------------------
ANALYZER: auCDtect: CD records authenticity detector, version 0.8.2 Copyright (c) 2004 Oleg Berngardt. All rights reserved. Copyright (c) 2004 Alexander Djourik. All rights reserved.
Time elapsed: 43.4 sLog created at April 17, 2015 11:57:57
=== 0BC12F74DE910670B914614611E7999416AE2949C17D641DDA3878134768AB52 ===

Скриншот(ы) тегов iTunes

2009 - Krec & Check - Питер-Москва (01:13:42)

Издатель (лейбл): Hip-Hop Place
Треклист:
01. Каждую секунду
02. Скажите да!
03. Когда солнце
04. Чужая страна
05. Мечтаю
06. Странник
07. В урбане ft. Лион
08. Этот мир
09. Листья
10. Среди застывших льдов
11. Прости за всё
12. На крыльях
13. Питер-Москва
14. Улыбки детей!
15. Пока я жив, я буду помнить
16. Я верю
17. Добрый знак
18. Этажи
19. Зелёный мир
20. Я останусь здесь

Лог создания рипа

Exact Audio Copy V1.1 from 23. June 2015
Отчёт EAC об извлечении, выполненном 22. июля 2016, 13:46
Krec & Check / Питер-Москва
Дисковод: HL-DT-STDVDRAM GP60NB50 Adapter: 1 ID: 1
Режим чтения : ДостоверностьИспользование точного потока : ДаОтключение кэша аудио : ДаИспользование указателей C2 : Нет
Коррекция смещения при чтении : 6Способность читать области Lead-in и Lead-out : НетЗаполнение пропущенных сэмплов тишиной : ДаУдаление блоков с тишиной в начале и конце : НетПри вычислениях CRC использовались нулевые сэмплы : ДаИнтерфейс : Встроенный Win32-интерфейс для Win NT/2000Обработка зазоров : Добавлено к предыдущему треку
Выходной формат : Пользовательский кодировщикВыбранный битрейт : 128 kBit/sКачество : ВысокийДобавление ID3-тега : НетУтилита сжатия : C:\Users\Антон\Downloads\Архивы\qaac_2.58\qaac_2.58\x64\refalac64.exeДополнительные параметры : -s --ignorelength --artist "%artist%" --title "%title%" --album "%albumtitle%" --date "%year%" --track "%tracknr%" --genre "%genre%" -o %dest% %source%
TOC извлечённого CD
Трек | Старт | Длительность | Начальный сектор | Конечный сектор --------------------------------------------------------------------- 1 | 0:00.00 | 2:52.51 | 0 | 12950 2 | 2:52.51 | 2:48.72 | 12951 | 25622 3 | 5:41.48 | 3:15.04 | 25623 | 40251 4 | 8:56.52 | 4:02.64 | 40252 | 58465 5 | 12:59.41 | 3:03.48 | 58466 | 72238 6 | 16:03.14 | 3:46.01 | 72239 | 89189 7 | 19:49.15 | 4:55.14 | 89190 | 111328 8 | 24:44.29 | 4:08.74 | 111329 | 130002 9 | 28:53.28 | 2:58.21 | 130003 | 143373 10 | 31:51.49 | 3:25.44 | 143374 | 158792 11 | 35:17.18 | 4:20.51 | 158793 | 178343 12 | 39:37.69 | 3:04.00 | 178344 | 192143 13 | 42:41.69 | 3:53.34 | 192144 | 209652 14 | 46:35.28 | 3:36.54 | 209653 | 225906 15 | 50:12.07 | 3:27.42 | 225907 | 241473 16 | 53:39.49 | 4:13.16 | 241474 | 260464 17 | 57:52.65 | 3:23.09 | 260465 | 275698 18 | 61:15.74 | 3:51.17 | 275699 | 293040 19 | 65:07.16 | 4:02.01 | 293041 | 311191 20 | 69:09.17 | 4:32.55 | 311192 | 331646
Трек 1
Имя файла C:\Users\Антон\Downloads\Музыка\Krec\2009 - Питер-Москва\01 Каждую секунду.wav
Длина предзазора 0:00:02.00
Пиковый уровень 99.9 % Скорость извлечения 2.6 X Качество трека 100.0 % CRC теста E3BF964B CRC копии E3BF964B Трек не обнаружен в базе AccurateRip Копирование... OK
Трек 2
Имя файла C:\Users\Антон\Downloads\Музыка\Krec\2009 - Питер-Москва\02 Скажите да!.wav
Длина предзазора 0:00:02.00
Пиковый уровень 94.4 % Скорость извлечения 2.4 X Качество трека 99.9 % CRC теста 8CA61BC6 CRC копии 8CA61BC6 Трек не обнаружен в базе AccurateRip Копирование... OK
Трек 3
Имя файла C:\Users\Антон\Downloads\Музыка\Krec\2009 - Питер-Москва\03 Когда солнце.wav
Длина предзазора 0:00:02.00
Пиковый уровень 100.0 % Скорость извлечения 3.1 X Качество трека 100.0 % CRC теста 932FE252 CRC копии 932FE252 Трек не обнаружен в базе AccurateRip Копирование... OK
Трек 4
Имя файла C:\Users\Антон\Downloads\Музыка\Krec\2009 - Питер-Москва\04 Чужая страна.wav
Длина предзазора 0:00:02.00
Пиковый уровень 99.9 % Скорость извлечения 3.4 X Качество трека 100.0 % CRC теста DF200EB9 CRC копии DF200EB9 Трек не обнаружен в базе AccurateRip Копирование... OK
Трек 5
Имя файла C:\Users\Антон\Downloads\Музыка\Krec\2009 - Питер-Москва\05 Мечтаю.wav
Длина предзазора 0:00:02.00
Пиковый уровень 99.9 % Скорость извлечения 3.5 X Качество трека 100.0 % CRC теста 5279E20E CRC копии 5279E20E Трек не обнаружен в базе AccurateRip Копирование... OK
Трек 6
Имя файла C:\Users\Антон\Downloads\Музыка\Krec\2009 - Питер-Москва\06 Странник.wav
Длина предзазора 0:00:02.00
Пиковый уровень 100.0 % Скорость извлечения 3.7 X Качество трека 100.0 % CRC теста 27AF65DF CRC копии 27AF65DF Трек не обнаружен в базе AccurateRip Копирование... OK
Трек 7
Имя файла C:\Users\Антон\Downloads\Музыка\Krec\2009 - Питер-Москва\07 В урбане ft. Лион.wav
Длина предзазора 0:00:02.00
Пиковый уровень 99.9 % Скорость извлечения 4.1 X Качество трека 100.0 % CRC теста E215C6BB CRC копии E215C6BB Трек не обнаружен в базе AccurateRip Копирование... OK
Трек 8
Имя файла C:\Users\Антон\Downloads\Музыка\Krec\2009 - Питер-Москва\08 Этот мир.wav
Длина предзазора 0:00:02.00
Пиковый уровень 99.9 % Скорость извлечения 1.6 X Качество трека 99.9 % CRC теста 7C052565 CRC копии 7C052565 Трек не обнаружен в базе AccurateRip Копирование... OK
Трек 9
Имя файла C:\Users\Антон\Downloads\Музыка\Krec\2009 - Питер-Москва\09 Листья.wav
Длина предзазора 0:00:02.00
Пиковый уровень 99.9 % Скорость извлечения 3.6 X Качество трека 99.9 % CRC теста 33B6FFF9 CRC копии 33B6FFF9 Трек не обнаружен в базе AccurateRip Копирование... OK
Трек 10
Имя файла C:\Users\Антон\Downloads\Музыка\Krec\2009 - Питер-Москва\10 Среди застывших льдов.wav
Длина предзазора 0:00:02.00
Пиковый уровень 100.0 % Скорость извлечения 1.9 X Качество трека 100.0 % CRC теста 4BA6FDB7 CRC копии 4BA6FDB7 Трек не обнаружен в базе AccurateRip Копирование... OK
Трек 11
Имя файла C:\Users\Антон\Downloads\Музыка\Krec\2009 - Питер-Москва\11 Прости за всё.wav
Длина предзазора 0:00:02.00
Пиковый уровень 99.9 % Скорость извлечения 2.0 X Качество трека 100.0 % CRC теста 64AFC52D CRC копии 64AFC52D Трек не обнаружен в базе AccurateRip Копирование... OK
Трек 12
Имя файла C:\Users\Антон\Downloads\Музыка\Krec\2009 - Питер-Москва\12 На крыльях.wav
Длина предзазора 0:00:02.00
Пиковый уровень 99.9 % Скорость извлечения 2.0 X Качество трека 100.0 % CRC теста DD0A2C87 CRC копии DD0A2C87 Трек не обнаружен в базе AccurateRip Копирование... OK
Трек 13
Имя файла C:\Users\Антон\Downloads\Музыка\Krec\2009 - Питер-Москва\13 Питер-Москва.wav
Длина предзазора 0:00:02.00
Пиковый уровень 99.9 % Скорость извлечения 2.1 X Качество трека 100.0 % CRC теста 0955D500 CRC копии 0955D500 Трек не обнаружен в базе AccurateRip Копирование... OK
Трек 14
Имя файла C:\Users\Антон\Downloads\Музыка\Krec\2009 - Питер-Москва\14 Улыбки детей!.wav
Длина предзазора 0:00:02.00
Пиковый уровень 99.9 % Скорость извлечения 2.2 X Качество трека 100.0 % CRC теста 41CD36F6 CRC копии 41CD36F6 Трек не обнаружен в базе AccurateRip Копирование... OK
Трек 15
Имя файла C:\Users\Антон\Downloads\Музыка\Krec\2009 - Питер-Москва\15 Пока я жив, я буду помнить.wav
Длина предзазора 0:00:02.00
Пиковый уровень 99.9 % Скорость извлечения 2.2 X Качество трека 100.0 % CRC теста 6B452CDF CRC копии 6B452CDF Трек не обнаружен в базе AccurateRip Копирование... OK
Трек 16
Имя файла C:\Users\Антон\Downloads\Музыка\Krec\2009 - Питер-Москва\16 Я верю.wav
Длина предзазора 0:00:02.00
Пиковый уровень 99.9 % Скорость извлечения 2.3 X Качество трека 100.0 % CRC теста 201A5E66 CRC копии 201A5E66 Трек не обнаружен в базе AccurateRip Копирование... OK
Трек 17
Имя файла C:\Users\Антон\Downloads\Музыка\Krec\2009 - Питер-Москва\17 Добрый знак.wav
Длина предзазора 0:00:02.00
Пиковый уровень 99.9 % Скорость извлечения 2.3 X Качество трека 100.0 % CRC теста 697F84B6 CRC копии 697F84B6 Трек не обнаружен в базе AccurateRip Копирование... OK
Трек 18
Имя файла C:\Users\Антон\Downloads\Музыка\Krec\2009 - Питер-Москва\18 Этажи.wav
Длина предзазора 0:00:02.00
Пиковый уровень 99.9 % Скорость извлечения 2.5 X Качество трека 100.0 % CRC теста AA8E4C01 CRC копии AA8E4C01 Трек не обнаружен в базе AccurateRip Копирование... OK
Трек 19
Имя файла C:\Users\Антон\Downloads\Музыка\Krec\2009 - Питер-Москва\19 Зелёный мир.wav
Длина предзазора 0:00:02.00
Пиковый уровень 99.9 % Скорость извлечения 2.2 X Качество трека 99.9 % CRC теста F7845F49 CRC копии F7845F49 Трек не обнаружен в базе AccurateRip Копирование... OK
Трек 20
Имя файла C:\Users\Антон\Downloads\Музыка\Krec\2009 - Питер-Москва\20 Я останусь здесь.wav
Длина предзазора 0:00:02.00
Пиковый уровень 100.0 % Скорость извлечения 2.6 X Качество трека 100.0 % CRC теста 47249A60 CRC копии 47249A60 Трек не обнаружен в базе AccurateRip Копирование... OK
Ни одного трека нет в базе AccurateRip
Ошибок не произошло
Конец отчёта
---- CUETools DB Plugin V2.1.6
[CTDB TOCID: XapUKowk3Q5KYeaE7iABbHmq.pE-] foundSubmit result: already submittedTrack | CTDB Status 1 | (1/1) Accurately ripped 2 | (1/1) Accurately ripped 3 | (1/1) Accurately ripped 4 | (1/1) Accurately ripped 5 | (1/1) Accurately ripped 6 | (1/1) Accurately ripped 7 | (1/1) Accurately ripped 8 | (1/1) Accurately ripped 9 | (1/1) Accurately ripped 10 | (1/1) Accurately ripped 11 | (1/1) Accurately ripped 12 | (1/1) Accurately ripped 13 | (1/1) Accurately ripped 14 | (1/1) Accurately ripped 15 | (1/1) Accurately ripped 16 | (1/1) Accurately ripped 17 | (1/1) Accurately ripped 18 | (1/1) Accurately ripped 19 | (1/1) Accurately ripped 20 | (1/1) Accurately ripped
==== Контрольная сумма отчёта D5C374E76E41B2050879030D4B041EC04FD7F66594EFD05FD0305CCEBEE661D1 ====

Содержание индексной карты (.CUE)

REM GENRE RapREM DATE 2009REM DISCID 2E114514REM COMMENT "ExactAudioCopy v1.1"PERFORMER "Krec & Check"TITLE "Питер-Москва"FILE "01 Каждую секунду.wav" WAVE TRACK 01 AUDIO TITLE "Каждую секунду" PERFORMER "Krec & Check" INDEX 01 00:00:00 TRACK 02 AUDIO TITLE "Скажите да!" PERFORMER "Krec & Check" INDEX 00 02:50:51FILE "02 Скажите да!.wav" WAVE INDEX 01 00:00:00 TRACK 03 AUDIO TITLE "Когда солнце" PERFORMER "Krec & Check" INDEX 00 02:46:72FILE "03 Когда солнце.wav" WAVE INDEX 01 00:00:00 TRACK 04 AUDIO TITLE "Чужая страна" PERFORMER "Krec & Check" INDEX 00 03:13:04FILE "04 Чужая страна.wav" WAVE INDEX 01 00:00:00 TRACK 05 AUDIO TITLE "Мечтаю" PERFORMER "Krec & Check" INDEX 00 04:00:64FILE "05 Мечтаю.wav" WAVE INDEX 01 00:00:00 TRACK 06 AUDIO TITLE "Странник" PERFORMER "Krec & Check" INDEX 00 03:01:48FILE "06 Странник.wav" WAVE INDEX 01 00:00:00 TRACK 07 AUDIO TITLE "В урбане ft. Лион" PERFORMER "Krec & Check" INDEX 00 03:44:01FILE "07 В урбане ft. Лион.wav" WAVE INDEX 01 00:00:00 TRACK 08 AUDIO TITLE "Этот мир" PERFORMER "Krec & Check" INDEX 00 04:53:14FILE "08 Этот мир.wav" WAVE INDEX 01 00:00:00 TRACK 09 AUDIO TITLE "Листья" PERFORMER "Krec & Check" INDEX 00 04:06:74FILE "09 Листья.wav" WAVE INDEX 01 00:00:00 TRACK 10 AUDIO TITLE "Среди застывших льдов" PERFORMER "Krec & Check" INDEX 00 02:56:21FILE "10 Среди застывших льдов.wav" WAVE INDEX 01 00:00:00 TRACK 11 AUDIO TITLE "Прости за всё" PERFORMER "Krec & Check" INDEX 00 03:23:44FILE "11 Прости за всё.wav" WAVE INDEX 01 00:00:00 TRACK 12 AUDIO TITLE "На крыльях" PERFORMER "Krec & Check" INDEX 00 04:18:51FILE "12 На крыльях.wav" WAVE INDEX 01 00:00:00 TRACK 13 AUDIO TITLE "Питер-Москва" PERFORMER "Krec & Check" INDEX 00 03:02:00FILE "13 Питер-Москва.wav" WAVE INDEX 01 00:00:00 TRACK 14 AUDIO TITLE "Улыбки детей!" PERFORMER "Krec & Check" INDEX 00 03:51:34FILE "14 Улыбки детей!.wav" WAVE INDEX 01 00:00:00 TRACK 15 AUDIO TITLE "Пока я жив, я буду помнить" PERFORMER "Krec & Check" INDEX 00 03:34:54FILE "15 Пока я жив, я буду помнить.wav" WAVE INDEX 01 00:00:00 TRACK 16 AUDIO TITLE "Я верю" PERFORMER "Krec & Check" INDEX 00 03:25:42FILE "16 Я верю.wav" WAVE INDEX 01 00:00:00 TRACK 17 AUDIO TITLE "Добрый знак" PERFORMER "Krec & Check" INDEX 00 04:11:16FILE "17 Добрый знак.wav" WAVE INDEX 01 00:00:00 TRACK 18 AUDIO TITLE "Этажи" PERFORMER "Krec & Check" INDEX 00 03:21:09FILE "18 Этажи.wav" WAVE INDEX 01 00:00:00 TRACK 19 AUDIO TITLE "Зелёный мир" PERFORMER "Krec & Check" INDEX 00 03:49:17FILE "19 Зелёный мир.wav" WAVE INDEX 01 00:00:00 TRACK 20 AUDIO TITLE "Я останусь здесь" PERFORMER "Krec & Check" INDEX 00 04:00:01FILE "20 Я останусь здесь.wav" WAVE INDEX 01 00:00:00

Лог проверки качества

CUE Corrector v. 7.7.8 / b. 676 (Jul. 20, 2016)————————————————————————————————————————————————————————————————————————--- / Питер-Москва
Folder: 2009 - Питер-МоскваAudio files: 01 Каждую секунду.m4a [02:52.51; ALAC • 856 kbps • 16 bit \ 44100 Hz • stereo; 17,65 MB (18 507 127 bytes)] 02 Скажите да!.m4a [02:48.72; ALAC • 971 kbps • 16 bit \ 44100 Hz • stereo; 19,59 MB (20 539 205 bytes)] 03 Когда солнце.m4a [03:15.04; ALAC • 922 kbps • 16 bit \ 44100 Hz • stereo; 21,46 MB (22 507 257 bytes)] 04 Чужая страна.m4a [04:02.64; ALAC • 853 kbps • 16 bit \ 44100 Hz • stereo; 24,72 MB (25 919 270 bytes)] 05 Мечтаю.m4a [03:03.48; ALAC • 893 kbps • 16 bit \ 44100 Hz • stereo; 19,56 MB (20 512 597 bytes)] 06 Странник.m4a [03:46.01; ALAC • 873 kbps • 16 bit \ 44100 Hz • stereo; 23,54 MB (24 683 673 bytes)] 07 В урбане ft. Лион.m4a [04:55.14; ALAC • 968 kbps • 16 bit \ 44100 Hz • stereo; 34,11 MB (35 769 150 bytes)] 08 Этот мир.m4a [04:08.74; ALAC • 933 kbps • 16 bit \ 44100 Hz • stereo; 27,72 MB (29 063 736 bytes)] 09 Листья.m4a [02:58.21; ALAC • 838 kbps • 16 bit \ 44100 Hz • stereo; 17,84 MB (18 701 502 bytes)] 10 Среди застывших льдов.m4a [03:25.44; ALAC • 943 kbps • 16 bit \ 44100 Hz • stereo; 23,14 MB (24 264 850 bytes)] 11 Прости за всё.m4a [04:20.51; ALAC • 950 kbps • 16 bit \ 44100 Hz • stereo; 29,56 MB (30 990 919 bytes)] 12 На крыльях.m4a [03:04.00; ALAC • 938 kbps • 16 bit \ 44100 Hz • stereo; 20,60 MB (21 602 528 bytes)] 13 Питер-Москва.m4a [03:53.34; ALAC • 886 kbps • 16 bit \ 44100 Hz • stereo; 24,69 MB (25 889 077 bytes)] 14 Улыбки детей!.m4a [03:36.54; ALAC • 875 kbps • 16 bit \ 44100 Hz • stereo; 22,62 MB (23 718 128 bytes)] 15 Пока я жив, я буду помнить.m4a [03:27.42; ALAC • 946 kbps • 16 bit \ 44100 Hz • stereo; 23,44 MB (24 575 735 bytes)] 16 Я верю.m4a [04:13.16; ALAC • 853 kbps • 16 bit \ 44100 Hz • stereo; 25,78 MB (27 028 161 bytes)] 17 Добрый знак.m4a [03:23.09; ALAC • 960 kbps • 16 bit \ 44100 Hz • stereo; 23,27 MB (24 400 968 bytes)] 18 Этажи.m4a [03:51.17; ALAC • 893 kbps • 16 bit \ 44100 Hz • stereo; 24,65 MB (25 851 625 bytes)] 19 Зелёный мир.m4a [04:02.01; ALAC • 859 kbps • 16 bit \ 44100 Hz • stereo; 24,81 MB (26 016 760 bytes)] 20 Я останусь здесь.m4a [04:32.55; ALAC • 882 kbps • 16 bit \ 44100 Hz • stereo; 28,70 MB (30 093 368 bytes)]
Accuracy: -m8
File 01 Каждую секунду - 100% CDDA [02:52.51]
Detected average hi-boundary frequency : 2.018262e+004 Hz Detected average lo-boundary frequency : 1.229971e+004 Hz Detected average hi-cut frequency : 2.159212e+004 Hz Detected average lo-cut frequency : 9.951031e+003 Hz Maximum probablis boundary frequency : 2.192900e+004 Hz Coefficient of nonlinearity of a phase : 6.221055e-001 First order smothness : 4.950980e-001 Second order smothness : 4.754902e-001
File 02 Скажите да! - 100% CDDA [02:48.72]
Detected average hi-boundary frequency : 2.015447e+004 Hz Detected average lo-boundary frequency : 1.233925e+004 Hz Detected average hi-cut frequency : 2.144572e+004 Hz Detected average lo-cut frequency : 7.570120e+003 Hz Maximum probablis boundary frequency : 2.190200e+004 Hz Coefficient of nonlinearity of a phase : 3.133827e-001 First order smothness : 4.450000e-001 Second order smothness : 5.000000e-001
File 03 Когда солнце - 100% CDDA [03:15.04]
Detected average hi-boundary frequency : 2.036489e+004 Hz Detected average lo-boundary frequency : 1.288614e+004 Hz Detected average hi-cut frequency : 2.143397e+004 Hz Detected average lo-cut frequency : 1.276086e+004 Hz Maximum probablis boundary frequency : 2.095400e+004 Hz Coefficient of nonlinearity of a phase : 3.860118e-001 First order smothness : 4.805195e-001 Second order smothness : 6.190476e-001
File 04 Чужая страна - 100% CDDA [04:02.64]
Detected average hi-boundary frequency : 2.013543e+004 Hz Detected average lo-boundary frequency : 1.267774e+004 Hz Detected average hi-cut frequency : 2.137010e+004 Hz Detected average lo-cut frequency : 6.931967e+003 Hz Maximum probablis boundary frequency : 2.190700e+004 Hz Coefficient of nonlinearity of a phase : 5.666460e-001 First order smothness : 4.463668e-001 Second order smothness : 5.224913e-001
File 05 Мечтаю - 100% CDDA [03:03.48]
Detected average hi-boundary frequency : 2.030603e+004 Hz Detected average lo-boundary frequency : 1.296346e+004 Hz Detected average hi-cut frequency : 2.155403e+004 Hz Detected average lo-cut frequency : 1.054765e+004 Hz Maximum probablis boundary frequency : 2.189600e+004 Hz Coefficient of nonlinearity of a phase : 1.134219e+000 First order smothness : 4.908257e-001 Second order smothness : 5.045872e-001
File 06 Странник - 100% CDDA [03:46.01]
Detected average hi-boundary frequency : 2.013775e+004 Hz Detected average lo-boundary frequency : 1.334055e+004 Hz Detected average hi-cut frequency : 2.163983e+004 Hz Detected average lo-cut frequency : 8.459800e+003 Hz Maximum probablis boundary frequency : 2.142800e+004 Hz Coefficient of nonlinearity of a phase : 6.393226e-001 First order smothness : 4.962687e-001 Second order smothness : 5.223881e-001
File 07 В урбане ft. Лион - 100% CDDA [04:55.14]
Detected average hi-boundary frequency : 2.043236e+004 Hz Detected average lo-boundary frequency : 1.239567e+004 Hz Detected average hi-cut frequency : 2.088334e+004 Hz Detected average lo-cut frequency : 1.011783e+004 Hz Maximum probablis boundary frequency : 2.180000e+004 Hz Coefficient of nonlinearity of a phase : 6.417110e-001 First order smothness : 4.586895e-001 Second order smothness : 4.615385e-001
File 08 Этот мир - 99% CDDA [04:08.74]
Detected average hi-boundary frequency : 2.071043e+004 Hz Detected average lo-boundary frequency : 1.282027e+004 Hz Detected average hi-cut frequency : 2.145811e+004 Hz Detected average lo-cut frequency : 1.577387e+004 Hz Maximum probablis boundary frequency : 2.166500e+004 Hz Coefficient of nonlinearity of a phase : 6.500375e-001 First order smothness : 4.695946e-001 Second order smothness : 7.905405e-001
File 09 Листья - 100% CDDA [02:58.21]
Detected average hi-boundary frequency : 2.020359e+004 Hz Detected average lo-boundary frequency : 1.295936e+004 Hz Detected average hi-cut frequency : 2.147174e+004 Hz Detected average lo-cut frequency : 6.482925e+003 Hz Maximum probablis boundary frequency : 2.190700e+004 Hz Coefficient of nonlinearity of a phase : 8.963933e-001 First order smothness : 5.402844e-001 Second order smothness : 4.407583e-001
File 10 Среди застывших льдов - 99% CDDA [03:25.44]
Detected average hi-boundary frequency : 2.049027e+004 Hz Detected average lo-boundary frequency : 1.234800e+004 Hz Detected average hi-cut frequency : 2.152353e+004 Hz Detected average lo-cut frequency : 1.475005e+004 Hz Maximum probablis boundary frequency : 2.028700e+004 Hz Coefficient of nonlinearity of a phase : 1.644919e-001 First order smothness : 3.647541e-001 Second order smothness : 6.885246e-001
File 11 Прости за всё - 100% CDDA [04:20.51]
Detected average hi-boundary frequency : 2.050433e+004 Hz Detected average lo-boundary frequency : 1.330129e+004 Hz Detected average hi-cut frequency : 2.163395e+004 Hz Detected average lo-cut frequency : 1.695494e+004 Hz Maximum probablis boundary frequency : 1.971600e+004 Hz Coefficient of nonlinearity of a phase : 1.213653e+000 First order smothness : 3.612903e-001 Second order smothness : 7.612903e-001
File 12 На крыльях - 100% CDDA [03:04.00]
Detected average hi-boundary frequency : 2.005825e+004 Hz Detected average lo-boundary frequency : 1.291835e+004 Hz Detected average hi-cut frequency : 2.151845e+004 Hz Detected average lo-cut frequency : 9.584612e+003 Hz Maximum probablis boundary frequency : 2.191800e+004 Hz Coefficient of nonlinearity of a phase : 8.240079e-001 First order smothness : 3.853211e-001 Second order smothness : 5.321101e-001
File 13 Питер-Москва - 100% CDDA [03:53.34]
Detected average hi-boundary frequency : 2.017574e+004 Hz Detected average lo-boundary frequency : 1.276523e+004 Hz Detected average hi-cut frequency : 2.148960e+004 Hz Detected average lo-cut frequency : 5.984725e+003 Hz Maximum probablis boundary frequency : 2.189100e+004 Hz Coefficient of nonlinearity of a phase : 1.380861e+000 First order smothness : 3.898917e-001 Second order smothness : 4.729242e-001
File 14 Улыбки детей! - 100% CDDA [03:36.54]
Detected average hi-boundary frequency : 2.040352e+004 Hz Detected average lo-boundary frequency : 1.192307e+004 Hz Detected average hi-cut frequency : 2.116717e+004 Hz Detected average lo-cut frequency : 7.571542e+003 Hz Maximum probablis boundary frequency : 2.189100e+004 Hz Coefficient of nonlinearity of a phase : 1.056636e+000 First order smothness : 4.630350e-001 Second order smothness : 4.591440e-001
File 15 Пока я жив, я буду помнить - 100% CDDA [03:27.42]
Detected average hi-boundary frequency : 2.059763e+004 Hz Detected average lo-boundary frequency : 1.358821e+004 Hz Detected average hi-cut frequency : 2.158942e+004 Hz Detected average lo-cut frequency : 1.436551e+004 Hz Maximum probablis boundary frequency : 2.191800e+004 Hz Coefficient of nonlinearity of a phase : 3.020263e-001 First order smothness : 4.834711e-001 Second order smothness : 6.280992e-001
File 16 Я верю - 100% CDDA [04:13.16]
Detected average hi-boundary frequency : 2.043743e+004 Hz Detected average lo-boundary frequency : 1.547226e+004 Hz Detected average hi-cut frequency : 2.135148e+004 Hz Detected average lo-cut frequency : 1.437961e+004 Hz Maximum probablis boundary frequency : 2.189100e+004 Hz Coefficient of nonlinearity of a phase : 5.842549e-002 First order smothness : 5.946844e-001 Second order smothness : 7.176080e-001
File 17 Добрый знак - 100% CDDA [03:23.09]
Detected average hi-boundary frequency : 2.011533e+004 Hz Detected average lo-boundary frequency : 1.221262e+004 Hz Detected average hi-cut frequency : 2.163319e+004 Hz Detected average lo-cut frequency : 7.497326e+003 Hz Maximum probablis boundary frequency : 2.189600e+004 Hz Coefficient of nonlinearity of a phase : 5.838186e-001 First order smothness : 3.900415e-001 Second order smothness : 5.477178e-001
File 18 Этажи - 100% CDDA [03:51.17]
Detected average hi-boundary frequency : 2.018056e+004 Hz Detected average lo-boundary frequency : 1.288867e+004 Hz Detected average hi-cut frequency : 2.132173e+004 Hz Detected average lo-cut frequency : 9.381248e+003 Hz Maximum probablis boundary frequency : 2.189100e+004 Hz Coefficient of nonlinearity of a phase : 1.429675e+000 First order smothness : 4.509091e-001 Second order smothness : 4.836364e-001
File 19 Зелёный мир - 100% CDDA [04:02.01]
Detected average hi-boundary frequency : 2.023674e+004 Hz Detected average lo-boundary frequency : 1.290356e+004 Hz Detected average hi-cut frequency : 2.140510e+004 Hz Detected average lo-cut frequency : 1.297867e+004 Hz Maximum probablis boundary frequency : 2.190200e+004 Hz Coefficient of nonlinearity of a phase : 8.761175e-001 First order smothness : 5.104167e-001 Second order smothness : 5.763889e-001
File 20 Я останусь здесь - 100% CDDA [04:32.55]
Detected average hi-boundary frequency : 2.025502e+004 Hz Detected average lo-boundary frequency : 1.289549e+004 Hz Detected average hi-cut frequency : 2.138464e+004 Hz Detected average lo-cut frequency : 8.017373e+003 Hz Maximum probablis boundary frequency : 2.134200e+004 Hz Coefficient of nonlinearity of a phase : 7.048026e-001 First order smothness : 4.770642e-001 Second order smothness : 3.853211e-001
————— Summary: —————These tracks looks like CDDA with probability 100%.————————————————————————————————————————————————————————————————————————
ANALYZER: auCDtect: CD records authenticity detector, version 0.8.2 Copyright (c) 2004 Oleg Berngardt. All rights reserved. Copyright (c) 2004 Alexander Djourik. All rights reserved.
Time elapsed: 1 m 33 sLog created at July 22, 2016 13:52:04
=== 1640F92E6C8154F764B41C321661289B7109830244EB706CD5CBF3EB290B3ECC ===

Скриншот(ы) тегов iTunes

Об альбоме (сборнике)

Пятый студийный альбом питерской группы KRec, вышедший 10 декабря 2009 года. Летом 2009 года Ассаи официально объявил об уходе из группы Krec, и в группе остались только Фьюз (он же Гризли) и Марат. Альбом, как дорогущее вино: стоит бешеных денег, а на вкус, как обычное. Но гурманы понимают истинное отличие. Альбом не для поклонников пикового прошлого Krec’a, времен Ассаи, а скорее всего для тех, кто чувствовал вкус "Вторжения" или "Меломана”. Если абстрактно, то альбом для людей не только с пропиской в Москве или Питере, он для ценителей, гуляющих маршрутами ветра.

2012 - Молча проще (00:44:44)

Издатель (лейбл): ООО ''Союз МэдСтайл Менеджмент''
Треклист:
01. Слово
02. Монолит
03. На прочность
04. Новый порядок
05. В каждом из нас
06. Лес
07. Молча проще
08. В никуда
09. Навигатор
10. Мой город
11. Время
12. По кругу
13. Огонь

Лог создания рипа

Exact Audio Copy V1.0 beta 4 from 7. December 2014
Отчёт EAC об извлечении, выполненном 17. апреля 2015, 11:52
Krec / Молча проще
Дисковод: HL-DT-STDVDRAM GP60NB50 Adapter: 1 ID: 0
Режим чтения : Достоверность
Использование точного потока : Да
Отключение кэша аудио : Да
Использование указателей C2 : Нет
Коррекция смещения при чтении : 6
Способность читать области Lead-in и Lead-out : Нет
Заполнение пропущенных сэмплов тишиной : Да
Удаление блоков с тишиной в начале и конце : Нет
При вычислениях CRC использовались нулевые сэмплы : Да
Интерфейс : Встроенный Win32-интерфейс для Win NT/2000
Обработка зазоров : Добавлено к предыдущему треку
Выходной формат : Пользовательский кодировщик
Выбранный битрейт : 896 kBit/s
Качество : Высокий
Добавление ID3-тега : Нет
Утилита сжатия : C:\Program Files (x86)\Exact Audio Copy\refalac_1.46\x64\refalac64.exe
Дополнительные параметры : -s --ignorelength --artist "%artist%" --title "%title%" --album "%albumtitle%" --date "%year%" --track "%tracknr%" --genre "%genre%" -o %dest% %source%
TOC извлечённого CD
Трек | Старт | Длительность | Начальный сектор | Конечный сектор
---------------------------------------------------------------------
1 | 0:00.00 | 3:00.68 | 0 | 13567
2 | 3:00.68 | 3:06.02 | 13568 | 27519
3 | 6:06.70 | 2:43.40 | 27520 | 39784
4 | 8:50.35 | 3:32.34 | 39785 | 55718
5 | 12:22.69 | 3:45.10 | 55719 | 72603
6 | 16:08.04 | 3:32.07 | 72604 | 88510
7 | 19:40.11 | 3:30.70 | 88511 | 104330
8 | 23:11.06 | 3:12.59 | 104331 | 118789
9 | 26:23.65 | 3:38.46 | 118790 | 135185
10 | 30:02.36 | 3:08.53 | 135186 | 149338
11 | 33:11.14 | 4:21.47 | 149339 | 168960
12 | 37:32.61 | 3:23.25 | 168961 | 184210
13 | 40:56.11 | 3:47.25 | 184211 | 201260
Трек 1
Имя файла C:\Users\Home\Downloads\Музыка\Krec\Молча проще\01 Слово.wav
Длина предзазора 0:00:02.00
Пиковый уровень 99.8 %
Скорость извлечения 0.9 X
Качество трека 99.9 %
CRC теста 32261B40
CRC копии 32261B40
Точное извлечение (достоверность 1) [4302EA6F] (AR v2)
Копирование... OK
Трек 2
Имя файла C:\Users\Home\Downloads\Музыка\Krec\Молча проще\02 Монолит.wav
Длина предзазора 0:00:01.00
Пиковый уровень 99.9 %
Скорость извлечения 1.2 X
Качество трека 100.0 %
CRC теста 75CA7808
CRC копии 75CA7808
Точное извлечение (достоверность 1) [83651363] (AR v2)
Копирование... OK
Трек 3
Имя файла C:\Users\Home\Downloads\Музыка\Krec\Молча проще\03 На прочность.wav
Длина предзазора 0:00:01.00
Пиковый уровень 99.8 %
Скорость извлечения 1.2 X
Качество трека 100.0 %
CRC теста FF909269
CRC копии FF909269
Точное извлечение (достоверность 1) [505A7A94] (AR v2)
Копирование... OK
Трек 4
Имя файла C:\Users\Home\Downloads\Музыка\Krec\Молча проще\04 Новый порядок.wav
Длина предзазора 0:00:01.00
Пиковый уровень 98.2 %
Скорость извлечения 1.2 X
Качество трека 99.9 %
CRC теста D0533CB2
CRC копии D0533CB2
Точное извлечение (достоверность 1) [6D3F491C] (AR v2)
Копирование... OK
Трек 5
Имя файла C:\Users\Home\Downloads\Музыка\Krec\Молча проще\05 В каждом из нас.wav
Длина предзазора 0:00:01.00
Пиковый уровень 99.9 %
Скорость извлечения 1.5 X
Качество трека 100.0 %
CRC теста 32CE4EBD
CRC копии 32CE4EBD
Точное извлечение (достоверность 1) [CF32A6A6] (AR v2)
Копирование... OK
Трек 6
Имя файла C:\Users\Home\Downloads\Музыка\Krec\Молча проще\06 Лес.wav
Длина предзазора 0:00:01.00
Пиковый уровень 98.1 %
Скорость извлечения 1.5 X
Качество трека 100.0 %
CRC теста 2B1F54F5
CRC копии 2B1F54F5
Точное извлечение (достоверность 1) [D49DB2D9] (AR v2)
Копирование... OK
Трек 7
Имя файла C:\Users\Home\Downloads\Музыка\Krec\Молча проще\07 Молча проще.wav
Длина предзазора 0:00:01.00
Пиковый уровень 99.8 %
Скорость извлечения 1.6 X
Качество трека 100.0 %
CRC теста F303B56A
CRC копии F303B56A
Точное извлечение (достоверность 1) [16F7414E] (AR v2)
Копирование... OK
Трек 8
Имя файла C:\Users\Home\Downloads\Музыка\Krec\Молча проще\08 В никуда.wav
Длина предзазора 0:00:01.00
Пиковый уровень 97.6 %
Скорость извлечения 1.7 X
Качество трека 100.0 %
CRC теста 437C6D40
CRC копии 437C6D40
Точное извлечение (достоверность 1) [41119BA5] (AR v2)
Копирование... OK
Трек 9
Имя файла C:\Users\Home\Downloads\Музыка\Krec\Молча проще\09 Навигатор.wav
Длина предзазора 0:00:01.00
Пиковый уровень 97.5 %
Скорость извлечения 1.8 X
Качество трека 100.0 %
CRC теста E44C3B35
CRC копии E44C3B35
Точное извлечение (достоверность 1) [69837906] (AR v2)
Копирование... OK
Трек 10
Имя файла C:\Users\Home\Downloads\Музыка\Krec\Молча проще\10 Мой город.wav
Длина предзазора 0:00:01.00
Пиковый уровень 99.2 %
Скорость извлечения 1.8 X
Качество трека 100.0 %
CRC теста 712FBB23
CRC копии 712FBB23
Точное извлечение (достоверность 1) [6277A021] (AR v2)
Копирование... OK
Трек 11
Имя файла C:\Users\Home\Downloads\Музыка\Krec\Молча проще\11 Время.wav
Длина предзазора 0:00:01.00
Пиковый уровень 95.7 %
Скорость извлечения 1.7 X
Качество трека 99.9 %
CRC теста E13586F9
CRC копии E13586F9
Точное извлечение (достоверность 1) [AEF54638] (AR v2)
Копирование... OK
Трек 12
Имя файла C:\Users\Home\Downloads\Музыка\Krec\Молча проще\12 По кругу.wav
Длина предзазора 0:00:01.00
Пиковый уровень 99.8 %
Скорость извлечения 2.0 X
Качество трека 100.0 %
CRC теста 14EC21D8
CRC копии 14EC21D8
Точное извлечение (достоверность 1) [1CABECC0] (AR v2)
Копирование... OK
Трек 13
Имя файла C:\Users\Home\Downloads\Музыка\Krec\Молча проще\13 Огонь.wav
Длина предзазора 0:00:01.00
Пиковый уровень 98.7 %
Скорость извлечения 2.1 X
Качество трека 100.0 %
CRC теста C8A83C5B
CRC копии C8A83C5B
Точное извлечение (достоверность 1) [233CE206] (AR v2)
Копирование... OK
Все треки извлечены точно
Ошибок не произошло
Конец отчёта
---- CUETools DB Plugin V2.1.4
[CTDB TOCID: C_qmTqDF0Rbr3XDVr8bPgjgt.Mc-] found
Submit result: C_qmTqDF0Rbr3XDVr8bPgjgt.Mc- has been confirmed
Track | CTDB Status
1 | (2/2) Accurately ripped
2 | (2/2) Accurately ripped
3 | (2/2) Accurately ripped
4 | (2/2) Accurately ripped
5 | (2/2) Accurately ripped
6 | (2/2) Accurately ripped
7 | (2/2) Accurately ripped
8 | (2/2) Accurately ripped
9 | (2/2) Accurately ripped
10 | (2/2) Accurately ripped
11 | (2/2) Accurately ripped
12 | (2/2) Accurately ripped
13 | (2/2) Accurately ripped
==== Контрольная сумма отчёта 3EE144ACE3F990AC86747D4BC9A0FEE0185741CB5C8C1B9C94796B05D527994B ====

Содержание индексной карты (.CUE)

REM GENRE RapREM DATE 2012REM DISCID B90A7B0DREM COMMENT "ExactAudioCopy v1.0b4"PERFORMER "Krec"TITLE "Молча проще"FILE "01 Слово.wav" WAVE TRACK 01 AUDIO TITLE "Слово" PERFORMER "Krec" FLAGS DCP INDEX 01 00:00:00 TRACK 02 AUDIO TITLE "Монолит" PERFORMER "Krec" FLAGS DCP INDEX 00 02:59:68FILE "02 Монолит.wav" WAVE INDEX 01 00:00:00 TRACK 03 AUDIO TITLE "На прочность" PERFORMER "Krec" FLAGS DCP INDEX 00 03:05:02FILE "03 На прочность.wav" WAVE INDEX 01 00:00:00 TRACK 04 AUDIO TITLE "Новый порядок" PERFORMER "Krec" FLAGS DCP INDEX 00 02:42:40FILE "04 Новый порядок.wav" WAVE INDEX 01 00:00:00 TRACK 05 AUDIO TITLE "В каждом из нас" PERFORMER "Krec" FLAGS DCP INDEX 00 03:31:34FILE "05 В каждом из нас.wav" WAVE INDEX 01 00:00:00 TRACK 06 AUDIO TITLE "Лес" PERFORMER "Krec" FLAGS DCP INDEX 00 03:44:10FILE "06 Лес.wav" WAVE INDEX 01 00:00:00 TRACK 07 AUDIO TITLE "Молча проще" PERFORMER "Krec" FLAGS DCP INDEX 00 03:31:07FILE "07 Молча проще.wav" WAVE INDEX 01 00:00:00 TRACK 08 AUDIO TITLE "В никуда" PERFORMER "Krec" FLAGS DCP INDEX 00 03:29:70FILE "08 В никуда.wav" WAVE INDEX 01 00:00:00 TRACK 09 AUDIO TITLE "Навигатор" PERFORMER "Krec" FLAGS DCP INDEX 00 03:11:59FILE "09 Навигатор.wav" WAVE INDEX 01 00:00:00 TRACK 10 AUDIO TITLE "Мой город" PERFORMER "Krec" FLAGS DCP INDEX 00 03:37:46FILE "10 Мой город.wav" WAVE INDEX 01 00:00:00 TRACK 11 AUDIO TITLE "Время" PERFORMER "Krec" FLAGS DCP INDEX 00 03:07:53FILE "11 Время.wav" WAVE INDEX 01 00:00:00 TRACK 12 AUDIO TITLE "По кругу" PERFORMER "Krec" FLAGS DCP INDEX 00 04:20:47FILE "12 По кругу.wav" WAVE INDEX 01 00:00:00 TRACK 13 AUDIO TITLE "Огонь" PERFORMER "Krec" FLAGS DCP INDEX 00 03:22:25FILE "13 Огонь.wav" WAVE INDEX 01 00:00:00REM GENRE RapREM DATE 2012REM DISCID B90A7B0DREM COMMENT "ExactAudioCopy v1.0b4"PERFORMER "Krec"TITLE "Молча проще"FILE "01 Слово.wav" WAVE TRACK 01 AUDIO TITLE "Слово" PERFORMER "Krec" FLAGS DCP INDEX 01 00:00:00 TRACK 02 AUDIO TITLE "Монолит" PERFORMER "Krec" FLAGS DCP INDEX 00 02:59:68FILE "02 Монолит.wav" WAVE INDEX 01 00:00:00 TRACK 03 AUDIO TITLE "На прочность" PERFORMER "Krec" FLAGS DCP INDEX 00 03:05:02FILE "03 На прочность.wav" WAVE INDEX 01 00:00:00 TRACK 04 AUDIO TITLE "Новый порядок" PERFORMER "Krec" FLAGS DCP INDEX 00 02:42:40FILE "04 Новый порядок.wav" WAVE INDEX 01 00:00:00 TRACK 05 AUDIO TITLE "В каждом из нас" PERFORMER "Krec" FLAGS DCP INDEX 00 03:31:34FILE "05 В каждом из нас.wav" WAVE INDEX 01 00:00:00 TRACK 06 AUDIO TITLE "Лес" PERFORMER "Krec" FLAGS DCP INDEX 00 03:44:10FILE "06 Лес.wav" WAVE INDEX 01 00:00:00 TRACK 07 AUDIO TITLE "Молча проще" PERFORMER "Krec" FLAGS DCP INDEX 00 03:31:07FILE "07 Молча проще.wav" WAVE INDEX 01 00:00:00 TRACK 08 AUDIO TITLE "В никуда" PERFORMER "Krec" FLAGS DCP INDEX 00 03:29:70FILE "08 В никуда.wav" WAVE INDEX 01 00:00:00 TRACK 09 AUDIO TITLE "Навигатор" PERFORMER "Krec" FLAGS DCP INDEX 00 03:11:59FILE "09 Навигатор.wav" WAVE INDEX 01 00:00:00 TRACK 10 AUDIO TITLE "Мой город" PERFORMER "Krec" FLAGS DCP INDEX 00 03:37:46FILE "10 Мой город.wav" WAVE INDEX 01 00:00:00 TRACK 11 AUDIO TITLE "Время" PERFORMER "Krec" FLAGS DCP INDEX 00 03:07:53FILE "11 Время.wav" WAVE INDEX 01 00:00:00 TRACK 12 AUDIO TITLE "По кругу" PERFORMER "Krec" FLAGS DCP INDEX 00 04:20:47FILE "12 По кругу.wav" WAVE INDEX 01 00:00:00 TRACK 13 AUDIO TITLE "Огонь" PERFORMER "Krec" FLAGS DCP INDEX 00 03:22:25FILE "13 Огонь.wav" WAVE INDEX 01 00:00:00

Лог проверки качества

CUE Corrector v.6.12.8 (build 513)--------------------------------------------------------------------------- / Молча проще
Folder: Молча прощеaudio files: 01 Слово [03:00.68, ALAC, 44100Hz, Stereo, 16bit; 20,90 MB (21 916 639 bytes)] 02 Монолит [03:06.02, ALAC, 44100Hz, Stereo, 16bit; 21,21 MB (22 238 989 bytes)] 03 На прочность [02:43.40, ALAC, 44100Hz, Stereo, 16bit; 17,93 MB (18 797 299 bytes)] 04 Новый порядок [03:32.34, ALAC, 44100Hz, Stereo, 16bit; 23,49 MB (24 632 755 bytes)] 05 В каждом из нас [03:45.10, ALAC, 44100Hz, Stereo, 16bit; 25,73 MB (26 975 116 bytes)] 06 Лес [03:32.07, ALAC, 44100Hz, Stereo, 16bit; 24,21 MB (25 386 067 bytes)] 07 Молча проще [03:30.70, ALAC, 44100Hz, Stereo, 16bit; 22,64 MB (23 739 127 bytes)] 08 В никуда [03:12.59, ALAC, 44100Hz, Stereo, 16bit; 21,16 MB (22 188 898 bytes)] 09 Навигатор [03:38.46, ALAC, 44100Hz, Stereo, 16bit; 24,30 MB (25 480 942 bytes)] 10 Мой город [03:08.53, ALAC, 44100Hz, Stereo, 16bit; 22,47 MB (23 563 092 bytes)] 11 Время [04:21.47, ALAC, 44100Hz, Stereo, 16bit; 27,17 MB (28 489 356 bytes)] 12 По кругу [03:23.25, ALAC, 44100Hz, Stereo, 16bit; 23,61 MB (24 752 257 bytes)] 13 Огонь [03:47.25, ALAC, 44100Hz, Stereo, 16bit; 24,87 MB (26 079 312 bytes)]
Accuracy: -m8
File 01 Слово - 99% CDDA [03:00.68]
Detected average hi-boundary frequency : 2.007814e+004 Hz Detected average lo-boundary frequency : 1.407154e+004 Hz Detected average hi-cut frequency : 2.148646e+004 Hz Detected average lo-cut frequency : 1.028811e+004 Hz Maximum probablis boundary frequency : 2.143400e+004 Hz Coefficient of nonlinearity of a phase : 1.481041e+000 First order smothness : 3.888889e-001 Second order smothness : 4.814815e-001
File 02 Монолит - 100% CDDA [03:06.02]
Detected average hi-boundary frequency : 2.026572e+004 Hz Detected average lo-boundary frequency : 1.266232e+004 Hz Detected average hi-cut frequency : 2.153853e+004 Hz Detected average lo-cut frequency : 5.193177e+003 Hz Maximum probablis boundary frequency : 2.176700e+004 Hz Coefficient of nonlinearity of a phase : 7.145664e-001 First order smothness : 4.234234e-001 Second order smothness : 3.558559e-001
File 03 На прочность - 100% CDDA [02:43.40]
Detected average hi-boundary frequency : 2.036263e+004 Hz Detected average lo-boundary frequency : 1.226740e+004 Hz Detected average hi-cut frequency : 2.136736e+004 Hz Detected average lo-cut frequency : 7.934408e+003 Hz Maximum probablis boundary frequency : 2.189100e+004 Hz Coefficient of nonlinearity of a phase : 1.022282e+000 First order smothness : 3.948718e-001 Second order smothness : 5.025641e-001
File 04 Новый порядок - 100% CDDA [03:32.34]
Detected average hi-boundary frequency : 2.011896e+004 Hz Detected average lo-boundary frequency : 1.145823e+004 Hz Detected average hi-cut frequency : 2.152713e+004 Hz Detected average lo-cut frequency : 9.817565e+003 Hz Maximum probablis boundary frequency : 2.131500e+004 Hz Coefficient of nonlinearity of a phase : 1.149730e+000 First order smothness : 4.229249e-001 Second order smothness : 6.086957e-001
File 05 В каждом из нас - 100% CDDA [03:45.10]
Detected average hi-boundary frequency : 2.019168e+004 Hz Detected average lo-boundary frequency : 1.249213e+004 Hz Detected average hi-cut frequency : 2.157015e+004 Hz Detected average lo-cut frequency : 6.026612e+003 Hz Maximum probablis boundary frequency : 2.176200e+004 Hz Coefficient of nonlinearity of a phase : 3.635650e-001 First order smothness : 4.535316e-001 Second order smothness : 4.795539e-001
File 06 Лес - 100% CDDA [03:32.07]
Detected average hi-boundary frequency : 2.020078e+004 Hz Detected average lo-boundary frequency : 1.239431e+004 Hz Detected average hi-cut frequency : 2.131941e+004 Hz Detected average lo-cut frequency : 1.121669e+004 Hz Maximum probablis boundary frequency : 2.189100e+004 Hz Coefficient of nonlinearity of a phase : 8.141913e-001 First order smothness : 4.782609e-001 Second order smothness : 4.189723e-001
File 07 Молча проще - 100% CDDA [03:30.70]
Detected average hi-boundary frequency : 2.006338e+004 Hz Detected average lo-boundary frequency : 1.222916e+004 Hz Detected average hi-cut frequency : 2.135297e+004 Hz Detected average lo-cut frequency : 4.928911e+003 Hz Maximum probablis boundary frequency : 2.189100e+004 Hz Coefficient of nonlinearity of a phase : 9.150051e-001 First order smothness : 4.285714e-001 Second order smothness : 5.793651e-001
File 08 В никуда - 100% CDDA [03:12.59]
Detected average hi-boundary frequency : 2.030330e+004 Hz Detected average lo-boundary frequency : 1.320344e+004 Hz Detected average hi-cut frequency : 2.144547e+004 Hz Detected average lo-cut frequency : 1.128744e+004 Hz Maximum probablis boundary frequency : 2.061500e+004 Hz Coefficient of nonlinearity of a phase : 1.207234e+000 First order smothness : 4.956522e-001 Second order smothness : 5.260870e-001
File 09 Навигатор - 100% CDDA [03:38.46]
Detected average hi-boundary frequency : 2.034402e+004 Hz Detected average lo-boundary frequency : 1.305906e+004 Hz Detected average hi-cut frequency : 2.119590e+004 Hz Detected average lo-cut frequency : 8.084122e+003 Hz Maximum probablis boundary frequency : 2.133700e+004 Hz Coefficient of nonlinearity of a phase : 1.014889e+000 First order smothness : 4.367816e-001 Second order smothness : 5.977011e-001
File 10 Мой город - 100% CDDA [03:08.53]
Detected average hi-boundary frequency : 2.006895e+004 Hz Detected average lo-boundary frequency : 1.260380e+004 Hz Detected average hi-cut frequency : 2.168794e+004 Hz Detected average lo-cut frequency : 1.552501e+004 Hz Maximum probablis boundary frequency : 2.189100e+004 Hz Coefficient of nonlinearity of a phase : 1.196434e+000 First order smothness : 4.133333e-001 Second order smothness : 7.511111e-001
File 11 Время - 100% CDDA [04:21.47]
Detected average hi-boundary frequency : 2.022365e+004 Hz Detected average lo-boundary frequency : 1.312725e+004 Hz Detected average hi-cut frequency : 2.123506e+004 Hz Detected average lo-cut frequency : 6.584059e+003 Hz Maximum probablis boundary frequency : 2.147700e+004 Hz Coefficient of nonlinearity of a phase : 3.295265e-001 First order smothness : 4.583333e-001 Second order smothness : 4.871795e-001
File 12 По кругу - 100% CDDA [03:23.25]
Detected average hi-boundary frequency : 2.029735e+004 Hz Detected average lo-boundary frequency : 1.209948e+004 Hz Detected average hi-cut frequency : 2.147714e+004 Hz Detected average lo-cut frequency : 9.929959e+003 Hz Maximum probablis boundary frequency : 2.140100e+004 Hz Coefficient of nonlinearity of a phase : 1.247099e+000 First order smothness : 5.226337e-001 Second order smothness : 4.979424e-001
File 13 Огонь - 100% CDDA [03:47.25]
Detected average hi-boundary frequency : 2.035440e+004 Hz Detected average lo-boundary frequency : 1.320755e+004 Hz Detected average hi-cut frequency : 2.126985e+004 Hz Detected average lo-cut frequency : 9.977909e+003 Hz Maximum probablis boundary frequency : 2.145500e+004 Hz Coefficient of nonlinearity of a phase : 6.621929e-001 First order smothness : 4.595588e-001 Second order smothness : 6.066176e-001
----- Summary: -----These tracks looks like CDDA with probability 100%.------------------------------------------------------------------------
ANALYZER: auCDtect: CD records authenticity detector, version 0.8.2 Copyright (c) 2004 Oleg Berngardt. All rights reserved. Copyright (c) 2004 Alexander Djourik. All rights reserved.
Time elapsed: 24.4 sLog created at April 17, 2015 11:59:31
=== FEEF874D9953A7A0B12F70D80990B211D440558B4DB983A0013165B12F38BC92 ===

Скриншот(ы) тегов iTunes

2014 - Воздух свободы (00:50:15)

Издатель (лейбл): United Music Group
Номер по каталогу: UMGCD14-431
Треклист:
01. Иной
02. По крышам
03. Безымянный
04. Дама в красном
05. Она
06. Пролетарская
07. Под облаками
08. Между нами
09. Воздух свободы
10. В трудный час
11. Шанс
12. Свет в конце
13. Саншайн

Лог создания рипа

Exact Audio Copy V1.3 from 2. September 2016
Отчёт EAC об извлечении, выполненном 30. ноября 2016, 20:59
Krec / Воздух свободы
Дисковод: HL-DT-STDVDRAM GP60NB50 Adapter: 1 ID: 0
Режим чтения : ДостоверностьИспользование точного потока : ДаОтключение кэша аудио : ДаИспользование указателей C2 : Нет
Коррекция смещения при чтении : 6Способность читать области Lead-in и Lead-out : НетЗаполнение пропущенных сэмплов тишиной : ДаУдаление блоков с тишиной в начале и конце : НетПри вычислениях CRC использовались нулевые сэмплы : ДаИнтерфейс : Встроенный Win32-интерфейс для Win NT/2000Обработка зазоров : Добавлено к предыдущему треку
Выходной формат : Пользовательский кодировщикВыбранный битрейт : 128 kBit/sКачество : ВысокийДобавление ID3-тега : НетУтилита сжатия : C:\Users\Антон\Downloads\Архивы\qaac_2.60\qaac_2.60\x64\refalac64.exeДополнительные параметры : -s --ignorelength --artist "%artist%" --title "%title%" --album "%albumtitle%" --date "%year%" --track "%tracknr%" --genre "%genre%" -o %dest% %source%
TOC извлечённого CD
Трек | Старт | Длительность | Начальный сектор | Конечный сектор --------------------------------------------------------------------- 1 | 0:00.00 | 3:14.61 | 0 | 14610 2 | 3:14.61 | 2:54.40 | 14611 | 27700 3 | 6:09.26 | 4:11.09 | 27701 | 46534 4 | 10:20.35 | 4:07.59 | 46535 | 65118 5 | 14:28.19 | 3:01.15 | 65119 | 78708 6 | 17:29.34 | 3:40.41 | 78709 | 95249 7 | 21:10.00 | 5:12.02 | 95250 | 118651 8 | 26:22.02 | 4:01.58 | 118652 | 136784 9 | 30:23.60 | 3:00.69 | 136785 | 150353 10 | 33:24.54 | 3:38.03 | 150354 | 166706 11 | 37:02.57 | 3:43.60 | 166707 | 183491 12 | 40:46.42 | 4:24.19 | 183492 | 203310 13 | 45:10.61 | 5:04.45 | 203311 | 226155
Трек 1
Имя файла C:\Users\Антон\Downloads\Музыка\Krec\2014 - Воздух свободы\01 Иной.wav
Длина предзазора 0:00:02.00
Пиковый уровень 98.4 % Скорость извлечения 1.6 X Качество трека 100.0 % CRC теста EC9E3A29 CRC копии EC9E3A29 Трек не обнаружен в базе AccurateRip Копирование... OK
Трек 2
Имя файла C:\Users\Антон\Downloads\Музыка\Krec\2014 - Воздух свободы\02 По крышам.wav
Длина предзазора 0:00:02.00
Пиковый уровень 96.4 % Скорость извлечения 1.7 X Качество трека 100.0 % CRC теста B7B58E48 CRC копии B7B58E48 Трек не обнаружен в базе AccurateRip Копирование... OK
Трек 3
Имя файла C:\Users\Антон\Downloads\Музыка\Krec\2014 - Воздух свободы\03 Безымянный.wav
Длина предзазора 0:00:02.00
Пиковый уровень 98.4 % Скорость извлечения 2.0 X Качество трека 100.0 % CRC теста 4AEA7899 CRC копии 4AEA7899 Трек не обнаружен в базе AccurateRip Копирование... OK
Трек 4
Имя файла C:\Users\Антон\Downloads\Музыка\Krec\2014 - Воздух свободы\04 Дама в красном.wav
Длина предзазора 0:00:02.00
Пиковый уровень 98.4 % Скорость извлечения 2.2 X Качество трека 100.0 % CRC теста D47B2AEF CRC копии D47B2AEF Трек не обнаружен в базе AccurateRip Копирование... OK
Трек 5
Имя файла C:\Users\Антон\Downloads\Музыка\Krec\2014 - Воздух свободы\05 Она.wav
Длина предзазора 0:00:02.00
Пиковый уровень 98.4 % Скорость извлечения 2.2 X Качество трека 100.0 % CRC теста F32C53C1 CRC копии F32C53C1 Трек не обнаружен в базе AccurateRip Копирование... OK
Трек 6
Имя файла C:\Users\Антон\Downloads\Музыка\Krec\2014 - Воздух свободы\06 Пролетарская.wav
Длина предзазора 0:00:02.00
Пиковый уровень 98.4 % Скорость извлечения 2.4 X Качество трека 100.0 % CRC теста 39976D0F CRC копии 39976D0F Трек не обнаружен в базе AccurateRip Копирование... OK
Трек 7
Имя файла C:\Users\Антон\Downloads\Музыка\Krec\2014 - Воздух свободы\07 Под облаками.wav
Длина предзазора 0:00:02.00
Пиковый уровень 98.4 % Скорость извлечения 2.7 X Качество трека 100.0 % CRC теста F194DC30 CRC копии F194DC30 Трек не обнаружен в базе AccurateRip Копирование... OK
Трек 8
Имя файла C:\Users\Антон\Downloads\Музыка\Krec\2014 - Воздух свободы\08 Между нами.wav
Длина предзазора 0:00:02.00
Пиковый уровень 98.4 % Скорость извлечения 1.8 X Качество трека 100.0 % CRC теста 58CDF3C6 CRC копии 58CDF3C6 Трек не обнаружен в базе AccurateRip Копирование... OK
Трек 9
Имя файла C:\Users\Антон\Downloads\Музыка\Krec\2014 - Воздух свободы\09 Воздух свободы.wav
Длина предзазора 0:00:02.00
Пиковый уровень 98.4 % Скорость извлечения 2.2 X Качество трека 99.9 % CRC теста FAB4E71A CRC копии FAB4E71A Трек не обнаружен в базе AccurateRip Копирование... OK
Трек 10
Имя файла C:\Users\Антон\Downloads\Музыка\Krec\2014 - Воздух свободы\10 В трудный час.wav
Длина предзазора 0:00:02.00
Пиковый уровень 98.4 % Скорость извлечения 1.9 X Качество трека 100.0 % CRC теста B0D3E183 CRC копии B0D3E183 Трек не обнаружен в базе AccurateRip Копирование... OK
Трек 11
Имя файла C:\Users\Антон\Downloads\Музыка\Krec\2014 - Воздух свободы\11 Шанс.wav
Длина предзазора 0:00:02.00
Пиковый уровень 97.5 % Скорость извлечения 2.0 X Качество трека 100.0 % CRC теста D78E1D34 CRC копии D78E1D34 Трек не обнаружен в базе AccurateRip Копирование... OK
Трек 12
Имя файла C:\Users\Антон\Downloads\Музыка\Krec\2014 - Воздух свободы\12 Свет в конце.wav
Длина предзазора 0:00:02.00
Пиковый уровень 96.4 % Скорость извлечения 1.9 X Качество трека 99.9 % CRC теста 6E3E7842 CRC копии 6E3E7842 Трек не обнаружен в базе AccurateRip Копирование... OK
Трек 13
Имя файла C:\Users\Антон\Downloads\Музыка\Krec\2014 - Воздух свободы\13 Саншайн.wav
Длина предзазора 0:00:02.00
Пиковый уровень 98.4 % Скорость извлечения 2.2 X Качество трека 100.0 % CRC теста 2700F9D1 CRC копии 2700F9D1 Трек не обнаружен в базе AccurateRip Копирование... OK
Ни одного трека нет в базе AccurateRip
Ошибок не произошло
Конец отчёта
---- CUETools DB Plugin V2.1.6
[CTDB TOCID: v874x7wwnghW4GP0K8YyF7SPzOM-] foundSubmit result: already submittedTrack | CTDB Status 1 | (2/2) Accurately ripped 2 | (2/2) Accurately ripped 3 | (2/2) Accurately ripped 4 | (2/2) Accurately ripped 5 | (2/2) Accurately ripped 6 | (2/2) Accurately ripped 7 | (2/2) Accurately ripped 8 | (2/2) Accurately ripped 9 | (2/2) Accurately ripped 10 | (2/2) Accurately ripped 11 | (2/2) Accurately ripped 12 | (2/2) Accurately ripped 13 | (2/2) Accurately ripped
==== Контрольная сумма отчёта 93A1984D10739DCDED10011706863D0757F0FC8CE16CCF790C27B87DE3CD5C9C ====

Содержание индексной карты (.CUE)

REM GENRE RapREM DATE 2014REM DISCID 9B0BC70DREM COMMENT "ExactAudioCopy v1.3"PERFORMER "Krec"TITLE "Воздух свободы"REM COMPOSER ""FILE "01 Иной.wav" WAVE TRACK 01 AUDIO TITLE "Иной" PERFORMER "Krec" REM COMPOSER "" INDEX 01 00:00:00 TRACK 02 AUDIO TITLE "По крышам" PERFORMER "Krec" REM COMPOSER "" INDEX 00 03:12:61FILE "02 По крышам.wav" WAVE INDEX 01 00:00:00 TRACK 03 AUDIO TITLE "Безымянный" PERFORMER "Krec" REM COMPOSER "" INDEX 00 02:52:40FILE "03 Безымянный.wav" WAVE INDEX 01 00:00:00 TRACK 04 AUDIO TITLE "Дама в красном" PERFORMER "Krec" REM COMPOSER "" INDEX 00 04:09:09FILE "04 Дама в красном.wav" WAVE INDEX 01 00:00:00 TRACK 05 AUDIO TITLE "Она" PERFORMER "Krec" REM COMPOSER "" INDEX 00 04:05:59FILE "05 Она.wav" WAVE INDEX 01 00:00:00 TRACK 06 AUDIO TITLE "Пролетарская" PERFORMER "Krec" REM COMPOSER "" INDEX 00 02:59:15FILE "06 Пролетарская.wav" WAVE INDEX 01 00:00:00 TRACK 07 AUDIO TITLE "Под облаками" PERFORMER "Krec" REM COMPOSER "" INDEX 00 03:38:41FILE "07 Под облаками.wav" WAVE INDEX 01 00:00:00 TRACK 08 AUDIO TITLE "Между нами" PERFORMER "Krec" REM COMPOSER "" INDEX 00 05:10:02FILE "08 Между нами.wav" WAVE INDEX 01 00:00:00 TRACK 09 AUDIO TITLE "Воздух свободы" PERFORMER "Krec" REM COMPOSER "" INDEX 00 03:59:58FILE "09 Воздух свободы.wav" WAVE INDEX 01 00:00:00 TRACK 10 AUDIO TITLE "В трудный час" PERFORMER "Krec" REM COMPOSER "" INDEX 00 02:58:69FILE "10 В трудный час.wav" WAVE INDEX 01 00:00:00 TRACK 11 AUDIO TITLE "Шанс" PERFORMER "Krec" REM COMPOSER "" INDEX 00 03:36:03FILE "11 Шанс.wav" WAVE INDEX 01 00:00:00 TRACK 12 AUDIO TITLE "Свет в конце" PERFORMER "Krec" REM COMPOSER "" INDEX 00 03:41:60FILE "12 Свет в конце.wav" WAVE INDEX 01 00:00:00 TRACK 13 AUDIO TITLE "Саншайн" PERFORMER "Krec" REM COMPOSER "" INDEX 00 04:22:19FILE "13 Саншайн.wav" WAVE INDEX 01 00:00:00

Лог проверки качества

CUE Corrector v. 8.2.2 / b. 708 (Nov. 30, 2016)————————————————————————————————————————————————————————————————————————--- / Воздух свободы
Folder: 2014 - Воздух свободыAudio files: 01 Иной.m4a [03:14.61; ALAC • 858 kbps • 16 bit \ 44100 Hz • stereo; 19,95 MB (20 918 470 bytes)] 02 По крышам.m4a [02:54.40; ALAC • 852 kbps • 16 bit \ 44100 Hz • stereo; 17,74 MB (18 602 215 bytes)] 03 Безымянный.m4a [04:11.09; ALAC • 827 kbps • 16 bit \ 44100 Hz • stereo; 24,78 MB (25 980 174 bytes)] 04 Дама в красном.m4a [04:07.59; ALAC • 896 kbps • 16 bit \ 44100 Hz • stereo; 26,50 MB (27 785 745 bytes)] 05 Она.m4a [03:01.15; ALAC • 839 kbps • 16 bit \ 44100 Hz • stereo; 18,14 MB (19 016 976 bytes)] 06 Пролетарская.m4a [03:40.41; ALAC • 864 kbps • 16 bit \ 44100 Hz • stereo; 22,74 MB (23 842 892 bytes)] 07 Под облаками.m4a [05:12.02; ALAC • 789 kbps • 16 bit \ 44100 Hz • stereo; 29,37 MB (30 798 784 bytes)] 08 Между нами.m4a [04:01.58; ALAC • 867 kbps • 16 bit \ 44100 Hz • stereo; 25,00 MB (26 218 496 bytes)] 09 Воздух свободы.m4a [03:00.69; ALAC • 829 kbps • 16 bit \ 44100 Hz • stereo; 17,90 MB (18 771 941 bytes)] 10 В трудный час.m4a [03:38.03; ALAC • 860 kbps • 16 bit \ 44100 Hz • stereo; 22,37 MB (23 458 194 bytes)] 11 Шанс.m4a [03:43.60; ALAC • 827 kbps • 16 bit \ 44100 Hz • stereo; 22,08 MB (23 156 690 bytes)] 12 Свет в конце.m4a [04:24.19; ALAC • 850 kbps • 16 bit \ 44100 Hz • stereo; 26,81 MB (28 115 209 bytes)] 13 Саншайн.m4a [05:04.45; ALAC • 808 kbps • 16 bit \ 44100 Hz • stereo; 29,39 MB (30 815 629 bytes)]
Accuracy: -m8
File 01 Иной - 100% CDDA [03:14.61]
Detected average hi-boundary frequency : 2.042866e+004 Hz Detected average lo-boundary frequency : 1.454714e+004 Hz Detected average hi-cut frequency : 2.149532e+004 Hz Detected average lo-cut frequency : 7.980685e+003 Hz Maximum probablis boundary frequency : 2.189100e+004 Hz Coefficient of nonlinearity of a phase : 1.140234e+000 First order smothness : 5.281385e-001 Second order smothness : 5.367965e-001
File 02 По крышам - 100% CDDA [02:54.40]
Detected average hi-boundary frequency : 2.023479e+004 Hz Detected average lo-boundary frequency : 1.404770e+004 Hz Detected average hi-cut frequency : 2.162069e+004 Hz Detected average lo-cut frequency : 8.754500e+003 Hz Maximum probablis boundary frequency : 2.189600e+004 Hz Coefficient of nonlinearity of a phase : 1.374735e+000 First order smothness : 5.217391e-001 Second order smothness : 5.024155e-001
File 03 Безымянный - 100% CDDA [04:11.09]
Detected average hi-boundary frequency : 2.033691e+004 Hz Detected average lo-boundary frequency : 1.356266e+004 Hz Detected average hi-cut frequency : 2.146829e+004 Hz Detected average lo-cut frequency : 8.044159e+003 Hz Maximum probablis boundary frequency : 2.142800e+004 Hz Coefficient of nonlinearity of a phase : 1.383966e+000 First order smothness : 4.481605e-001 Second order smothness : 5.886288e-001
File 04 Дама в красном - 100% CDDA [04:07.59]
Detected average hi-boundary frequency : 2.033364e+004 Hz Detected average lo-boundary frequency : 1.440864e+004 Hz Detected average hi-cut frequency : 2.153065e+004 Hz Detected average lo-cut frequency : 9.370521e+003 Hz Maximum probablis boundary frequency : 2.177800e+004 Hz Coefficient of nonlinearity of a phase : 9.781870e-001 First order smothness : 4.338983e-001 Second order smothness : 5.661017e-001
File 05 Она - 100% CDDA [03:01.15]
Detected average hi-boundary frequency : 2.044183e+004 Hz Detected average lo-boundary frequency : 1.432287e+004 Hz Detected average hi-cut frequency : 2.136658e+004 Hz Detected average lo-cut frequency : 8.196083e+003 Hz Maximum probablis boundary frequency : 2.189600e+004 Hz Coefficient of nonlinearity of a phase : 9.383687e-001 First order smothness : 4.790698e-001 Second order smothness : 5.023256e-001
File 06 Пролетарская - 100% CDDA [03:40.41]
Detected average hi-boundary frequency : 2.032551e+004 Hz Detected average lo-boundary frequency : 1.341333e+004 Hz Detected average hi-cut frequency : 2.146774e+004 Hz Detected average lo-cut frequency : 6.971540e+003 Hz Maximum probablis boundary frequency : 2.079300e+004 Hz Coefficient of nonlinearity of a phase : 1.380748e+000 First order smothness : 4.503817e-001 Second order smothness : 5.305344e-001
File 07 Под облаками - 100% CDDA [05:12.02]
Detected average hi-boundary frequency : 2.020895e+004 Hz Detected average lo-boundary frequency : 1.280185e+004 Hz Detected average hi-cut frequency : 2.114194e+004 Hz Detected average lo-cut frequency : 7.245327e+003 Hz Maximum probablis boundary frequency : 2.189100e+004 Hz Coefficient of nonlinearity of a phase : 4.413222e-001 First order smothness : 5.121294e-001 Second order smothness : 5.444744e-001
File 08 Между нами - 100% CDDA [04:01.58]
Detected average hi-boundary frequency : 2.028727e+004 Hz Detected average lo-boundary frequency : 1.401931e+004 Hz Detected average hi-cut frequency : 2.155079e+004 Hz Detected average lo-cut frequency : 6.027701e+003 Hz Maximum probablis boundary frequency : 2.189100e+004 Hz Coefficient of nonlinearity of a phase : 9.444795e-001 First order smothness : 4.982578e-001 Second order smothness : 5.017422e-001
File 09 Воздух свободы - 100% CDDA [03:00.69]
Detected average hi-boundary frequency : 2.032695e+004 Hz Detected average lo-boundary frequency : 1.434831e+004 Hz Detected average hi-cut frequency : 2.141318e+004 Hz Detected average lo-cut frequency : 7.132366e+003 Hz Maximum probablis boundary frequency : 2.129400e+004 Hz Coefficient of nonlinearity of a phase : 8.281677e-001 First order smothness : 4.697674e-001 Second order smothness : 5.209302e-001
File 10 В трудный час - 100% CDDA [03:38.03]
Detected average hi-boundary frequency : 2.024710e+004 Hz Detected average lo-boundary frequency : 1.336430e+004 Hz Detected average hi-cut frequency : 2.161675e+004 Hz Detected average lo-cut frequency : 7.275743e+003 Hz Maximum probablis boundary frequency : 2.189600e+004 Hz Coefficient of nonlinearity of a phase : 1.096916e+000 First order smothness : 4.903475e-001 Second order smothness : 5.250965e-001
File 11 Шанс - 100% CDDA [03:43.60]
Detected average hi-boundary frequency : 2.035438e+004 Hz Detected average lo-boundary frequency : 1.485065e+004 Hz Detected average hi-cut frequency : 2.156038e+004 Hz Detected average lo-cut frequency : 7.316746e+003 Hz Maximum probablis boundary frequency : 2.169200e+004 Hz Coefficient of nonlinearity of a phase : 6.073934e-001 First order smothness : 5.225564e-001 Second order smothness : 4.285714e-001
File 12 Свет в конце - 100% CDDA [04:24.19]
Detected average hi-boundary frequency : 2.028228e+004 Hz Detected average lo-boundary frequency : 1.443982e+004 Hz Detected average hi-cut frequency : 2.145425e+004 Hz Detected average lo-cut frequency : 8.368849e+003 Hz Maximum probablis boundary frequency : 2.190200e+004 Hz Coefficient of nonlinearity of a phase : 1.027372e+000 First order smothness : 4.171975e-001 Second order smothness : 5.923567e-001
File 13 Саншайн - 100% CDDA [05:04.45]
Detected average hi-boundary frequency : 2.032257e+004 Hz Detected average lo-boundary frequency : 1.428935e+004 Hz Detected average hi-cut frequency : 2.136630e+004 Hz Detected average lo-cut frequency : 8.016757e+003 Hz Maximum probablis boundary frequency : 2.189100e+004 Hz Coefficient of nonlinearity of a phase : 6.597201e-001 First order smothness : 4.602740e-001 Second order smothness : 5.534247e-001
————— Summary: —————These tracks looks like CDDA with probability 100%.————————————————————————————————————————————————————————————————————————
ANALYZER: auCDtect: CD records authenticity detector, version 0.8.2 Copyright (c) 2004 Oleg Berngardt. All rights reserved. Copyright (c) 2004 Alexander Djourik. All rights reserved.
Time elapsed: 26.9 sLog created at November 30, 2016 21:03:04
=== 6189860EDF8D2560CCA2B06DEF5F30B2E80884A8EE7D6CEE0590C0209D814342 ===

Скриншот(ы) тегов iTunes

Об альбоме (сборнике)

Есть ощущение, что этот альбом Krec — самый экспериментальный из всего их каталога. И то, что группа, существующая уже больше 10 лет, может так вот удивлять — само по себе событие.
После ухода из группы Марата, Фьюз отказался от битов, отдав предпочтение акустическому звучанию. Всю музыку для "Воздуха Свободы" написал Денис Харлашин.


[islamvillage.com]_t_4987816.torrent
Торрент: Зарегистрирован ·  [ 2019-01-02 14:14 ] ·  0e98342918edc8d5ab9e45054f157792b69ad053

33 KB

Статус: проверено
Скачан: 0 раз
Размер: 3.1 GB
Оценка: 
(Голосов: 0)
Сказали спасибо: 0  Спасибо
Похожие темы
[Профиль]    [ЛС]
Показать сообщения:    
Ответить на тему

Текущее время: Сегодня 18:18

Часовой пояс: GMT + 7



Вы не можете начинать темы
Вы не можете отвечать на сообщения
Вы не можете редактировать свои сообщения
Вы не можете удалять свои сообщения
Вы не можете голосовать в опросах
Вы не можете прикреплять файлы к сообщениям
Вы можете скачивать файлы


Visioni dal mondo | unhackme full version free download | Game of Thrones, Staffel 6