(Heavy metal, thrash metal, metalcore, groove metal) [CD`9] Trivium - Дискография / Discography - 2003-2017, ALAC (tracks+.cue), lossless

Ответить на тему
Статистика раздачи [Обновить пиров]
Размер:  4.22 GB   |    Зарегистрирован:  1 месяц 19 дней   |    Скачан:  0 раз

Полного источника не было: Никогда

 
   
 
 
 
Автор Сообщение

islamvillage.com

Создавать темы 02-Янв-2019 14:53

[Цитировать]

Trivium | Дискография | Discography- -Год: 2003-2017||Страна: USA||Тип рипа: tracks+.cue
Жанр: Heavy metal, thrash metal, metalcore, groove metal
Издатель (лейбл): Roadrunner, Lifeforce||Сканы: нет
Программа-конвертер: CueTools||Тексты: вшиты||Аудиокодек: ALAC||Битрейт: lossless-

2003 - Ember to Inferno: Ab Initio (disc 1 of 2) [US - 5BAMCD001X - 2016]

Источник: Anders666-Продолжительность: 00:43:16
Треклист:
01 Inception: the Bleeding Skies (00:35)
02 Pillars of Serpents (04:35)
03 If I Could Collapse the Masses (04:42)
04 Fugue (A Revelation) (04:22)
05 Requiem (04:54)
06 Ember to Inferno (04:11)
07 Ashes (00:54)
08 To Burn the Eye (07:01)
09 Falling to Grey (05:37)
10 My Hatred (04:35)
11 A View of Burning Empires (01:50)

2003 - Ember to Inferno: Ab Initio (disc 2 of 2) [US - 5BAMCD001X - 2016]

Источник: Anders666-Продолжительность: 01:06:56
Треклист:
01 Pain (07:19)
02 Thrust (05:39)
03 Lake of Fire (06:15)
04 To Burn the Eye (07:00)
05 Requiem (05:02)
06 Fugue (04:30)
07 The Storm (06:04)
08 Sworn (04:28)
09 Demon (03:30)
10 Like Light to the Flies (05:37)
11 Blinding Tears Will Break the Skies (05:43)
12 The Deceived (05:49)

2005 - Ascendancy (Special Edition) [US - 168 618 055-2 - 2006]

Источник: Anders666-Продолжительность: 01:15:33
Треклист:
01 The End of Everything (01:21)
02 Rain (04:12)
03 Pull Harder on the Strings of Your Martyr (04:51)
04 Drowned and Torn Asunder (04:17)
05 Ascendancy (04:25)
06 A Gunshot to the Head of Trepidation (05:56)
07 Like Light to the Flies (05:41)
08 Dying in Your Arms (02:53)
09 The Deceived (05:12)
10 Suffocating Sight (03:48)
11 Departure (05:41)
12 Declaration (07:00)
13 Blinding Tears Will Break the Skies (05:11)
14 Washing Away Me in the Tides (03:49)
15 Master of Puppets (08:11)
16 Dying in Your Arms (Video Mix) (03:05)

2006 - The Crusade [JP - RRCY-21266]

Источник: Anders666-Продолжительность: 01:03:24
Треклист:
01 Ignition (03:55)
02 Detonation (04:29)
03 Entrance of the Conflagration (04:35)
04 Anthem (We Are the Fire) (04:03)
05 Unrepentant (04:52)
06 And Sadness Will Sear (03:35)
07 Beacoming the Dragon (04:44)
08 To the Rats (03:43)
09 This World Can't Tear Us Apart (03:30)
10 Thread the Floods (03:34)
11 Contempt Breeds Contamination (04:29)
12 The Rising (03:45)
13 The Crusade (08:22)
14 Broken One (05:48)

2008 - Shogun (Special Edition) [US - 1686-179858]

Источник: Anders666-Продолжительность: 01:19:27
Треклист:
01 Kirisute Gomen (06:27)
02 Torn Between Scylla and Charybdis (06:50)
03 Down from the Sky (05:34)
04 Into the Mouth of Hell We March (05:52)
05 Throes of Perdition (05:54)
06 Insurrection (04:57)
07 The Calamity (04:58)
08 He Who Spawned the Furies (04:08)
09 Of Prometheus and the Crucifix (04:40)
10 Like Callisto to a Star in Heaven (05:26)
11 Shogun (11:22)
12 Poison, the Knife or the Noose (04:14)
13 Upon the Shores (05:21)
14 Iron Maiden (03:44)

2011 - In Waves (Special Edition) [US - 1686-177565]

Источник: Anders666-Продолжительность: 01:07:47
Треклист:
01 Capsizing the Sea (01:31)
02 In Waves (05:02)
03 Inception of the End (03:48)
04 Dusk Dismantled (03:48)
05 Watch the World Burn (04:53)
06 Black (03:28)
07 A Skyline's Severance (04:52)
08 Ensnare the Sun (01:22)
09 Built to Fall (03:08)
10 Caustic Are the Ties That Bind (05:35)
11 Forsake Not the Dream (05:21)
12 Drowning in Slow Motion (04:30)
13 A Grey So Dark (02:41)
14 Chaos Reigns (04:08)
15 Of All These Yesterdays (04:22)
16 Leaving This World Behind (01:38)
17 Shattering the Skies Above (04:42)
18 Slave New World (02:58)

2013 - Vengeance Falls [JP - WPCR-15292]

Источник: Anders666-Продолжительность: 01:05:58
Треклист:
01 Brave This Storm (04:30)
02 Vengeance Falls (04:14)
03 Strife (04:29)
04 No Way to Heal (04:06)
05 To Believe (04:33)
06 At the End of this War (04:48)
07 Through Blood and Dirt and Bone (04:26)
08 Villainy Thrives (04:55)
09 Incineration: the Broken World (05:52)
10 Wake (The End Is Nigh) (06:01)
11 No Hope for the Human Race (04:00)
12 As I Am Exploding (05:51)
13 Skulls… We Are 138 (03:32)
14 Losing My Religion (04:41)

2015 - Silence in the Snow [US - RR7502-5]

Источник: Anders666-Продолжительность: 00:53:05
Треклист:
01 Snøfall (01:28)
02 Silence in the Snow (03:40)
03 Blind Leading the Blind (04:26)
04 Dead and Gone (03:46)
05 The Ghost That's Haunting You (04:10)
06 Pull Me from the Void (03:54)
07 Until the World Goes Cold (05:21)
08 Rise Above the Tides (03:54)
09 The Thing That's Killing Me (03:30)
10 Beneath the Sun (03:57)
11 Breathe in the Flames (05:11)
12 Cease All Your Fire (05:02)
13 The Darkness of My Mind (04:46)

2017 - The Sin and the Sentence [JP - WPCR-17937]

Источник: redacted-Продолжительность: 01:02:58
Треклист:
01 The Sin and the Sentence (06:23)
02 Beyond Oblivion (05:17)
03 Other Worlds (04:50)
04 The Heart from Your Hate (04:04)
05 Betrayer (05:27)
06 The Wretchedness Inside (05:32)
07 Endless Night (03:38)
08 Sever the Hand (05:26)
09 Beauty in the Sorrow (04:31)
10 The Revanchist (07:17)
11 Thrown Into the Fire (05:29)
12 Pillars of Serpents '17 (05:04)
-

Логи, куе2003 - Ember to Inferno Ab Initio CD 1Лог создания рипа:

Exact Audio Copy V1.0 beta 4 from 7. December 2014
Отчёт EAC об извлечении, выполненном 14. января 2017, 20:40
Trivium / Ab Initio (CD 1)
Дисковод: TSSTcorpCDDVDW SN-208AB Adapter: 1 ID: 0
Режим чтения : ДостоверностьИспользование точного потока : ДаОтключение кэша аудио : ДаИспользование указателей C2 : Нет
Коррекция смещения при чтении : 6Способность читать области Lead-in и Lead-out : НетЗаполнение пропущенных сэмплов тишиной : ДаУдаление блоков с тишиной в начале и конце : НетПри вычислениях CRC использовались нулевые сэмплы : ДаИнтерфейс : Встроенный Win32-интерфейс для Win NT/2000
Выходной формат : Внутренние WAV-операцииФормат файла сэмплов : 44.100 Гц; 16 бит; стерео
TOC извлечённого CD
Трек | Старт | Длительность | Начальный сектор | Конечный сектор --------------------------------------------------------------------- 1 | 0:00.00 | 0:35.15 | 0 | 2639 2 | 0:35.15 | 4:35.14 | 2640 | 23278 3 | 5:10.29 | 4:41.73 | 23279 | 44426 4 | 9:52.27 | 4:21.50 | 44427 | 64051 5 | 14:14.02 | 4:53.50 | 64052 | 86076 6 | 19:07.52 | 4:11.12 | 86077 | 104913 7 | 23:18.64 | 0:53.53 | 104914 | 108941 8 | 24:12.42 | 7:01.10 | 108942 | 140526 9 | 31:13.52 | 5:36.72 | 140527 | 165798 10 | 36:50.49 | 4:34.38 | 165799 | 186386 11 | 41:25.12 | 6:23.37 | 186387 | 215148 12 | 47:48.49 | 1:49.68 | 215149 | 223391
Характеристики диапазона извлечения и сообщения об ошибках
Выбранный диапазон
Имя файла E:\Torrentc\Upload\Trivium Discography\Albums\2016 - Ab Inition (Europe)\Trivium - Ab Initio (CD 1).wav
Пиковый уровень 100.0 % Скорость извлечения 1.8 X Качество диапазона 100.0 % CRC копии 17CC9F7E Копирование... OK
Ошибок не произошло
Конец отчёта
---- CUETools DB Plugin V2.1.4
[CTDB TOCID: HHpHa0pYa6YaBgdKX1W_fh18.O0-] foundSubmit result: HHpHa0pYa6YaBgdKX1W_fh18.O0- has been confirmedTrack | CTDB Status 1 | (19/19) Accurately ripped 2 | (19/19) Accurately ripped 3 | (19/19) Accurately ripped 4 | (19/19) Accurately ripped 5 | (19/19) Accurately ripped 6 | (19/19) Accurately ripped 7 | (19/19) Accurately ripped 8 | (19/19) Accurately ripped 9 | (19/19) Accurately ripped 10 | (19/19) Accurately ripped 11 | (19/19) Accurately ripped 12 | (19/19) Accurately ripped
==== Контрольная сумма отчёта DBF3FF912C883D33A74C3577CCA0FAFBF6CF6FDF233A3F948A4422A5C2501F2F ====

Содержание индексной карты (.CUE):

REM DATE 2003REM DISCID 9B0BA20CPERFORMER "Trivium"TITLE "Ember to Inferno: Ab Initio"REM DISCNUMBER 1REM TOTALDISCS 2FILE "01 Inception_ the Bleeding Skies.m4a" WAVE TRACK 01 AUDIO TITLE "Inception: the Bleeding Skies" PERFORMER "Trivium" INDEX 01 00:00:00FILE "02 Pillars of Serpents.m4a" WAVE TRACK 02 AUDIO TITLE "Pillars of Serpents" PERFORMER "Trivium" INDEX 01 00:00:00FILE "03 If I Could Collapse the Masses.m4a" WAVE TRACK 03 AUDIO TITLE "If I Could Collapse the Masses" PERFORMER "Trivium" INDEX 01 00:00:00FILE "04 Fugue (A Revelation).m4a" WAVE TRACK 04 AUDIO TITLE "Fugue (A Revelation)" PERFORMER "Trivium" INDEX 01 00:00:00FILE "05 Requiem.m4a" WAVE TRACK 05 AUDIO TITLE "Requiem" PERFORMER "Trivium" INDEX 01 00:00:00FILE "06 Ember to Inferno.m4a" WAVE TRACK 06 AUDIO TITLE "Ember to Inferno" PERFORMER "Trivium" INDEX 01 00:00:00FILE "07 Ashes.m4a" WAVE TRACK 07 AUDIO TITLE "Ashes" PERFORMER "Trivium" INDEX 01 00:00:00FILE "08 To Burn the Eye.m4a" WAVE TRACK 08 AUDIO TITLE "To Burn the Eye" PERFORMER "Trivium" INDEX 01 00:00:00FILE "09 Falling to Grey.m4a" WAVE TRACK 09 AUDIO TITLE "Falling to Grey" PERFORMER "Trivium" INDEX 01 00:00:00FILE "10 My Hatred.m4a" WAVE TRACK 10 AUDIO TITLE "My Hatred" PERFORMER "Trivium" INDEX 01 00:00:00FILE "11 When All Light Dies.m4a" WAVE TRACK 11 AUDIO TITLE "When All Light Dies" PERFORMER "Trivium" INDEX 01 00:00:00FILE "12 A View of Burning Empires.m4a" WAVE TRACK 12 AUDIO TITLE "A View of Burning Empires" PERFORMER "Trivium" INDEX 01 00:00:00

2003 - Ember to Inferno Ab Initio CD 2Лог создания рипа:

Exact Audio Copy V1.0 beta 4 from 7. December 2014
Отчёт EAC об извлечении, выполненном 14. января 2017, 20:03
Trivium / Ab Inition (CD 2)
Дисковод: TSSTcorpCDDVDW SN-208AB Adapter: 1 ID: 0
Режим чтения : ДостоверностьИспользование точного потока : ДаОтключение кэша аудио : ДаИспользование указателей C2 : Нет
Коррекция смещения при чтении : 6Способность читать области Lead-in и Lead-out : НетЗаполнение пропущенных сэмплов тишиной : ДаУдаление блоков с тишиной в начале и конце : НетПри вычислениях CRC использовались нулевые сэмплы : ДаИнтерфейс : Встроенный Win32-интерфейс для Win NT/2000
Выходной формат : Внутренние WAV-операцииФормат файла сэмплов : 44.100 Гц; 16 бит; стерео
TOC извлечённого CD
Трек | Старт | Длительность | Начальный сектор | Конечный сектор --------------------------------------------------------------------- 1 | 0:00.00 | 7:18.43 | 0 | 32892 2 | 7:18.43 | 5:38.59 | 32893 | 58301 3 | 12:57.27 | 6:14.67 | 58302 | 86418 4 | 19:12.19 | 6:59.40 | 86419 | 117883 5 | 26:11.59 | 5:01.47 | 117884 | 140505 6 | 31:13.31 | 4:29.53 | 140506 | 160733 7 | 35:43.09 | 4:51.50 | 160734 | 182608 8 | 40:34.59 | 6:03.40 | 182609 | 209873 9 | 46:38.24 | 4:27.52 | 209874 | 229950 10 | 51:06.01 | 3:29.48 | 229951 | 245673 11 | 54:35.49 | 5:37.19 | 245674 | 270967 12 | 60:12.68 | 5:42.38 | 270968 | 296655 13 | 65:55.31 | 5:48.69 | 296656 | 322824
Характеристики диапазона извлечения и сообщения об ошибках
Выбранный диапазон
Имя файла E:\Torrentc\Upload\Trivium Discography\Albums\2016 - Ab Inition (Europe)\Trivium - Ab Inition (CD 2).wav
Пиковый уровень 100.0 % Скорость извлечения 4.0 X Качество диапазона 100.0 % CRC копии BDEF7467 Копирование... OK
Ошибок не произошло
Конец отчёта
---- CUETools DB Plugin V2.1.4
[CTDB TOCID: SdZrnYYwEERBtvWqvwBGDUyXtEk-] foundSubmit result: SdZrnYYwEERBtvWqvwBGDUyXtEk- has been confirmedTrack | CTDB Status 1 | (18/18) Accurately ripped 2 | (18/18) Accurately ripped 3 | (18/18) Accurately ripped 4 | (18/18) Accurately ripped 5 | (18/18) Accurately ripped 6 | (18/18) Accurately ripped 7 | (18/18) Accurately ripped 8 | (18/18) Accurately ripped 9 | (18/18) Accurately ripped 10 | (18/18) Accurately ripped 11 | (18/18) Accurately ripped 12 | (18/18) Accurately ripped 13 | (18/18) Accurately ripped
==== Контрольная сумма отчёта F26695255189D71DA068D9D8869758EA6F2DF8B0F55B123F263F067947DB0C49 ====

Содержание индексной карты (.CUE):

REM DATE 2003REM DISCID C010D00DPERFORMER "Trivium"TITLE "Ember to Inferno: Ab Initio"REM DISCNUMBER 2REM TOTALDISCS 2FILE "01 Pain.m4a" WAVE TRACK 01 AUDIO TITLE "Pain" PERFORMER "Trivium" INDEX 01 00:00:00FILE "02 Thrust.m4a" WAVE TRACK 02 AUDIO TITLE "Thrust" PERFORMER "Trivium" INDEX 01 00:00:00FILE "03 Lake of Fire.m4a" WAVE TRACK 03 AUDIO TITLE "Lake of Fire" PERFORMER "Trivium" INDEX 01 00:00:00FILE "04 To Burn the Eye.m4a" WAVE TRACK 04 AUDIO TITLE "To Burn the Eye" PERFORMER "Trivium" INDEX 01 00:00:00FILE "05 Requiem.m4a" WAVE TRACK 05 AUDIO TITLE "Requiem" PERFORMER "Trivium" INDEX 01 00:00:00FILE "06 Fugue.m4a" WAVE TRACK 06 AUDIO TITLE "Fugue" PERFORMER "Trivium" INDEX 01 00:00:00FILE "07 My Hatred.m4a" WAVE TRACK 07 AUDIO TITLE "My Hatred" PERFORMER "Trivium" INDEX 01 00:00:00FILE "08 The Storm.m4a" WAVE TRACK 08 AUDIO TITLE "The Storm" PERFORMER "Trivium" INDEX 01 00:00:00FILE "09 Sworn.m4a" WAVE TRACK 09 AUDIO TITLE "Sworn" PERFORMER "Trivium" INDEX 01 00:00:00FILE "10 Demon.m4a" WAVE TRACK 10 AUDIO TITLE "Demon" PERFORMER "Trivium" INDEX 01 00:00:00FILE "11 Like Light to the Flies.m4a" WAVE TRACK 11 AUDIO TITLE "Like Light to the Flies" PERFORMER "Trivium" INDEX 01 00:00:00FILE "12 Blinding Tears Will Break the Skies.m4a" WAVE TRACK 12 AUDIO TITLE "Blinding Tears Will Break the Skies" PERFORMER "Trivium" INDEX 01 00:00:00FILE "13 The Deceived.m4a" WAVE TRACK 13 AUDIO TITLE "The Deceived" PERFORMER "Trivium" INDEX 01 00:00:00

2005 - Ascendancy (Special Edition)Лог создания рипа:

Exact Audio Copy V1.0 beta 4 from 7. December 2014
Отчёт EAC об извлечении, выполненном 27. ноября 2016, 13:18
Trivium / Ascendancy (Special Edition)
Дисковод: TSSTcorpCDDVDW SN-208AB Adapter: 1 ID: 0
Режим чтения : ДостоверностьИспользование точного потока : ДаОтключение кэша аудио : ДаИспользование указателей C2 : Нет
Коррекция смещения при чтении : 6Способность читать области Lead-in и Lead-out : НетЗаполнение пропущенных сэмплов тишиной : ДаУдаление блоков с тишиной в начале и конце : НетПри вычислениях CRC использовались нулевые сэмплы : ДаИнтерфейс : Встроенный Win32-интерфейс для Win NT/2000
Выходной формат : Внутренние WAV-операцииФормат файла сэмплов : 44.100 Гц; 16 бит; стерео
TOC извлечённого CD
Трек | Старт | Длительность | Начальный сектор | Конечный сектор --------------------------------------------------------------------- 1 | 0:00.00 | 1:21.22 | 0 | 6096 2 | 1:21.22 | 4:11.61 | 6097 | 24982 3 | 5:33.08 | 4:51.19 | 24983 | 46826 4 | 10:24.27 | 4:17.18 | 46827 | 66119 5 | 14:41.45 | 4:25.36 | 66120 | 86030 6 | 19:07.06 | 5:55.41 | 86031 | 112696 7 | 25:02.47 | 5:40.51 | 112697 | 138247 8 | 30:43.23 | 2:53.00 | 138248 | 151222 9 | 33:36.23 | 5:11.64 | 151223 | 174611 10 | 38:48.12 | 3:47.39 | 174612 | 191675 11 | 42:35.51 | 5:41.07 | 191676 | 217257 12 | 48:16.58 | 7:00.05 | 217258 | 248762 13 | 55:16.63 | 5:10.52 | 248763 | 272064 14 | 60:27.40 | 3:48.42 | 272065 | 289206 15 | 64:16.07 | 8:11.00 | 289207 | 326031 16 | 72:27.07 | 3:05.08 | 326032 | 339914
Характеристики диапазона извлечения и сообщения об ошибках
Выбранный диапазон
Имя файла E:\Trivium\Ascendancy\Trivium - Ascendancy.wav
Пиковый уровень 100.0 % Скорость извлечения 4.3 X Качество диапазона 100.0 % CRC копии 08B4B5BC Копирование... OK
Ошибок не произошло
Конец отчёта
---- CUETools DB Plugin V2.1.4
[CTDB TOCID: Uug8pJXcfBs8sDiEbtsKLcESpWY-] foundSubmit result: Uug8pJXcfBs8sDiEbtsKLcESpWY- has been confirmedTrack | CTDB Status 1 | (34/34) Accurately ripped 2 | (34/34) Accurately ripped 3 | (34/34) Accurately ripped 4 | (34/34) Accurately ripped 5 | (34/34) Accurately ripped 6 | (34/34) Accurately ripped 7 | (34/34) Accurately ripped 8 | (34/34) Accurately ripped 9 | (34/34) Accurately ripped 10 | (34/34) Accurately ripped 11 | (33/34) Accurately ripped 12 | (32/34) Accurately ripped 13 | (34/34) Accurately ripped 14 | (32/34) Accurately ripped 15 | (34/34) Accurately ripped 16 | (33/34) Accurately ripped
==== Контрольная сумма отчёта 3BDF0D3084E6589E433BEADEA4129352DB089874DD03552163050E5E3DCF9E40 ====

Содержание индексной карты (.CUE):

REM DATE 2005REM DISCID F411B410PERFORMER "Trivium"TITLE "Ascendancy"REM DISCNUMBER 1REM TOTALDISCS 1FILE "01 The End of Everything.m4a" WAVE TRACK 01 AUDIO TITLE "The End of Everything" PERFORMER "Trivium" FLAGS DCP INDEX 01 00:00:00FILE "02 Rain.m4a" WAVE TRACK 02 AUDIO TITLE "Rain" PERFORMER "Trivium" FLAGS DCP INDEX 01 00:00:00FILE "03 Pull Harder on the Strings of Your Martyr.m4a" WAVE TRACK 03 AUDIO TITLE "Pull Harder on the Strings of Your Martyr" PERFORMER "Trivium" FLAGS DCP INDEX 01 00:00:00FILE "04 Drowned and Torn Asunder.m4a" WAVE TRACK 04 AUDIO TITLE "Drowned and Torn Asunder" PERFORMER "Trivium" FLAGS DCP INDEX 01 00:00:00FILE "05 Ascendancy.m4a" WAVE TRACK 05 AUDIO TITLE "Ascendancy" PERFORMER "Trivium" FLAGS DCP INDEX 01 00:00:00FILE "06 A Gunshot to the Head of Trepidation.m4a" WAVE TRACK 06 AUDIO TITLE "A Gunshot to the Head of Trepidation" PERFORMER "Trivium" FLAGS DCP INDEX 01 00:00:00FILE "07 Like Light to the Flies.m4a" WAVE TRACK 07 AUDIO TITLE "Like Light to the Flies" PERFORMER "Trivium" FLAGS DCP INDEX 01 00:00:00FILE "08 Dying in Your Arms.m4a" WAVE TRACK 08 AUDIO TITLE "Dying in Your Arms" PERFORMER "Trivium" FLAGS DCP INDEX 01 00:00:00FILE "09 The Deceived.m4a" WAVE TRACK 09 AUDIO TITLE "The Deceived" PERFORMER "Trivium" FLAGS DCP INDEX 01 00:00:00FILE "10 Suffocating Sight.m4a" WAVE TRACK 10 AUDIO TITLE "Suffocating Sight" PERFORMER "Trivium" FLAGS DCP INDEX 01 00:00:00FILE "11 Departure.m4a" WAVE TRACK 11 AUDIO TITLE "Departure" PERFORMER "Trivium" FLAGS DCP INDEX 01 00:00:00FILE "12 Declaration.m4a" WAVE TRACK 12 AUDIO TITLE "Declaration" PERFORMER "Trivium" FLAGS DCP INDEX 01 00:00:00 TRACK 13 AUDIO TITLE "Blinding Tears Will Break the Skies" PERFORMER "Trivium" INDEX 00 06:58:05FILE "13 Blinding Tears Will Break the Skies.m4a" WAVE INDEX 01 00:00:00FILE "14 Washing Away Me in the Tides.m4a" WAVE TRACK 14 AUDIO TITLE "Washing Away Me in the Tides" PERFORMER "Trivium" INDEX 01 00:00:00 TRACK 15 AUDIO TITLE "Master of Puppets" PERFORMER "Trivium" INDEX 00 03:46:72FILE "15 Master of Puppets.m4a" WAVE INDEX 01 00:00:00 TRACK 16 AUDIO TITLE "Dying in Your Arms (Video Mix)" PERFORMER "Trivium" INDEX 00 08:09:72FILE "16 Dying in Your Arms (Video Mix).m4a" WAVE INDEX 01 00:00:00

2006 - The CrusadeЛог создания рипа:

Exact Audio Copy V0.99 prebeta 5 from 4. May 2009
EAC extraction logfile from 21. May 2013, 16:08
Trivium / The Crusade
Used drive : ATAPI iHAS624 B Adapter: 2 ID: 0
Read mode : SecureUtilize accurate stream : YesDefeat audio cache : YesMake use of C2 pointers : No
Read offset correction : 6Overread into Lead-In and Lead-Out : NoFill up missing offset samples with silence : YesDelete leading and trailing silent blocks : NoNull samples used in CRC calculations : YesUsed interface : Installed external ASPI interface
Used output format : User Defined EncoderSelected bitrate : 40 kBit/sQuality : HighAdd ID3 tag : NoCommand line compressor : C:\Program Files\Exact Audio Copy\Flac\flac.exeAdditional command line options : -6 -V %s
TOC of the extracted CD
Track | Start | Length | Start sector | End sector --------------------------------------------------------- 1 | 0:00.00 | 3:54.51 | 0 | 17600 2 | 3:54.51 | 4:28.63 | 17601 | 37763 3 | 8:23.39 | 4:35.18 | 37764 | 58406 4 | 12:58.57 | 4:03.30 | 58407 | 76661 5 | 17:02.12 | 4:51.63 | 76662 | 98549 6 | 21:54.00 | 3:34.41 | 98550 | 114640 7 | 25:28.41 | 4:43.61 | 114641 | 135926 8 | 30:12.27 | 3:42.43 | 135927 | 152619 9 | 33:54.70 | 3:30.19 | 152620 | 168388 10 | 37:25.14 | 3:33.64 | 168389 | 184427 11 | 40:59.03 | 4:28.47 | 184428 | 204574 12 | 45:27.50 | 3:45.14 | 204575 | 221463 13 | 49:12.64 | 8:21.69 | 221464 | 259107 14 | 57:34.58 | 5:48.06 | 259108 | 285213
Range status and errors
Selected range
Filename D:\Download\Trivium - The Crusade.wav
Peak level 100.0 % Range quality 100.0 % Copy CRC 39DB74E7 Copy OK
No errors occurred
AccurateRip summary
Track 1 accurately ripped (confidence 2) [5E9DA9DC]Track 2 accurately ripped (confidence 2) [F0B5A18B]Track 3 accurately ripped (confidence 2) [A1A1CFE9]Track 4 accurately ripped (confidence 2) [A3F301C5]Track 5 accurately ripped (confidence 2) [359FE084]Track 6 accurately ripped (confidence 2) [11189AB2]Track 7 accurately ripped (confidence 2) [C1C6BFAA]Track 8 accurately ripped (confidence 2) [DA88BEEA]Track 9 accurately ripped (confidence 2) [4A5C5561]Track 10 accurately ripped (confidence 2) [25F00B4B]Track 11 accurately ripped (confidence 2) [94D69CB7]Track 12 accurately ripped (confidence 2) [2217C349]Track 13 accurately ripped (confidence 2) [E659A387]Track 14 accurately ripped (confidence 2) [27A13A1A]
All tracks accurately ripped
End of status report

Содержание индексной карты (.CUE):

REM DATE 2006REM DISCID B00EDA0EREM COMMENT "Track 14 is Japanese bonus track"PERFORMER "Trivium"TITLE "The Crusade"REM DISCNUMBER 1REM TOTALDISCS 1FILE "01 Ignition.m4a" WAVE TRACK 01 AUDIO TITLE "Ignition" PERFORMER "Trivium" INDEX 01 00:00:00FILE "02 Detonation.m4a" WAVE TRACK 02 AUDIO TITLE "Detonation" PERFORMER "Trivium" INDEX 01 00:00:00FILE "03 Entrance Of The Conflagration.m4a" WAVE TRACK 03 AUDIO TITLE "Entrance Of The Conflagration" PERFORMER "Trivium" INDEX 01 00:00:00FILE "04 Anthem (We Are The Fire).m4a" WAVE TRACK 04 AUDIO TITLE "Anthem (We Are The Fire)" PERFORMER "Trivium" INDEX 01 00:00:00FILE "05 Unrepentant.m4a" WAVE TRACK 05 AUDIO TITLE "Unrepentant" PERFORMER "Trivium" INDEX 01 00:00:00FILE "06 And Sadness Will Sear.m4a" WAVE TRACK 06 AUDIO TITLE "And Sadness Will Sear" PERFORMER "Trivium" INDEX 01 00:00:00FILE "07 Beacoming The Dragon.m4a" WAVE TRACK 07 AUDIO TITLE "Beacoming The Dragon" PERFORMER "Trivium" INDEX 01 00:00:00FILE "08 To The Rats.m4a" WAVE TRACK 08 AUDIO TITLE "To The Rats" PERFORMER "Trivium" INDEX 01 00:00:00FILE "09 This World Can't Tear Us Apart.m4a" WAVE TRACK 09 AUDIO TITLE "This World Can't Tear Us Apart" PERFORMER "Trivium" INDEX 01 00:00:00FILE "10 Thread The Floods.m4a" WAVE TRACK 10 AUDIO TITLE "Thread The Floods" PERFORMER "Trivium" INDEX 01 00:00:00FILE "11 Contempt Breeds Contamination.m4a" WAVE TRACK 11 AUDIO TITLE "Contempt Breeds Contamination" PERFORMER "Trivium" INDEX 01 00:00:00FILE "12 The Rising.m4a" WAVE TRACK 12 AUDIO TITLE "The Rising" PERFORMER "Trivium" INDEX 01 00:00:00FILE "13 The Crusade.m4a" WAVE TRACK 13 AUDIO TITLE "The Crusade" PERFORMER "Trivium" INDEX 01 00:00:00FILE "14 Broken One.m4a" WAVE TRACK 14 AUDIO TITLE "Broken One" PERFORMER "Trivium" INDEX 01 00:00:00

2008 - ShogunЛог создания рипа:

Exact Audio Copy V1.0 beta 4 from 7. December 2014
Отчёт EAC об извлечении, выполненном 27. ноября 2016, 13:49
Trivium / Shogun
Дисковод: TSSTcorpCDDVDW SN-208AB Adapter: 1 ID: 0
Режим чтения : ДостоверностьИспользование точного потока : ДаОтключение кэша аудио : ДаИспользование указателей C2 : Нет
Коррекция смещения при чтении : 6Способность читать области Lead-in и Lead-out : НетЗаполнение пропущенных сэмплов тишиной : ДаУдаление блоков с тишиной в начале и конце : НетПри вычислениях CRC использовались нулевые сэмплы : ДаИнтерфейс : Встроенный Win32-интерфейс для Win NT/2000
Выходной формат : Внутренние WAV-операцииФормат файла сэмплов : 44.100 Гц; 16 бит; стерео
TOC извлечённого CD
Трек | Старт | Длительность | Начальный сектор | Конечный сектор --------------------------------------------------------------------- 1 | 0:00.00 | 6:27.30 | 0 | 29054 2 | 6:27.30 | 6:49.52 | 29055 | 59781 3 | 13:17.07 | 5:34.33 | 59782 | 84864 4 | 18:51.40 | 5:52.01 | 84865 | 111265 5 | 24:43.41 | 5:54.10 | 111266 | 137825 6 | 30:37.51 | 4:57.04 | 137826 | 160104 7 | 35:34.55 | 4:58.11 | 160105 | 182465 8 | 40:32.66 | 4:07.61 | 182466 | 201051 9 | 44:40.52 | 4:40.21 | 201052 | 222072 10 | 49:20.73 | 5:25.40 | 222073 | 246487 11 | 54:46.38 | 11:21.44 | 246488 | 297606 12 | 66:08.07 | 4:14.17 | 297607 | 316673 13 | 70:22.24 | 5:21.14 | 316674 | 340762 14 | 75:43.38 | 3:43.46 | 340763 | 357533
Характеристики диапазона извлечения и сообщения об ошибках
Выбранный диапазон
Имя файла E:\Trivium\2008 - Shogun\Trivium - Shogun.wav
Пиковый уровень 100.0 % Скорость извлечения 4.4 X Качество диапазона 100.0 % CRC копии C4123C3D Копирование... OK
Ошибок не произошло
Конец отчёта
---- CUETools DB Plugin V2.1.4
[CTDB TOCID: P_q69e9q5fWQaWlDHirfQ1.u_HQ-] foundSubmit result: P_q69e9q5fWQaWlDHirfQ1.u_HQ- has been confirmedTrack | CTDB Status 1 | (115/115) Accurately ripped 2 | (114/115) Accurately ripped 3 | (113/115) Accurately ripped 4 | (115/115) Accurately ripped 5 | (114/115) Accurately ripped 6 | (115/115) Accurately ripped 7 | (115/115) Accurately ripped 8 | (115/115) Accurately ripped 9 | (115/115) Accurately ripped 10 | (115/115) Accurately ripped 11 | (114/115) Accurately ripped 12 | (113/115) Accurately ripped 13 | (114/115) Accurately ripped 14 | (114/115) Accurately ripped
==== Контрольная сумма отчёта 39024C5855B2F9FF0E2EB3FA567163EC8ADEC72C3482EFBBA52AB15CB80F4403 ====

Содержание индексной карты (.CUE):

REM DATE 2008REM DISCID E2129F0EPERFORMER "Trivium"TITLE "Shogun"REM DISCNUMBER 1REM TOTALDISCS 1FILE "01 Kirisute Gomen.m4a" WAVE TRACK 01 AUDIO TITLE "Kirisute Gomen" PERFORMER "Trivium" INDEX 01 00:00:00FILE "02 Torn Between Scylla and Charybdis.m4a" WAVE TRACK 02 AUDIO TITLE "Torn Between Scylla and Charybdis" PERFORMER "Trivium" INDEX 01 00:00:00FILE "03 Down From the Sky.m4a" WAVE TRACK 03 AUDIO TITLE "Down From the Sky" PERFORMER "Trivium" INDEX 01 00:00:00FILE "04 Into the Mouth of Hell We March.m4a" WAVE TRACK 04 AUDIO TITLE "Into the Mouth of Hell We March" PERFORMER "Trivium" INDEX 01 00:00:00FILE "05 Throes of Perdition.m4a" WAVE TRACK 05 AUDIO TITLE "Throes of Perdition" PERFORMER "Trivium" INDEX 01 00:00:00FILE "06 Insurrection.m4a" WAVE TRACK 06 AUDIO TITLE "Insurrection" PERFORMER "Trivium" INDEX 01 00:00:00FILE "07 The Calamity.m4a" WAVE TRACK 07 AUDIO TITLE "The Calamity" PERFORMER "Trivium" INDEX 01 00:00:00FILE "08 He Who Spawned the Furies.m4a" WAVE TRACK 08 AUDIO TITLE "He Who Spawned the Furies" PERFORMER "Trivium" INDEX 01 00:00:00FILE "09 Of Prometheus and the Crucifix.m4a" WAVE TRACK 09 AUDIO TITLE "Of Prometheus and the Crucifix" PERFORMER "Trivium" INDEX 01 00:00:00FILE "10 Like Callisto to a Star in Heaven.m4a" WAVE TRACK 10 AUDIO TITLE "Like Callisto to a Star in Heaven" PERFORMER "Trivium" INDEX 01 00:00:00FILE "11 Shogun.m4a" WAVE TRACK 11 AUDIO TITLE "Shogun" PERFORMER "Trivium" INDEX 01 00:00:00 TRACK 12 AUDIO TITLE "Poison, the Knife or the Noose" PERFORMER "Trivium" INDEX 00 11:18:57FILE "12 Poison, the Knife or the Noose.m4a" WAVE INDEX 01 00:00:00FILE "13 Upon the Shores.m4a" WAVE TRACK 13 AUDIO TITLE "Upon the Shores" PERFORMER "Trivium" INDEX 01 00:00:00FILE "14 Iron Maiden.m4a" WAVE TRACK 14 AUDIO TITLE "Iron Maiden" PERFORMER "Trivium" INDEX 01 00:00:00

2011 - In WavesЛог создания рипа:

Exact Audio Copy V1.0 beta 4 from 7. December 2014
Отчёт EAC об извлечении, выполненном 27. ноября 2016, 17:22
Trivium / In Waves (Special Edition)
Дисковод: TSSTcorpCDDVDW SN-208AB Adapter: 1 ID: 0
Режим чтения : ДостоверностьИспользование точного потока : ДаОтключение кэша аудио : ДаИспользование указателей C2 : Нет
Коррекция смещения при чтении : 6Способность читать области Lead-in и Lead-out : НетЗаполнение пропущенных сэмплов тишиной : ДаУдаление блоков с тишиной в начале и конце : НетПри вычислениях CRC использовались нулевые сэмплы : ДаИнтерфейс : Встроенный Win32-интерфейс для Win NT/2000
Выходной формат : Внутренние WAV-операцииФормат файла сэмплов : 44.100 Гц; 16 бит; стерео
TOC извлечённого CD
Трек | Старт | Длительность | Начальный сектор | Конечный сектор --------------------------------------------------------------------- 1 | 0:00.00 | 1:30.46 | 0 | 6795 2 | 1:30.46 | 5:02.35 | 6796 | 29480 3 | 6:33.06 | 3:48.03 | 29481 | 46583 4 | 10:21.09 | 3:47.39 | 46584 | 63647 5 | 14:08.48 | 4:53.07 | 63648 | 85629 6 | 19:01.55 | 3:27.67 | 85630 | 101221 7 | 22:29.47 | 4:52.12 | 101222 | 123133 8 | 27:21.59 | 1:22.34 | 123134 | 129317 9 | 28:44.18 | 3:08.14 | 129318 | 143431 10 | 31:52.32 | 5:34.71 | 143432 | 168552 11 | 37:27.28 | 5:20.51 | 168553 | 192603 12 | 42:48.04 | 4:29.69 | 192604 | 212847 13 | 47:17.73 | 2:41.25 | 212848 | 224947 14 | 49:59.23 | 4:07.50 | 224948 | 243522 15 | 54:06.73 | 4:21.43 | 243523 | 263140 16 | 58:28.41 | 1:37.43 | 263141 | 270458 17 | 60:06.09 | 4:42.36 | 270459 | 291644 18 | 64:48.45 | 2:58.21 | 291645 | 305015
Характеристики диапазона извлечения и сообщения об ошибках
Выбранный диапазон
Имя файла E:\Trivium\2011 - In Waves\Trivium - In Waves (Special Edition).wav
Пиковый уровень 97.8 % Скорость извлечения 1.5 X Качество диапазона 100.0 % CRC копии C12D0F40 Копирование... OK
Ошибок не произошло
Конец отчёта
---- CUETools DB Plugin V2.1.4
[CTDB TOCID: BMBmUblTeKgeh.6Xw5T_pjkjXRY-] foundSubmit result: BMBmUblTeKgeh.6Xw5T_pjkjXRY- has been confirmedTrack | CTDB Status 1 | (125/125) Accurately ripped 2 | (125/125) Accurately ripped 3 | (125/125) Accurately ripped 4 | (125/125) Accurately ripped 5 | (125/125) Accurately ripped 6 | (125/125) Accurately ripped 7 | (125/125) Accurately ripped 8 | (125/125) Accurately ripped 9 | (125/125) Accurately ripped 10 | (125/125) Accurately ripped 11 | (125/125) Accurately ripped 12 | (125/125) Accurately ripped 13 | (125/125) Accurately ripped 14 | (125/125) Accurately ripped 15 | (125/125) Accurately ripped 16 | (125/125) Accurately ripped 17 | (125/125) Accurately ripped 18 | (124/125) Accurately ripped
==== Контрольная сумма отчёта D74F577D2F8D7B621BA785195D474BCCCE2AC62F2334CD14895F9F669E94F91B ====

Содержание индексной карты (.CUE):

REM DATE 2011REM DISCID EE0FE212PERFORMER "Trivium"TITLE "In Waves (Special Edition)"REM DISCNUMBER 1REM TOTALDISCS 1FILE "01 Capsizing the Sea.m4a" WAVE TRACK 01 AUDIO TITLE "Capsizing the Sea" PERFORMER "Trivium" INDEX 01 00:00:00FILE "02 In Waves.m4a" WAVE TRACK 02 AUDIO TITLE "In Waves" PERFORMER "Trivium" INDEX 01 00:00:00FILE "03 Inception of the End.m4a" WAVE TRACK 03 AUDIO TITLE "Inception of the End" PERFORMER "Trivium" INDEX 01 00:00:00FILE "04 Dusk Dismantled.m4a" WAVE TRACK 04 AUDIO TITLE "Dusk Dismantled" PERFORMER "Trivium" INDEX 01 00:00:00FILE "05 Watch the World Burn.m4a" WAVE TRACK 05 AUDIO TITLE "Watch the World Burn" PERFORMER "Trivium" INDEX 01 00:00:00FILE "06 Black.m4a" WAVE TRACK 06 AUDIO TITLE "Black" PERFORMER "Trivium" INDEX 01 00:00:00FILE "07 A Skyline's Severance.m4a" WAVE TRACK 07 AUDIO TITLE "A Skyline's Severance" PERFORMER "Trivium" INDEX 01 00:00:00FILE "08 Ensnare the Sun.m4a" WAVE TRACK 08 AUDIO TITLE "Ensnare the Sun" PERFORMER "Trivium" INDEX 01 00:00:00FILE "09 Built to Fall.m4a" WAVE TRACK 09 AUDIO TITLE "Built to Fall" PERFORMER "Trivium" INDEX 01 00:00:00FILE "10 Caustic Are the Ties That Bind.m4a" WAVE TRACK 10 AUDIO TITLE "Caustic Are the Ties That Bind" PERFORMER "Trivium" INDEX 01 00:00:00FILE "11 Forsake Not the Dream.m4a" WAVE TRACK 11 AUDIO TITLE "Forsake Not the Dream" PERFORMER "Trivium" INDEX 01 00:00:00FILE "12 Drowning in Slow Motion.m4a" WAVE TRACK 12 AUDIO TITLE "Drowning in Slow Motion" PERFORMER "Trivium" INDEX 01 00:00:00FILE "13 A Grey So Dark.m4a" WAVE TRACK 13 AUDIO TITLE "A Grey So Dark" PERFORMER "Trivium" INDEX 01 00:00:00FILE "14 Chaos Reigns.m4a" WAVE TRACK 14 AUDIO TITLE "Chaos Reigns" PERFORMER "Trivium" INDEX 01 00:00:00FILE "15 Of All These Yesterdays.m4a" WAVE TRACK 15 AUDIO TITLE "Of All These Yesterdays" PERFORMER "Trivium" INDEX 01 00:00:00FILE "16 Leaving This World Behind.m4a" WAVE TRACK 16 AUDIO TITLE "Leaving This World Behind" PERFORMER "Trivium" INDEX 01 00:00:00 TRACK 17 AUDIO TITLE "Shattering the Skies Above" PERFORMER "Trivium" INDEX 00 01:32:62FILE "17 Shattering the Skies Above.m4a" WAVE INDEX 01 00:00:00FILE "18 Slave New World.m4a" WAVE TRACK 18 AUDIO TITLE "Slave New World" PERFORMER "Trivium" INDEX 01 00:00:00

2013 - Vengeance FallsЛог создания рипа:

Exact Audio Copy V1.0 beta 3 from 29. August 2011
EAC extraction logfile from 10. November 2013, 19:54
Trivium / Vengeance Falls
Used drive : TSSTcorpCDDVDW TS-L633C Adapter: 0 ID: 0
Read mode : SecureUtilize accurate stream : YesDefeat audio cache : YesMake use of C2 pointers : No
Read offset correction : 6Overread into Lead-In and Lead-Out : NoFill up missing offset samples with silence : YesDelete leading and trailing silent blocks : NoNull samples used in CRC calculations : YesUsed interface : Native Win32 interface for Win NT & 2000Gap handling : Appended to previous track
Used output format : User Defined EncoderSelected bitrate : 128 kBit/sQuality : HighAdd ID3 tag : NoCommand line compressor : C:\Program Files (x86)\Exact Audio Copy\Flac\flac.exeAdditional command line options : -8 -V -T "ARTIST=%artist%" -T "TITLE=%title%" -T "ALBUM=%albumtitle%" -T "DATE=%year%" -T "TRACKNUMBER=%tracknr%" -T "GENRE=%genre%" -T "PERFORMER=%albuminterpret%" -T "COMPOSER=%composer%" %haslyrics%--tag-from-file=LYRICS="%lyricsfile%"%haslyrics% -T "ALBUMARTIST=%albumartist%" -T "DISCNUMBER=%cdnumber%" -T "TOTALDISCS=%totalcds%" -T "TOTALTRACKS=%numtracks%" -T "COMMENT=%comment%" %source% -o %dest%
TOC of the extracted CD
Track | Start | Length | Start sector | End sector --------------------------------------------------------- 1 | 0:00.00 | 4:29.64 | 0 | 20238 2 | 4:29.64 | 4:13.49 | 20239 | 39262 3 | 8:43.38 | 4:28.54 | 39263 | 59416 4 | 13:12.17 | 4:05.55 | 59417 | 77846 5 | 17:17.72 | 4:32.47 | 77847 | 98293 6 | 21:50.44 | 4:47.51 | 98294 | 119869 7 | 26:38.20 | 4:26.13 | 119870 | 139832 8 | 31:04.33 | 4:54.67 | 139833 | 161949 9 | 35:59.25 | 5:52.16 | 161950 | 188365 10 | 41:51.41 | 6:00.57 | 188366 | 215422 11 | 47:52.23 | 3:59.58 | 215423 | 233405 12 | 51:52.06 | 5:51.20 | 233406 | 259750 13 | 57:43.26 | 3:31.43 | 259751 | 275618 14 | 61:14.69 | 4:40.74 | 275619 | 296692
Track 1
Filename E:\Trivium - Vengeance Falls (2013) [Japan]\01. Brave This Storm.wav
Pre-gap length 0:00:02.00
Peak level 97.7 % Extraction speed 2.8 X Track quality 100.0 % Test CRC 0C1C6DF3 Copy CRC 0C1C6DF3 Accurately ripped (confidence 1) [4EEB0C00] (AR v2) Copy OK
Track 2
Filename E:\Trivium - Vengeance Falls (2013) [Japan]\02. Vengeance Falls.wav
Peak level 97.7 % Extraction speed 2.7 X Track quality 99.9 % Test CRC 81FF8F76 Copy CRC 81FF8F76 Accurately ripped (confidence 1) [0DA6399C] (AR v2) Copy OK
Track 3
Filename E:\Trivium - Vengeance Falls (2013) [Japan]\03. Strife.wav
Peak level 97.7 % Extraction speed 3.4 X Track quality 100.0 % Test CRC C9066A3B Copy CRC C9066A3B Accurately ripped (confidence 1) [E62977C0] (AR v2) Copy OK
Track 4
Filename E:\Trivium - Vengeance Falls (2013) [Japan]\04. No Way to Heal.wav
Peak level 97.7 % Extraction speed 3.6 X Track quality 100.0 % Test CRC 285BC93D Copy CRC 285BC93D Accurately ripped (confidence 1) [7E387F20] (AR v2) Copy OK
Track 5
Filename E:\Trivium - Vengeance Falls (2013) [Japan]\05. To Believe.wav
Peak level 97.7 % Extraction speed 3.8 X Track quality 100.0 % Test CRC 8CD8FFAB Copy CRC 8CD8FFAB Accurately ripped (confidence 1) [4E46931A] (AR v2) Copy OK
Track 6
Filename E:\Trivium - Vengeance Falls (2013) [Japan]\06. At the End of This War.wav
Peak level 97.7 % Extraction speed 4.1 X Track quality 100.0 % Test CRC 89A35BC1 Copy CRC 89A35BC1 Accurately ripped (confidence 1) [84EAC140] (AR v2) Copy OK
Track 7
Filename E:\Trivium - Vengeance Falls (2013) [Japan]\07. Through Blood and Dirt and Bone.wav
Peak level 97.7 % Extraction speed 4.3 X Track quality 100.0 % Test CRC 473B7B2F Copy CRC 473B7B2F Accurately ripped (confidence 1) [63B846F2] (AR v2) Copy OK
Track 8
Filename E:\Trivium - Vengeance Falls (2013) [Japan]\08. Villainy Thrives.wav
Peak level 97.7 % Extraction speed 4.6 X Track quality 100.0 % Test CRC 173C57DB Copy CRC 173C57DB Accurately ripped (confidence 1) [BD5B6134] (AR v2) Copy OK
Track 9
Filename E:\Trivium - Vengeance Falls (2013) [Japan]\09. Incineration- The Broken World.wav
Peak level 97.7 % Extraction speed 4.9 X Track quality 100.0 % Test CRC 17313576 Copy CRC 17313576 Accurately ripped (confidence 1) [67B8EB31] (AR v2) Copy OK
Track 10
Filename E:\Trivium - Vengeance Falls (2013) [Japan]\10. Wake (The End Is Nigh).wav
Peak level 97.7 % Extraction speed 4.9 X Track quality 100.0 % Test CRC F0B81FA1 Copy CRC F0B81FA1 Accurately ripped (confidence 1) [DE6587BC] (AR v2) Copy OK
Track 11
Filename E:\Trivium - Vengeance Falls (2013) [Japan]\11. No Hope For the Human Race.wav
Pre-gap length 0:00:02.66
Peak level 97.7 % Extraction speed 4.9 X Track quality 100.0 % Test CRC 47FD484E Copy CRC 47FD484E Accurately ripped (confidence 1) [1541CB2A] (AR v2) Copy OK
Track 12
Filename E:\Trivium - Vengeance Falls (2013) [Japan]\12. As I Am Exploding.wav
Peak level 97.7 % Extraction speed 4.8 X Track quality 99.9 % Test CRC F08E704D Copy CRC F08E704D Accurately ripped (confidence 1) [AFCB8860] (AR v2) Copy OK
Track 13
Filename E:\Trivium - Vengeance Falls (2013) [Japan]\13. Skulls...We Are 138.wav
Peak level 97.7 % Extraction speed 5.1 X Track quality 100.0 % Test CRC 406346E3 Copy CRC 406346E3 Accurately ripped (confidence 1) [AFA4819D] (AR v2) Copy OK
Track 14
Filename E:\Trivium - Vengeance Falls (2013) [Japan]\14. Losing My Religion.wav
Peak level 97.7 % Extraction speed 5.4 X Track quality 100.0 % Test CRC 5C56117A Copy CRC 5C56117A Accurately ripped (confidence 1) [8B137E0A] (AR v2) Copy OK
All tracks accurately ripped
No errors occurred
End of status report
==== Log checksum 2E7FD160A297B9C1FB88541F562B8B71DEBF4A37ED422FF09B89C55DE36B843F ====

Содержание индексной карты (.CUE):

REM DATE 2013REM DISCID B70F730EPERFORMER "Trivium"TITLE "Vengeance Falls"REM DISCNUMBER 1REM TOTALDISCS 1FILE "01 Brave This Storm.m4a" WAVE TRACK 01 AUDIO TITLE "Brave This Storm" PERFORMER "Trivium" INDEX 01 00:00:00FILE "02 Vengeance Falls.m4a" WAVE TRACK 02 AUDIO TITLE "Vengeance Falls" PERFORMER "Trivium" INDEX 01 00:00:00FILE "03 Strife.m4a" WAVE TRACK 03 AUDIO TITLE "Strife" PERFORMER "Trivium" INDEX 01 00:00:00FILE "04 No Way To Heal.m4a" WAVE TRACK 04 AUDIO TITLE "No Way To Heal" PERFORMER "Trivium" INDEX 01 00:00:00FILE "05 To Believe.m4a" WAVE TRACK 05 AUDIO TITLE "To Believe" PERFORMER "Trivium" INDEX 01 00:00:00FILE "06 At The End Of This War.m4a" WAVE TRACK 06 AUDIO TITLE "At The End Of This War" PERFORMER "Trivium" INDEX 01 00:00:00FILE "07 Through Blood And Dirt And Bone.m4a" WAVE TRACK 07 AUDIO TITLE "Through Blood And Dirt And Bone" PERFORMER "Trivium" INDEX 01 00:00:00FILE "08 Villainy Thrives.m4a" WAVE TRACK 08 AUDIO TITLE "Villainy Thrives" PERFORMER "Trivium" INDEX 01 00:00:00FILE "09 Incineration_ The Broken World.m4a" WAVE TRACK 09 AUDIO TITLE "Incineration: The Broken World" PERFORMER "Trivium" INDEX 01 00:00:00FILE "10 Wake (The End Is Nigh).m4a" WAVE TRACK 10 AUDIO TITLE "Wake (The End Is Nigh)" PERFORMER "Trivium" INDEX 01 00:00:00 TRACK 11 AUDIO TITLE "No Hope For The Human Race" PERFORMER "Trivium" INDEX 00 05:57:66FILE "11 No Hope For The Human Race.m4a" WAVE INDEX 01 00:00:00FILE "12 As I Am Exploding.m4a" WAVE TRACK 12 AUDIO TITLE "As I Am Exploding" PERFORMER "Trivium" INDEX 01 00:00:00FILE "13 Skulls… We Are 138.m4a" WAVE TRACK 13 AUDIO TITLE "Skulls… We Are 138" PERFORMER "Trivium" INDEX 01 00:00:00FILE "14 Losing My Religion.m4a" WAVE TRACK 14 AUDIO TITLE "Losing My Religion" PERFORMER "Trivium" INDEX 01 00:00:00

2015 - Silence in the Snow (Deluxe Edition)Лог создания рипа:

Exact Audio Copy V1.0 beta 4 from 7. December 2014
Отчёт EAC об извлечении, выполненном 5. декабря 2016, 7:46
Trivium / Silence In The Snow (Deluxe Edition)
Дисковод: TSSTcorpCDDVDW SN-208AB Adapter: 1 ID: 0
Режим чтения : ДостоверностьИспользование точного потока : ДаОтключение кэша аудио : ДаИспользование указателей C2 : Нет
Коррекция смещения при чтении : 6Способность читать области Lead-in и Lead-out : НетЗаполнение пропущенных сэмплов тишиной : ДаУдаление блоков с тишиной в начале и конце : НетПри вычислениях CRC использовались нулевые сэмплы : ДаИнтерфейс : Встроенный Win32-интерфейс для Win NT/2000
Выходной формат : Внутренние WAV-операцииФормат файла сэмплов : 44.100 Гц; 16 бит; стерео
TOC извлечённого CD
Трек | Старт | Длительность | Начальный сектор | Конечный сектор --------------------------------------------------------------------- 1 | 0:00.00 | 1:28.28 | 0 | 6627 2 | 1:28.28 | 3:40.31 | 6628 | 23158 3 | 5:08.59 | 4:25.67 | 23159 | 43100 4 | 9:34.51 | 3:46.32 | 43101 | 60082 5 | 13:21.08 | 4:09.49 | 60083 | 78806 6 | 17:30.57 | 3:53.57 | 78807 | 96338 7 | 21:24.39 | 5:21.12 | 96339 | 120425 8 | 26:45.51 | 3:54.36 | 120426 | 138011 9 | 30:40.12 | 3:30.37 | 138012 | 153798 10 | 34:10.49 | 3:56.43 | 153799 | 171541 11 | 38:07.17 | 5:10.57 | 171542 | 194848 12 | 43:17.74 | 5:01.58 | 194849 | 217481 13 | 48:19.57 | 4:46.10 | 217482 | 238941
Характеристики диапазона извлечения и сообщения об ошибках
Выбранный диапазон
Имя файла E:\Torrentc\Upload\Trivium Discography\Albums\2015 - Silence In The Snow (EU, Roadrunner Records, RR 7502-5)\Trivium - Silence In The Snow (Deluxe Edition).wav
Пиковый уровень 96.6 % Скорость извлечения 3.5 X Качество диапазона 99.9 % CRC копии B0455DD2 Копирование... OK
Ошибок не произошло
Конец отчёта
---- CUETools DB Plugin V2.1.4
[CTDB TOCID: XQBupZCLCdCwj7354fDt6VUcw.s-] foundSubmit result: XQBupZCLCdCwj7354fDt6VUcw.s- has been confirmedTrack | CTDB Status 1 | (172/173) Accurately ripped 2 | (172/173) Accurately ripped 3 | (172/173) Accurately ripped 4 | (171/173) Accurately ripped 5 | (171/173) Accurately ripped 6 | (171/173) Accurately ripped 7 | (172/173) Accurately ripped 8 | (172/173) Accurately ripped 9 | (172/173) Accurately ripped 10 | (172/173) Accurately ripped 11 | (172/173) Accurately ripped 12 | (172/173) Accurately ripped 13 | (172/173) Accurately ripped
==== Контрольная сумма отчёта 0D940D99C58BCF989F5E89225048AA0E939947F35F2E9F91FA85141A429CEF46 ====

Содержание индексной карты (.CUE):

REM DATE 2015REM DISCID A50C710DPERFORMER "Trivium"TITLE "Silence in the Snow"REM DISCNUMBER 1REM TOTALDISCS 1FILE "01 Snofall.m4a" WAVE TRACK 01 AUDIO TITLE "Snøfall" PERFORMER "Trivium" FLAGS DCP INDEX 01 00:00:00FILE "02 Silence in the Snow.m4a" WAVE TRACK 02 AUDIO TITLE "Silence in the Snow" PERFORMER "Trivium" FLAGS DCP INDEX 01 00:00:00FILE "03 Blind Leading the Blind.m4a" WAVE TRACK 03 AUDIO TITLE "Blind Leading the Blind" PERFORMER "Trivium" FLAGS DCP INDEX 01 00:00:00FILE "04 Dead and Gone.m4a" WAVE TRACK 04 AUDIO TITLE "Dead and Gone" PERFORMER "Trivium" FLAGS DCP INDEX 01 00:00:00FILE "05 The Ghost That's Haunting You.m4a" WAVE TRACK 05 AUDIO TITLE "The Ghost That's Haunting You" PERFORMER "Trivium" FLAGS DCP INDEX 01 00:00:00FILE "06 Pull Me From the Void.m4a" WAVE TRACK 06 AUDIO TITLE "Pull Me From the Void" PERFORMER "Trivium" FLAGS DCP INDEX 01 00:00:00FILE "07 Until the World Goes Cold.m4a" WAVE TRACK 07 AUDIO TITLE "Until the World Goes Cold" PERFORMER "Trivium" FLAGS DCP INDEX 01 00:00:00FILE "08 Rise Above the Tides.m4a" WAVE TRACK 08 AUDIO TITLE "Rise Above the Tides" PERFORMER "Trivium" FLAGS DCP INDEX 01 00:00:00FILE "09 The Thing That's Killing Me.m4a" WAVE TRACK 09 AUDIO TITLE "The Thing That's Killing Me" PERFORMER "Trivium" FLAGS DCP INDEX 01 00:00:00FILE "10 Beneath the Sun.m4a" WAVE TRACK 10 AUDIO TITLE "Beneath the Sun" PERFORMER "Trivium" FLAGS DCP INDEX 01 00:00:00FILE "11 Breathe in the Flames.m4a" WAVE TRACK 11 AUDIO TITLE "Breathe in the Flames" PERFORMER "Trivium" FLAGS DCP INDEX 01 00:00:00FILE "12 Cease All Your Fire.m4a" WAVE TRACK 12 AUDIO TITLE "Cease All Your Fire" PERFORMER "Trivium" FLAGS DCP INDEX 01 00:00:00FILE "13 The Darkness of My Mind.m4a" WAVE TRACK 13 AUDIO TITLE "The Darkness of My Mind" PERFORMER "Trivium" FLAGS DCP INDEX 01 00:00:00

2017 - The Sin and the SentenceЛог создания рипа:

Exact Audio Copy V1.3 from 2. September 2016
EAC extraction logfile from 13. February 2018, 20:07
Trivium / The Sin and the Sentence
Used drive : TSSTcorpCDDVDW SH-224BB Adapter: 1 ID: 0
Read mode : SecureUtilize accurate stream : YesDefeat audio cache : YesMake use of C2 pointers : No
Read offset correction : 6Overread into Lead-In and Lead-Out : NoFill up missing offset samples with silence : YesDelete leading and trailing silent blocks : NoNull samples used in CRC calculations : YesUsed interface : Native Win32 interface for Win NT & 2000Gap handling : Appended to previous track
Used output format : User Defined EncoderSelected bitrate : 1024 kBit/sQuality : HighAdd ID3 tag : NoCommand line compressor : C:\Program Files (x86)\Exact Audio Copy\Flac\flac.exeAdditional command line options : -8 -e -p -V -T "ARTIST=%artist%" -T "TITLE=%title%" -T "ALBUM=%albumtitle%" -T "DATE=%year%" -T "TRACKNUMBER=%tracknr%" -T "GENRE=%genre%" -T "PERFORMER=%albuminterpret%" -T "COMPOSER=%composer%" %haslyrics%--tag-from-file=LYRICS="%lyricsfile%"%haslyrics% -T "ALBUMARTIST=%albumartist%" -T "DISCNUMBER=%cdnumber%" -T "TOTALDISCS=%totalcds%" -T "TOTALTRACKS=%numtracks%" -T "COMMENT=%comment%" %source% -o %dest%
TOC of the extracted CD
Track | Start | Length | Start sector | End sector --------------------------------------------------------- 1 | 0:00.00 | 6:23.24 | 0 | 28748 2 | 6:23.24 | 5:16.50 | 28749 | 52498 3 | 11:39.74 | 4:49.63 | 52499 | 74236 4 | 16:29.62 | 4:03.64 | 74237 | 92525 5 | 20:33.51 | 5:27.02 | 92526 | 117052 6 | 26:00.53 | 5:31.70 | 117053 | 141947 7 | 31:32.48 | 3:38.30 | 141948 | 158327 8 | 35:11.03 | 5:25.50 | 158328 | 182752 9 | 40:36.53 | 4:31.34 | 182753 | 203111 10 | 45:08.12 | 7:17.32 | 203112 | 235918 11 | 52:25.44 | 5:29.36 | 235919 | 260629 12 | 57:55.05 | 5:03.55 | 260630 | 283409
Track 1
Filename G:\Media\Music\Rips\Trivium - The Sin and the Sentence (2017)\01 - The Sin and the Sentence.wav
Pre-gap length 0:00:02.00
Peak level 100.0 % Extraction speed 2.1 X Track quality 100.0 % Test CRC 2000452D Copy CRC 2000452D Accurately ripped (confidence 2) [575C0199] (AR v2) Copy OK
Track 2
Filename G:\Media\Music\Rips\Trivium - The Sin and the Sentence (2017)\02 - Beyond Oblivion.wav
Peak level 100.0 % Extraction speed 2.3 X Track quality 100.0 % Test CRC 3CFC26A1 Copy CRC 3CFC26A1 Accurately ripped (confidence 2) [3D770E52] (AR v2) Copy OK
Track 3
Filename G:\Media\Music\Rips\Trivium - The Sin and the Sentence (2017)\03 - Other Worlds.wav
Peak level 100.0 % Extraction speed 2.1 X Track quality 99.9 % Test CRC BAF65063 Copy CRC BAF65063 Accurately ripped (confidence 2) [C5C8A833] (AR v2) Copy OK
Track 4
Filename G:\Media\Music\Rips\Trivium - The Sin and the Sentence (2017)\04 - The Heart From Your Hate.wav
Peak level 100.0 % Extraction speed 2.6 X Track quality 100.0 % Test CRC AD70C468 Copy CRC AD70C468 Accurately ripped (confidence 2) [1B0A34A9] (AR v2) Copy OK
Track 5
Filename G:\Media\Music\Rips\Trivium - The Sin and the Sentence (2017)\05 - Betrayer.wav
Peak level 100.0 % Extraction speed 2.4 X Track quality 99.9 % Test CRC D648BB43 Copy CRC D648BB43 Accurately ripped (confidence 2) [07E23F9B] (AR v2) Copy OK
Track 6
Filename G:\Media\Music\Rips\Trivium - The Sin and the Sentence (2017)\06 - The Wretchedness Inside.wav
Peak level 100.0 % Extraction speed 3.1 X Track quality 100.0 % Test CRC C123A8C1 Copy CRC C123A8C1 Accurately ripped (confidence 2) [132C1FBF] (AR v2) Copy OK
Track 7
Filename G:\Media\Music\Rips\Trivium - The Sin and the Sentence (2017)\07 - Endless Night.wav
Peak level 100.0 % Extraction speed 3.1 X Track quality 100.0 % Test CRC E4D06849 Copy CRC E4D06849 Accurately ripped (confidence 2) [294213AA] (AR v2) Copy OK
Track 8
Filename G:\Media\Music\Rips\Trivium - The Sin and the Sentence (2017)\08 - Sever the Hand.wav
Peak level 100.0 % Extraction speed 2.7 X Track quality 99.9 % Test CRC CD81F5CA Copy CRC CD81F5CA Accurately ripped (confidence 2) [637DD8EE] (AR v2) Copy OK
Track 9
Filename G:\Media\Music\Rips\Trivium - The Sin and the Sentence (2017)\09 - Beauty in the Sorrow.wav
Peak level 100.0 % Extraction speed 3.4 X Track quality 100.0 % Test CRC 83424198 Copy CRC 83424198 Accurately ripped (confidence 2) [0CBFE8E6] (AR v2) Copy OK
Track 10
Filename G:\Media\Music\Rips\Trivium - The Sin and the Sentence (2017)\10 - The Revanchist.wav
Peak level 100.0 % Extraction speed 3.7 X Track quality 100.0 % Test CRC ADBABAF1 Copy CRC ADBABAF1 Accurately ripped (confidence 2) [793CC739] (AR v2) Copy OK
Track 11
Filename G:\Media\Music\Rips\Trivium - The Sin and the Sentence (2017)\11 - Thrown Into the Fire.wav
Peak level 100.0 % Extraction speed 3.8 X Track quality 100.0 % Test CRC 1201C5C8 Copy CRC 1201C5C8 Accurately ripped (confidence 2) [2BEB2CC5] (AR v2) Copy OK
Track 12
Filename G:\Media\Music\Rips\Trivium - The Sin and the Sentence (2017)\12 - Pillars of Serpents ’17.wav
Peak level 100.0 % Extraction speed 3.8 X Track quality 100.0 % Test CRC 79913A65 Copy CRC 79913A65 Accurately ripped (confidence 2) [DFEE8DC5] (AR v2) Copy OK
All tracks accurately ripped
No errors occurred
End of status report
---- CUETools DB Plugin V2.1.6
[CTDB TOCID: d6Rf.Rjqi2AIBNzy2TOpiA5MERg-] foundSubmit result: d6Rf.Rjqi2AIBNzy2TOpiA5MERg- has been confirmedTrack | CTDB Status 1 | (9/9) Accurately ripped 2 | (9/9) Accurately ripped 3 | (9/9) Accurately ripped 4 | (9/9) Accurately ripped 5 | (9/9) Accurately ripped 6 | (9/9) Accurately ripped 7 | (9/9) Accurately ripped 8 | (9/9) Accurately ripped 9 | (9/9) Accurately ripped 10 | (9/9) Accurately ripped 11 | (9/9) Accurately ripped 12 | (9/9) Accurately ripped
==== Log checksum EBC1E6F11F7A8E64529C077E7CB8B628DBDE1A2047756185F70DA4BE0FE14551 ====

Содержание индексной карты (.CUE):

REM DATE 2017REM DISCID A20EC20CPERFORMER "Trivium"TITLE "The Sin and the Sentence"REM COMPOSER ""REM DISCNUMBER 1REM TOTALDISCS 1FILE "01 The Sin and the Sentence.m4a" WAVE TRACK 01 AUDIO TITLE "The Sin and the Sentence" PERFORMER "Trivium" REM COMPOSER "" INDEX 01 00:00:00FILE "02 Beyond Oblivion.m4a" WAVE TRACK 02 AUDIO TITLE "Beyond Oblivion" PERFORMER "Trivium" REM COMPOSER "" INDEX 01 00:00:00FILE "03 Other Worlds.m4a" WAVE TRACK 03 AUDIO TITLE "Other Worlds" PERFORMER "Trivium" REM COMPOSER "" INDEX 01 00:00:00FILE "04 The Heart from Your Hate.m4a" WAVE TRACK 04 AUDIO TITLE "The Heart from Your Hate" PERFORMER "Trivium" REM COMPOSER "" INDEX 01 00:00:00FILE "05 Betrayer.m4a" WAVE TRACK 05 AUDIO TITLE "Betrayer" PERFORMER "Trivium" REM COMPOSER "" INDEX 01 00:00:00FILE "06 The Wretchedness Inside.m4a" WAVE TRACK 06 AUDIO TITLE "The Wretchedness Inside" PERFORMER "Trivium" REM COMPOSER "" INDEX 01 00:00:00FILE "07 Endless Night.m4a" WAVE TRACK 07 AUDIO TITLE "Endless Night" PERFORMER "Trivium" REM COMPOSER "" INDEX 01 00:00:00FILE "08 Sever the Hand.m4a" WAVE TRACK 08 AUDIO TITLE "Sever the Hand" PERFORMER "Trivium" REM COMPOSER "" INDEX 01 00:00:00FILE "09 Beauty in the Sorrow.m4a" WAVE TRACK 09 AUDIO TITLE "Beauty in the Sorrow" PERFORMER "Trivium" REM COMPOSER "" INDEX 01 00:00:00FILE "10 The Revanchist.m4a" WAVE TRACK 10 AUDIO TITLE "The Revanchist" PERFORMER "Trivium" REM COMPOSER "" INDEX 01 00:00:00FILE "11 Thrown Into the Fire.m4a" WAVE TRACK 11 AUDIO TITLE "Thrown Into the Fire" PERFORMER "Trivium" REM COMPOSER "" INDEX 01 00:00:00FILE "12 Pillars of Serpents '17.m4a" WAVE TRACK 12 AUDIO TITLE "Pillars of Serpents ’17" PERFORMER "Trivium" REM COMPOSER "" INDEX 01 00:00:00
-

Скриншоты



[islamvillage.com]_t_5437248.torrent
Торрент: Зарегистрирован ·  [ 2019-01-02 14:14 ] ·  235f1b8b36b93bfd8bbfb3de56fd4013616b4954

34 KB

Статус: проверено
Скачан: 0 раз
Размер: 4.22 GB
Оценка: 
(Голосов: 0)
Сказали спасибо: 0  Спасибо
Похожие темы
[Профиль]    [ЛС]
Показать сообщения:    
Ответить на тему

Текущее время: Сегодня 19:48

Часовой пояс: GMT + 7



Вы не можете начинать темы
Вы не можете отвечать на сообщения
Вы не можете редактировать свои сообщения
Вы не можете удалять свои сообщения
Вы не можете голосовать в опросах
Вы не можете прикреплять файлы к сообщениям
Вы можете скачивать файлы


Fatboy Slim | Season 2 Episode 6 The Sounds of Thunder | Правила