(Rap) [CD] Loco - Коллекция (2 альбома)- 2012-2018, ALAC (tracks+.cue), lossless

Ответить на тему
Статистика раздачи [Обновить пиров]
Размер:  723 MB   |    Зарегистрирован:  16 дней   |    Скачан:  0 раз

Полного источника не было: Никогда

 
   
 
 
 
Автор Сообщение

islamvillage.com

Создавать темы 02-Янв-2019 14:53

[Цитировать]

Loco / Коллекция
Жанр: Rap
Носитель: CD
Страна-производитель дисков: Россия
Годы издания: 2012-2018
Страна исполнителя (группы): Россия
Аудио кодек: ALAC (*.m4a)
Тип рипа: tracks+.cue
Программа-конвертер: Собственный рип (EAC), Собственный рип (iTunes)
Битрейт аудио: lossless
Наличие сканов в содержимом раздачи: да
Тексты: отсутствуют
Источник : Собственные диски

2012 - Сценарий ( 00:32:54

Издатель (лейбл): LOCK DOWN® production
Номер по каталогу: LDP001
Треклист:
01. Вы готовы (пролог)? ft. Алёна
02. Шикарный план… (интермедия 1)
03. Выстрел! (сюжет 1)
04. Весна (интермедия 2)
05. Из города Н (сюжет 2) ft. Бетик (СКВО) & Вальтер (Внешний Круг) & Black (Коза Ностра)
06. Связаны с русской мафией (интермедия 3)
07. Безумец (сюжет 3) ft. Chiko (Коза Ностра)
08. Скажи (сюжет 4) … ft. Дэниел Пол & Юлия Тигеева
09. Мой сценарий (интермедия 4)
10. Катя (сюжет 5) ft. Алёна
11. Сценарий (сюжет 6) ft. Алёна & GeeNerall (White Niggaz)
12. Уходите (интермедия 5)
13. Это игра (эпилог)

Лог создания рипа

Exact Audio Copy V1.3 from 2. September 2016
Отчёт EAC об извлечении, выполненном 25. мая 2018, 12:04
Loco / Сценарий
Дисковод: HL-DT-STDVDRAM GP60NB50 Adapter: 1 ID: 0
Режим чтения : ДостоверностьИспользование точного потока : ДаОтключение кэша аудио : ДаИспользование указателей C2 : Нет
Коррекция смещения при чтении : 6Способность читать области Lead-in и Lead-out : НетЗаполнение пропущенных сэмплов тишиной : ДаУдаление блоков с тишиной в начале и конце : НетПри вычислениях CRC использовались нулевые сэмплы : ДаИнтерфейс : Встроенный Win32-интерфейс для Win NT/2000Обработка зазоров : Добавлено к предыдущему треку
Выходной формат : Пользовательский кодировщикВыбранный битрейт : 128 kBit/sКачество : ВысокийДобавление ID3-тега : НетУтилита сжатия : C:\Users\Антон\Downloads\qaac_2.66\qaac_2.66\x64\refalac64.exeДополнительные параметры : -s --ignorelength --artist "%artist%" --title "%title%" --album "%albumtitle%" --date "%year%" --track "%tracknr%" --genre "%genre%" -o %dest% %source%
TOC извлечённого CD
Трек | Старт | Длительность | Начальный сектор | Конечный сектор --------------------------------------------------------------------- 1 | 0:00.00 | 1:34.19 | 0 | 7068 2 | 1:34.19 | 0:34.25 | 7069 | 9643 3 | 2:08.44 | 3:46.63 | 9644 | 26656 4 | 5:55.32 | 0:43.61 | 26657 | 29942 5 | 6:39.18 | 4:41.02 | 29943 | 51019 6 | 11:20.20 | 0:09.74 | 51020 | 51768 7 | 11:30.19 | 3:18.01 | 51769 | 66619 8 | 14:48.20 | 4:41.20 | 66620 | 87714 9 | 19:29.40 | 0:57.04 | 87715 | 91993 10 | 20:26.44 | 3:51.36 | 91994 | 109354 11 | 24:18.05 | 5:30.17 | 109355 | 134121 12 | 29:48.22 | 0:37.74 | 134122 | 136970 13 | 30:26.21 | 2:28.01 | 136971 | 148071
Трек 1
Имя файла C:\Users\Антон\Downloads\Музыка\Loco - Сценарий (2012)\01 Вы готовы (пролог) ft. Алёна.wav
Длина предзазора 0:00:02.00
Пиковый уровень 99.2 % Скорость извлечения 0.7 X Качество трека 99.8 % CRC теста 256E7D91 CRC копии 256E7D91 Трек не обнаружен в базе AccurateRip Копирование... OK
Трек 2
Имя файла C:\Users\Антон\Downloads\Музыка\Loco - Сценарий (2012)\02 Шикарный план… (интермедия 1).wav
Пиковый уровень 97.9 % Скорость извлечения 0.6 X Качество трека 100.0 % CRC теста 25604E36 CRC копии 25604E36 Трек не обнаружен в базе AccurateRip Копирование... OK
Трек 3
Имя файла C:\Users\Антон\Downloads\Музыка\Loco - Сценарий (2012)\03 Выстрел! (сюжет 1).wav
Пиковый уровень 100.0 % Скорость извлечения 1.2 X Качество трека 100.0 % CRC теста DAF8380D CRC копии DAF8380D Трек не обнаружен в базе AccurateRip Копирование... OK
Трек 4
Имя файла C:\Users\Антон\Downloads\Музыка\Loco - Сценарий (2012)\04 Весна (интермедия 2).wav
Пиковый уровень 97.8 % Скорость извлечения 0.5 X Качество трека 99.7 % CRC теста 902BC98B CRC копии 902BC98B Трек не обнаружен в базе AccurateRip Копирование... OK
Трек 5
Имя файла C:\Users\Антон\Downloads\Музыка\Loco - Сценарий (2012)\05 Из города Н (сюжет 2).wav
Пиковый уровень 100.0 % Скорость извлечения 1.4 X Качество трека 100.0 % CRC теста 3CC9B339 CRC копии 3CC9B339 Трек не обнаружен в базе AccurateRip Копирование... OK
Трек 6
Имя файла C:\Users\Антон\Downloads\Музыка\Loco - Сценарий (2012)\06 Связаны с русской мафией (интермедия 3).wav
Пиковый уровень 97.0 % Скорость извлечения 0.3 X Качество трека 100.0 % CRC теста 0473B3CA CRC копии 0473B3CA Трек не обнаружен в базе AccurateRip Копирование... OK
Трек 7
Имя файла C:\Users\Антон\Downloads\Музыка\Loco - Сценарий (2012)\07 Безумец (сюжет 3) ft. Chiko (Коза Ностра).wav
Пиковый уровень 99.2 % Скорость извлечения 1.4 X Качество трека 100.0 % CRC теста A7458D00 CRC копии A7458D00 Трек не обнаружен в базе AccurateRip Копирование... OK
Трек 8
Имя файла C:\Users\Антон\Downloads\Музыка\Loco - Сценарий (2012)\08 Скажи (сюжет 4) … ft. Дэниел Пол & Юлия Тигеева.wav
Пиковый уровень 98.8 % Скорость извлечения 1.6 X Качество трека 100.0 % CRC теста 16A6FA59 CRC копии 16A6FA59 Трек не обнаружен в базе AccurateRip Копирование... OK
Трек 9
Имя файла C:\Users\Антон\Downloads\Музыка\Loco - Сценарий (2012)\09 Мой сценарий (интермедия 4).wav
Пиковый уровень 98.1 % Скорость извлечения 1.1 X Качество трека 100.0 % CRC теста 54F6B1C7 CRC копии 54F6B1C7 Трек не обнаружен в базе AccurateRip Копирование... OK
Трек 10
Имя файла C:\Users\Антон\Downloads\Музыка\Loco - Сценарий (2012)\10 Катя (сюжет 5) ft. Алёна.wav
Пиковый уровень 98.6 % Скорость извлечения 1.7 X Качество трека 100.0 % CRC теста 329C9655 CRC копии 329C9655 Трек не обнаружен в базе AccurateRip Копирование... OK
Трек 11
Имя файла C:\Users\Антон\Downloads\Музыка\Loco - Сценарий (2012)\11 Сценарий (сюжет 6) ft. Алёна & GeeNerall (White Niggaz).wav
Пиковый уровень 100.0 % Скорость извлечения 1.8 X Качество трека 100.0 % CRC теста AFAEE3AF CRC копии AFAEE3AF Трек не обнаружен в базе AccurateRip Копирование... OK
Трек 12
Имя файла C:\Users\Антон\Downloads\Музыка\Loco - Сценарий (2012)\12 Уходите (интермедия 5).wav
Пиковый уровень 97.3 % Скорость извлечения 1.1 X Качество трека 100.0 % CRC теста AF4F7E10 CRC копии AF4F7E10 Трек не обнаружен в базе AccurateRip Копирование... OK
Трек 13
Имя файла C:\Users\Антон\Downloads\Музыка\Loco - Сценарий (2012)\13 Это игра (эпилог).wav
Пиковый уровень 99.2 % Скорость извлечения 1.7 X Качество трека 100.0 % CRC теста DFCB4774 CRC копии DFCB4774 Трек не обнаружен в базе AccurateRip Копирование... OK
Ни одного трека нет в базе AccurateRip
Ошибок не произошло
Конец отчёта
---- CUETools DB Plugin V2.1.6
[CTDB TOCID: CYsyRtASAtoXNVWKlKJ38wy_t.s-] disk not present in databaseSubmit result: CYsyRtASAtoXNVWKlKJ38wy_t.s- has been uploaded
==== Контрольная сумма отчёта 27E9061A98B7033783A635D7E8999B09A889B006F758C3F38F0310F6FB5ED28E ====

Содержание индексной карты (.CUE)

REM GENRE RapREM DATE 2012REM DISCID A107B60DREM COMMENT "ExactAudioCopy v1.3"PERFORMER "Loco"TITLE "Сценарий"REM COMPOSER ""FILE "01 Вы готовы (пролог) ft. Алёна.wav" WAVE TRACK 01 AUDIO TITLE "Вы готовы (пролог)? ft. Алёна" PERFORMER "Loco" REM COMPOSER "" INDEX 01 00:00:00FILE "02 Шикарный план… (интермедия 1).wav" WAVE TRACK 02 AUDIO TITLE "Шикарный план… (интермедия 1)" PERFORMER "Loco" REM COMPOSER "" INDEX 01 00:00:00FILE "03 Выстрел! (сюжет 1).wav" WAVE TRACK 03 AUDIO TITLE "Выстрел! (сюжет 1)" PERFORMER "Loco" REM COMPOSER "" INDEX 01 00:00:00FILE "04 Весна (интермедия 2).wav" WAVE TRACK 04 AUDIO TITLE "Весна (интермедия 2)" PERFORMER "Loco" REM COMPOSER "" INDEX 01 00:00:00FILE "05 Из города Н (сюжет 2).wav" WAVE TRACK 05 AUDIO TITLE "Из города Н (сюжет 2)" PERFORMER "Loco & Бетик (СКВО) & Вальтер (Внешний Круг) & Black (Коза Ностра)" REM COMPOSER "" INDEX 01 00:00:00FILE "06 Связаны с русской мафией (интермедия 3).wav" WAVE TRACK 06 AUDIO TITLE "Связаны с русской мафией (интермедия 3)" PERFORMER "Loco" REM COMPOSER "" INDEX 01 00:00:00FILE "07 Безумец (сюжет 3) ft. Chiko (Коза Ностра).wav" WAVE TRACK 07 AUDIO TITLE "Безумец (сюжет 3) ft. Chiko (Коза Ностра)" PERFORMER "Loco" REM COMPOSER "" INDEX 01 00:00:00FILE "08 Скажи (сюжет 4) … ft. Дэниел Пол & Юлия Тигеева.wav" WAVE TRACK 08 AUDIO TITLE "Скажи (сюжет 4) … ft. Дэниел Пол & Юлия Тигеева" PERFORMER "Loco" REM COMPOSER "" INDEX 01 00:00:00FILE "09 Мой сценарий (интермедия 4).wav" WAVE TRACK 09 AUDIO TITLE "Мой сценарий (интермедия 4)" PERFORMER "Loco" REM COMPOSER "" INDEX 01 00:00:00FILE "10 Катя (сюжет 5) ft. Алёна.wav" WAVE TRACK 10 AUDIO TITLE "Катя (сюжет 5) ft. Алёна" PERFORMER "Loco" REM COMPOSER "" INDEX 01 00:00:00FILE "11 Сценарий (сюжет 6) ft. Алёна & GeeNerall (White Niggaz).wav" WAVE TRACK 11 AUDIO TITLE "Сценарий (сюжет 6) ft. Алёна & GeeNerall (White Niggaz)" PERFORMER "Loco" REM COMPOSER "" INDEX 01 00:00:00FILE "12 Уходите (интермедия 5).wav" WAVE TRACK 12 AUDIO TITLE "Уходите (интермедия 5)" PERFORMER "Loco" REM COMPOSER "" INDEX 01 00:00:00FILE "13 Это игра (эпилог).wav" WAVE TRACK 13 AUDIO TITLE "Это игра (эпилог)" PERFORMER "Loco" REM COMPOSER "" INDEX 01 00:00:00

Лог проверки качества

CUE Corrector v. 8.3.4 / b. 856 (May. 19, 2018)————————————————————————————————————————————————————————————————————————--- / Сценарий
Folder: Loco - Сценарий (2012)Audio files: 01 Вы готовы (пролог) ft. Алёна.m4a [01:34.253; ALAC • 994 kbps • 16 bit \ 44100 Hz • stereo; 11.18 MB (11 724 769 B)] 02 Шикарный план… (интермедия 1).m4a [00:34.333; ALAC • 810 kbps • 16 bit \ 44100 Hz • stereo; 3.32 MB (3 482 801 B)] 03 Выстрел! (сюжет 1).m4a [03:46.840; ALAC • 1061 kbps • 16 bit \ 44100 Hz • stereo; 28.73 MB (30 121 811 B)] 04 Весна (интермедия 2).m4a [00:43.813; ALAC • 883 kbps • 16 bit \ 44100 Hz • stereo; 4.62 MB (4 844 546 B)] 05 Из города Н (сюжет 2).m4a [04:41.027; ALAC • 1040 kbps • 16 bit \ 44100 Hz • stereo; 34.86 MB (36 550 420 B)] 06 Связаны с русской мафией (интермедия 3).m4a [00:09.987; ALAC • 693 kbps • 16 bit \ 44100 Hz • stereo; 847.94 KB (868 291 B)] 07 Безумец (сюжет 3) ft. Chiko (Коза Ностра).m4a [03:18.013; ALAC • 941 kbps • 16 bit \ 44100 Hz • stereo; 22.24 MB (23 322 024 B)] 08 Скажи (сюжет 4) … ft. Дэниел Пол & Юлия Тигеева.m4a [04:41.267; ALAC • 980 kbps • 16 bit \ 44100 Hz • stereo; 32.89 MB (34 485 796 B)] 09 Мой сценарий (интермедия 4).m4a [00:57.053; ALAC • 890 kbps • 16 bit \ 44100 Hz • stereo; 6.06 MB (6 358 884 B)] 10 Катя (сюжет 5) ft. Алёна.m4a [03:51.480; ALAC • 1001 kbps • 16 bit \ 44100 Hz • stereo; 27.66 MB (29 006 313 B)] 11 Сценарий (сюжет 6) ft. Алёна & GeeNerall (White Niggaz).m4a [05:30.227; ALAC • 1064 kbps • 16 bit \ 44100 Hz • stereo; 41.92 MB (43 959 715 B)] 12 Уходите (интермедия 5).m4a [00:37.987; ALAC • 830 kbps • 16 bit \ 44100 Hz • stereo; 3.76 MB (3 946 798 B)] 13 Это игра (эпилог).m4a [02:28.013; ALAC • 917 kbps • 16 bit \ 44100 Hz • stereo; 16.20 MB (16 989 787 B)]
Accuracy: -m0
File 01 Вы готовы (пролог) ft. Алёна - 95% MPEG [01:34:19]
Detected average hi-boundary frequency : 21030.240 Hz Detected average lo-boundary frequency : 17921.980 Hz Detected average hi-cut frequency : 21367.670 Hz Detected average lo-cut frequency : 17295.410 Hz Maximum probablis boundary frequency : 21891.000 Hz Coefficient of nonlinearity of a phase : 0.01937929 First order smothness : 0.61970440 Second order smothness : 0.55172410
File 02 Шикарный план… (интермедия 1) - 95% MPEG [00:34:25]
Detected average hi-boundary frequency : 20477.310 Hz Detected average lo-boundary frequency : 16850.260 Hz Detected average hi-cut frequency : 20878.570 Hz Detected average lo-cut frequency : 17108.280 Hz Maximum probablis boundary frequency : 20901.000 Hz Coefficient of nonlinearity of a phase : 0.03767194 First order smothness : 0.54054050 Second order smothness : 0.75675680
File 03 Выстрел! (сюжет 1) - 95% MPEG [03:46:63]
Detected average hi-boundary frequency : 21153.710 Hz Detected average lo-boundary frequency : 18529.580 Hz Detected average hi-cut frequency : 21408.620 Hz Detected average lo-cut frequency : 19958.540 Hz Maximum probablis boundary frequency : 21891.000 Hz Coefficient of nonlinearity of a phase : 0.02232335 First order smothness : 0.77896030 Second order smothness : 0.67212440
File 04 Весна (интермедия 2) - 95% MPEG [00:43:61]
Detected average hi-boundary frequency : 20687.040 Hz Detected average lo-boundary frequency : 17875.950 Hz Detected average hi-cut frequency : 21085.260 Hz Detected average lo-cut frequency : 18205.070 Hz Maximum probablis boundary frequency : 21159.000 Hz Coefficient of nonlinearity of a phase : 0.01057422 First order smothness : 0.71186440 Second order smothness : 0.73940680
File 05 Из города Н (сюжет 2) - 95% MPEG [04:41:02]
Detected average hi-boundary frequency : 21153.060 Hz Detected average lo-boundary frequency : 17515.030 Hz Detected average hi-cut frequency : 21424.580 Hz Detected average lo-cut frequency : 18315.380 Hz Maximum probablis boundary frequency : 21891.000 Hz Coefficient of nonlinearity of a phase : 0.00820948 First order smothness : 0.66589560 Second order smothness : 0.61467280
File 06 Связаны с русской мафией (интермедия 3) - 100% CDDA [00:09:74]
Detected average hi-boundary frequency : 20462.800 Hz Detected average lo-boundary frequency : 14015.590 Hz Detected average hi-cut frequency : 21012.190 Hz Detected average lo-cut frequency : 14153.770 Hz Maximum probablis boundary frequency : 21057.000 Hz Coefficient of nonlinearity of a phase : 0.06108898 First order smothness : 0.53703700 Second order smothness : 0.61111110
File 07 Безумец (сюжет 3) ft. Chiko (Коза Ностра) - 95% MPEG [03:18:01]
Detected average hi-boundary frequency : 20904.500 Hz Detected average lo-boundary frequency : 17758.550 Hz Detected average hi-cut frequency : 21242.220 Hz Detected average lo-cut frequency : 17980.540 Hz Maximum probablis boundary frequency : 21891.000 Hz Coefficient of nonlinearity of a phase : 0.01747564 First order smothness : 0.72842400 Second order smothness : 0.63789870
File 08 Скажи (сюжет 4) … ft. Дэниел Пол & Юлия Тигеева - 95% MPEG [04:41:20]
Detected average hi-boundary frequency : 20867.160 Hz Detected average lo-boundary frequency : 16668.580 Hz Detected average hi-cut frequency : 21178.850 Hz Detected average lo-cut frequency : 17474.070 Hz Maximum probablis boundary frequency : 21891.000 Hz Coefficient of nonlinearity of a phase : 0.01519415 First order smothness : 0.63222190 Second order smothness : 0.65236050
File 09 Мой сценарий (интермедия 4) - 100% CDDA [00:57:04]
Detected average hi-boundary frequency : 20763.590 Hz Detected average lo-boundary frequency : 16643.840 Hz Detected average hi-cut frequency : 21235.650 Hz Detected average lo-cut frequency : 16578.180 Hz Maximum probablis boundary frequency : 21891.000 Hz Coefficient of nonlinearity of a phase : 0.05077477 First order smothness : 0.57235770 Second order smothness : 0.63089430
File 10 Катя (сюжет 5) ft. Алёна - 95% MPEG [03:51:36]
Detected average hi-boundary frequency : 21131.040 Hz Detected average lo-boundary frequency : 18050.690 Hz Detected average hi-cut frequency : 21421.700 Hz Detected average lo-cut frequency : 17307.850 Hz Maximum probablis boundary frequency : 21891.000 Hz Coefficient of nonlinearity of a phase : 0.02736325 First order smothness : 0.63016450 Second order smothness : 0.57922180
File 11 Сценарий (сюжет 6) ft. Алёна & GeeNerall (White Niggaz) - 95% MPEG [05:30:17]
Detected average hi-boundary frequency : 21154.810 Hz Detected average lo-boundary frequency : 18592.200 Hz Detected average hi-cut frequency : 21435.570 Hz Detected average lo-cut frequency : 20185.840 Hz Maximum probablis boundary frequency : 21891.000 Hz Coefficient of nonlinearity of a phase : 0.01509138 First order smothness : 0.71062990 Second order smothness : 0.68110240
File 12 Уходите (интермедия 5) - 95% MPEG [00:37:74]
Detected average hi-boundary frequency : 20553.290 Hz Detected average lo-boundary frequency : 16925.300 Hz Detected average hi-cut frequency : 21075.850 Hz Detected average lo-cut frequency : 15452.350 Hz Maximum probablis boundary frequency : 20788.000 Hz Coefficient of nonlinearity of a phase : 0.01439118 First order smothness : 0.65281170 Second order smothness : 0.61858190
File 13 Это игра (эпилог) - 95% MPEG [02:28:01]
Detected average hi-boundary frequency : 20927.750 Hz Detected average lo-boundary frequency : 17055.400 Hz Detected average hi-cut frequency : 21288.570 Hz Detected average lo-cut frequency : 16041.020 Hz Maximum probablis boundary frequency : 21891.000 Hz Coefficient of nonlinearity of a phase : 0.01735969 First order smothness : 0.62923460 Second order smothness : 0.60351320
————— Summary: —————These tracks looks like CDDA with probability 100%.————————————————————————————————————————————————————————————————————————
ANALYZER: auCDtect: CD records authenticity detector, version 0.8.2 Copyright (c) 2004 Oleg Berngardt. All rights reserved. Copyright (c) 2004 Alexander Djourik. All rights reserved.
Time elapsed: 1 m 44 sLog created at May 26, 2018 09:04:40
=== F85AE9761C8107CF1021E7B530FE1D5783212C0FE09B2DD628957186B4FF9110 ===

Скриншот(ы) тегов iTunes



Об альбоме (сборнике)

LOCK DOWN® production представляет альбом Loco - первый альбом в истории Новороссийского рэпа, который выходит на компакт диске. Называется он "Сценарий". Это концептуальный альбом и, чтобы проникнутся идеей, его нужно слушать от начала и до конца. Gangsta истории, отрывки из фильмов, истории из жизни и прочие сюжеты присутствуют здесь. После прослушивания альбома кажется будто ты только что посмотрел все в мире гангстерские фильмы. Отличный вокал, крутой продакшн Loco и список гостей просто не может не вызвать интерес к данному релизу, ведь тут и Бетик из СКВО, GeeNerall из White Niggaz, Коза Ностра, Вальтер, Дэниел Пол. СЦЕНАРИЙ, конечно, не претендует на премию "Альбом года", но каждый слушатель найдет тут что-то для себя. Альбом сложно отнести к какому-то конкретному подстилю рэпа, так как музыка слишком разная: есть и South Rap, и East Coast Rap, и West Coast, и Middle West Rap, и, отчасти, R'n'B. Слушайте!

2018 - Locolization (01:00:02)

Издатель (лейбл): LOCK DOWN® production
Номер по каталогу: LDP002
Треклист:
01. Мутим дела (Makin moves) ft. Nicky Tee & Пино
02. Гетто (Ghetto) ft. Nicky Tee
03. С юга на юг (South2south) ft. L-Tune & Hood Star
04. Джи-Фанк (G-Funk) ft. WaZap & LK
05. Не догнать (Never be busted) ft. Шeff
06. Еще одна ночь (One more night) ft. Алёна Корольчук
07. Подымите руки (Hands up in smoke) ft. LK & WaZap
08. Этот хип-хоп (That hip-hop) ft. DaVinci & Dj Xack
09. Разбивал (Heartbreaker) ft. Symba The King & Даниел Пол
10. Там (There) ft. Gazrow & Nicky Tee
11. Засыпаю (Fall asleep) ft. Мария Биленко
12. Больше шума (More noise) ft. Кайши & Jo Ne Shokko
13. Концовка (Outro) ft. LK
14. С юга на юг (South2south) (Teejay remix)
15. С юга на юг (South2south) (Breez remix)
16. С юга на юг (South2south) (Linguistique remix)
17. С юга на юг (South2south) (Dj Ice remix)

Содержание индексной карты (.CUE)

REM GENRE RapREM DATE 2018REM DISCID FB0E1111REM COMMENT "ExactAudioCopy v1.3"PERFORMER "Loco"TITLE "Locolization"REM COMPOSER ""FILE "01 Мутим дела (Makin moves) ft. Nicky Tee & Пино.wav" WAVE TRACK 01 AUDIO TITLE "Мутим дела (Makin moves) ft. Nicky Tee & Пино" PERFORMER "Loco" REM COMPOSER "" INDEX 01 00:00:00FILE "02 Гетто (Ghetto) ft. Nicky Tee.wav" WAVE TRACK 02 AUDIO TITLE "Гетто (Ghetto) ft. Nicky Tee" PERFORMER "Loco" REM COMPOSER "" INDEX 01 00:00:00FILE "03 С юга на юг (South2south) ft. L-Tune & Hood Star.wav" WAVE TRACK 03 AUDIO TITLE "С юга на юг (South2south) ft. L-Tune & Hood Star" PERFORMER "Loco" REM COMPOSER "" INDEX 01 00:00:00FILE "04 Джи-Фанк (G-Funk) ft. WaZap & LK.wav" WAVE TRACK 04 AUDIO TITLE "Джи-Фанк (G-Funk) ft. WaZap & LK" PERFORMER "Loco" REM COMPOSER "" INDEX 01 00:00:00FILE "05 Не догнать (Never be busted) ft. Шeff.wav" WAVE TRACK 05 AUDIO TITLE "Не догнать (Never be busted) ft. Шeff" PERFORMER "Loco" REM COMPOSER "" INDEX 01 00:00:00FILE "06 Еще одна ночь (One more night) ft. Алёна Корольчук.wav" WAVE TRACK 06 AUDIO TITLE "Еще одна ночь (One more night) ft. Алёна Корольчук" PERFORMER "Loco" REM COMPOSER "" INDEX 01 00:00:00FILE "07 Подымите руки (Hands up in smoke) ft. LK & WaZap.wav" WAVE TRACK 07 AUDIO TITLE "Подымите руки (Hands up in smoke) ft. LK & WaZap" PERFORMER "Loco" REM COMPOSER "" INDEX 01 00:00:00FILE "08 Этот хип-хоп (That hip-hop) ft. DaVinci & Dj Xack.wav" WAVE TRACK 08 AUDIO TITLE "Этот хип-хоп (That hip-hop) ft. DaVinci & Dj Xack" PERFORMER "Loco" REM COMPOSER "" INDEX 01 00:00:00FILE "09 Разбивал (Heartbreaker) ft. Symba The King & Даниел Пол.wav" WAVE TRACK 09 AUDIO TITLE "Разбивал (Heartbreaker) ft. Symba The King & Даниел Пол" PERFORMER "Loco" REM COMPOSER "" INDEX 01 00:00:00FILE "10 Там (There) ft. Gazrow & Nicky Tee.wav" WAVE TRACK 10 AUDIO TITLE "Там (There) ft. Gazrow & Nicky Tee" PERFORMER "Loco" REM COMPOSER "" INDEX 01 00:00:00FILE "11 Засыпаю (Fall asleep) ft. Мария Биленко.wav" WAVE TRACK 11 AUDIO TITLE "Засыпаю (Fall asleep) ft. Мария Биленко" PERFORMER "Loco" REM COMPOSER "" INDEX 01 00:00:00FILE "12 Больше шума (More noise) ft. Кайши & Jo Ne Shokko.wav" WAVE TRACK 12 AUDIO TITLE "Больше шума (More noise) ft. Кайши & Jo Ne Shokko" PERFORMER "Loco" REM COMPOSER "" INDEX 01 00:00:00FILE "13 Концовка (Outro) ft. LK.wav" WAVE TRACK 13 AUDIO TITLE "Концовка (Outro) ft. LK" PERFORMER "Loco" REM COMPOSER "" INDEX 01 00:00:00FILE "14 С юга на юг (South2south) (Teejay remix).wav" WAVE TRACK 14 AUDIO TITLE "С юга на юг (South2south) (Teejay remix)" PERFORMER "Loco" REM COMPOSER "" INDEX 01 00:00:00FILE "15 С юга на юг (South2south) (Breez remix).wav" WAVE TRACK 15 AUDIO TITLE "С юга на юг (South2south) (Breez remix)" PERFORMER "Loco" REM COMPOSER "" INDEX 01 00:00:00FILE "16 С юга на юг (South2south) (Linguistique remix).wav" WAVE TRACK 16 AUDIO TITLE "С юга на юг (South2south) (Linguistique remix)" PERFORMER "Loco" REM COMPOSER "" INDEX 01 00:00:00FILE "17 С юга на юг (South2south) (Dj Ice remix).wav" WAVE TRACK 17 AUDIO TITLE "С юга на юг (South2south) (Dj Ice remix)" PERFORMER "Loco" REM COMPOSER "" INDEX 01 00:00:00

Лог проверки качества

CUE Corrector v. 8.3.4 / b. 873 (Sep. 07, 2018)
————————————————————————————————————————————————————————————————————————
--- / Locolization
Folder: 2018 - Locolization
Audio files:
01 Мутим дела (Makin moves) ft. Nicky Tee & Пино.m4a [04:02.360; ALAC • 1051 kbps • 16 bit \ 44100 Hz • stereo; 30.54 MB (32 027 539 B)]
02 Гетто (Ghetto) ft. Nicky Tee.m4a [03:25.493; ALAC • 1018 kbps • 16 bit \ 44100 Hz • stereo; 25.13 MB (26 346 466 B)]
03 С юга на юг (South2south) ft. L-Tune & Hood Star.m4a [03:50.333; ALAC • 979 kbps • 16 bit \ 44100 Hz • stereo; 27.07 MB (28 385 378 B)]
04 Джи-Фанк (G-Funk) ft. WaZap & LK.m4a [02:57.867; ALAC • 1020 kbps • 16 bit \ 44100 Hz • stereo; 21.82 MB (22 875 414 B)]
05 Не догнать (Never be busted) ft. Шeff.m4a [03:46.120; ALAC • 946 kbps • 16 bit \ 44100 Hz • stereo; 25.69 MB (26 938 683 B)]
06 Еще одна ночь (One more night) ft. Алёна Корольчук.m4a [03:33.013; ALAC • 1015 kbps • 16 bit \ 44100 Hz • stereo; 25.96 MB (27 219 078 B)]
07 Подымите руки (Hands up in smoke) ft. LK & WaZap.m4a [04:15.360; ALAC • 999 kbps • 16 bit \ 44100 Hz • stereo; 30.60 MB (32 083 427 B)]
08 Этот хип-хоп (That hip-hop) ft. DaVinci & Dj Xack.m4a [02:21.347; ALAC • 963 kbps • 16 bit \ 44100 Hz • stereo; 16.41 MB (17 204 875 B)]
09 Разбивал (Heartbreaker) ft. Symba The King & Даниел Пол.m4a [04:42.440; ALAC • 960 kbps • 16 bit \ 44100 Hz • stereo; 32.51 MB (34 091 970 B)]
10 Там (There) ft. Gazrow & Nicky Te.m4a [03:48.133; ALAC • 974 kbps • 16 bit \ 44100 Hz • stereo; 26.68 MB (27 974 142 B)]
11 Засыпаю (Fall asleep) ft. Мария Биленко.m4a [02:55.027; ALAC • 870 kbps • 16 bit \ 44100 Hz • stereo; 18.33 MB (19 225 279 B)]
12 Больше шума (More noise) ft. Кайши & Jo Ne Shokko.m4a [03:50.600; ALAC • 1045 kbps • 16 bit \ 44100 Hz • stereo; 28.93 MB (30 332 246 B)]
13 Концовка (Outro) ft. LK.m4a [00:41.987; ALAC • 842 kbps • 16 bit \ 44100 Hz • stereo; 4.39 MB (4 601 419 B)]
14 С юга на юг (South2south) (Teejay remix).m4a [03:17.213; ALAC • 940 kbps • 16 bit \ 44100 Hz • stereo; 22.29 MB (23 370 906 B)]
15 С юга на юг (South2south) (Breez remix).m4a [04:26.760; ALAC • 922 kbps • 16 bit \ 44100 Hz • stereo; 29.51 MB (30 947 157 B)]
16 С юга на юг (South2south) (Linguistique remix).m4a [03:56.027; ALAC • 953 kbps • 16 bit \ 44100 Hz • stereo; 27.01 MB (28 320 273 B)]
17 С юга на юг (South2south) (Dj Ice remix).m4a [04:11.733; ALAC • 1028 kbps • 16 bit \ 44100 Hz • stereo; 31.05 MB (32 553 511 B)]
Accuracy: -m0
File 01 Мутим дела (Makin moves) ft. Nicky Tee & Пино - 99% CDDA [04:02:27]
Detected average hi-boundary frequency : 20597.460 Hz
Detected average lo-boundary frequency : 14655.260 Hz
Detected average hi-cut frequency : 21100.550 Hz
Detected average lo-cut frequency : 11680.120 Hz
Maximum probablis boundary frequency : 21891.000 Hz
Coefficient of nonlinearity of a phase : 0.30339250
First order smothness : 0.40191570
Second order smothness : 0.52337160
File 02 Гетто (Ghetto) ft. Nicky Tee - 100% CDDA [03:25:37]
Detected average hi-boundary frequency : 20786.000 Hz
Detected average lo-boundary frequency : 15561.510 Hz
Detected average hi-cut frequency : 21278.250 Hz
Detected average lo-cut frequency : 13760.660 Hz
Maximum probablis boundary frequency : 21891.000 Hz
Coefficient of nonlinearity of a phase : 0.36112520
First order smothness : 0.45503840
Second order smothness : 0.60822410
File 03 С юга на юг (South2south) ft. L-Tune & Hood Star - 100% CDDA [03:50:25]
Detected average hi-boundary frequency : 21101.430 Hz
Detected average lo-boundary frequency : 17125.740 Hz
Detected average hi-cut frequency : 21712.020 Hz
Detected average lo-cut frequency : 15011.320 Hz
Maximum probablis boundary frequency : 21891.000 Hz
Coefficient of nonlinearity of a phase : 0.07099227
First order smothness : 0.57419350
Second order smothness : 0.51612900
File 04 Джи-Фанк (G-Funk) ft. WaZap & LK - 100% CDDA [02:57:65]
Detected average hi-boundary frequency : 21144.440 Hz
Detected average lo-boundary frequency : 17554.630 Hz
Detected average hi-cut frequency : 21593.900 Hz
Detected average lo-cut frequency : 12504.610 Hz
Maximum probablis boundary frequency : 21891.000 Hz
Coefficient of nonlinearity of a phase : 0.05069819
First order smothness : 0.60229650
Second order smothness : 0.43058460
File 05 Не догнать (Never be busted) ft. Шeff - 95% MPEG [03:46:09]
Detected average hi-boundary frequency : 21092.340 Hz
Detected average lo-boundary frequency : 17855.600 Hz
Detected average hi-cut frequency : 21590.450 Hz
Detected average lo-cut frequency : 13746.150 Hz
Maximum probablis boundary frequency : 21891.000 Hz
Coefficient of nonlinearity of a phase : 0.02095850
First order smothness : 0.60718760
Second order smothness : 0.47847890
File 06 Еще одна ночь (One more night) ft. Алёна Корольчук - 95% MPEG [03:33:01]
Detected average hi-boundary frequency : 21130.470 Hz
Detected average lo-boundary frequency : 17558.260 Hz
Detected average hi-cut frequency : 21655.510 Hz
Detected average lo-cut frequency : 13307.120 Hz
Maximum probablis boundary frequency : 21891.000 Hz
Coefficient of nonlinearity of a phase : 0.02817857
First order smothness : 0.60374890
Second order smothness : 0.46425460
File 07 Подымите руки (Hands up in smoke) ft. LK & WaZap - 95% MPEG [04:15:27]
Detected average hi-boundary frequency : 21275.120 Hz
Detected average lo-boundary frequency : 17807.050 Hz
Detected average hi-cut frequency : 21737.940 Hz
Detected average lo-cut frequency : 13389.590 Hz
Maximum probablis boundary frequency : 21891.000 Hz
Coefficient of nonlinearity of a phase : 0.03792736
First order smothness : 0.62290910
Second order smothness : 0.41600000
File 08 Этот хип-хоп (That hip-hop) ft. DaVinci & Dj Xack - 95% MPEG [02:21:26]
Detected average hi-boundary frequency : 21187.270 Hz
Detected average lo-boundary frequency : 17405.400 Hz
Detected average hi-cut frequency : 21630.390 Hz
Detected average lo-cut frequency : 13166.870 Hz
Maximum probablis boundary frequency : 21891.000 Hz
Coefficient of nonlinearity of a phase : 0.04746834
First order smothness : 0.62155060
Second order smothness : 0.39421810
File 09 Разбивал (Heartbreaker) ft. Symba The King & Даниел Пол - 95% MPEG [04:42:33]
Detected average hi-boundary frequency : 21109.880 Hz
Detected average lo-boundary frequency : 17623.300 Hz
Detected average hi-cut frequency : 21560.670 Hz
Detected average lo-cut frequency : 12647.870 Hz
Maximum probablis boundary frequency : 21891.000 Hz
Coefficient of nonlinearity of a phase : 0.01126596
First order smothness : 0.59914500
Second order smothness : 0.41269320
File 10 Там (There) ft. Gazrow & Nicky Te - 95% MPEG [03:48:10]
Detected average hi-boundary frequency : 21109.640 Hz
Detected average lo-boundary frequency : 17727.130 Hz
Detected average hi-cut frequency : 21562.540 Hz
Detected average lo-cut frequency : 14438.160 Hz
Maximum probablis boundary frequency : 21891.000 Hz
Coefficient of nonlinearity of a phase : 0.00964115
First order smothness : 0.65233420
Second order smothness : 0.41113840
File 11 Засыпаю (Fall asleep) ft. Мария Биленко - 95% MPEG [02:55:02]
Detected average hi-boundary frequency : 20952.490 Hz
Detected average lo-boundary frequency : 17133.840 Hz
Detected average hi-cut frequency : 21416.870 Hz
Detected average lo-cut frequency : 10443.360 Hz
Maximum probablis boundary frequency : 21891.000 Hz
Coefficient of nonlinearity of a phase : 0.03170862
First order smothness : 0.62546420
Second order smothness : 0.43023870
File 12 Больше шума (More noise) ft. Кайши & Jo Ne Shokko - 95% MPEG [03:50:45]
Detected average hi-boundary frequency : 21205.700 Hz
Detected average lo-boundary frequency : 17691.440 Hz
Detected average hi-cut frequency : 21711.600 Hz
Detected average lo-cut frequency : 13771.320 Hz
Maximum probablis boundary frequency : 21891.000 Hz
Coefficient of nonlinearity of a phase : 0.01887005
First order smothness : 0.62666130
Second order smothness : 0.37333870
File 13 Концовка (Outro) ft. LK - 95% MPEG [00:41:74]
Detected average hi-boundary frequency : 20814.180 Hz
Detected average lo-boundary frequency : 17757.330 Hz
Detected average hi-cut frequency : 21265.260 Hz
Detected average lo-cut frequency : 17203.720 Hz
Maximum probablis boundary frequency : 21891.000 Hz
Coefficient of nonlinearity of a phase : 0.02174434
First order smothness : 0.61368650
Second order smothness : 0.59602650
File 14 С юга на юг (South2south) (Teejay remix) - 95% MPEG [03:17:16]
Detected average hi-boundary frequency : 21145.010 Hz
Detected average lo-boundary frequency : 17812.760 Hz
Detected average hi-cut frequency : 21504.650 Hz
Detected average lo-cut frequency : 14697.670 Hz
Maximum probablis boundary frequency : 21891.000 Hz
Coefficient of nonlinearity of a phase : 0.00975354
First order smothness : 0.63230400
Second order smothness : 0.50451310
File 15 С юга на юг (South2south) (Breez remix) - 95% MPEG [04:26:57]
Detected average hi-boundary frequency : 20992.700 Hz
Detected average lo-boundary frequency : 16627.240 Hz
Detected average hi-cut frequency : 21401.070 Hz
Detected average lo-cut frequency : 10395.100 Hz
Maximum probablis boundary frequency : 21891.000 Hz
Coefficient of nonlinearity of a phase : 0.01948910
First order smothness : 0.60320220
Second order smothness : 0.44309080
File 16 С юга на юг (South2south) (Linguistique remix) - 95% MPEG [03:56:02]
Detected average hi-boundary frequency : 20972.220 Hz
Detected average lo-boundary frequency : 17504.830 Hz
Detected average hi-cut frequency : 21406.240 Hz
Detected average lo-cut frequency : 11742.510 Hz
Maximum probablis boundary frequency : 21891.000 Hz
Coefficient of nonlinearity of a phase : 0.00945541
First order smothness : 0.58874800
Second order smothness : 0.43819330
File 17 С юга на юг (South2south) (Dj Ice remix) - 95% MPEG [04:11:55]
Detected average hi-boundary frequency : 21148.320 Hz
Detected average lo-boundary frequency : 17947.300 Hz
Detected average hi-cut frequency : 21597.230 Hz
Detected average lo-cut frequency : 11787.750 Hz
Maximum probablis boundary frequency : 21891.000 Hz
Coefficient of nonlinearity of a phase : 0.02450140
First order smothness : 0.59277020
Second order smothness : 0.38436000
————— Summary: —————
These tracks looks like CDDA with probability 100%.
————————————————————————————————————————————————————————————————————————
ANALYZER:
auCDtect: CD records authenticity detector, version 0.8.2
Copyright (c) 2004 Oleg Berngardt. All rights reserved.
Copyright (c) 2004 Alexander Djourik. All rights reserved.
Time elapsed: 3 m 05 s
Log created at September 08, 2018 16:10:51
=== 5D4631028436CAB1EBC4E10C65E3901672EBF47942AAC162A3BFCFA1EE999967 ===

Скриншот(ы) тегов iTunes

Об альбоме (сборнике)

Loco, он же Алексей Бармин - яркий рэп-исполнитель из Новороссийска, по совместительству битмейкер, а также представитель лэйблов: LOCK DOWN production,100 Pro, AVK production. Работает в стилях West Coast Rap, G-Funk, South Rap, Electro Funk, из которых артист больше предпочитает делать свою музыку в стиле West Coast Rap на русском, где использует talkbox, вокал и не только. За плечами у Алексея 2 студийных альбома и 4 микстейпа, основную часть времени исполнитель проводит в студии звукозаписи в своем родном городе, которая была им недавно открыта. Также музыкант выступал на разогреве группы Outlawz, которую создал 2Pac, был участником фестиваля RAP MUSIC 2013 вместе с группой "ГРАДОПРИКЛЕЕННЫЕ", принимал участие в съемках фильма "Буду Жить" и в саундтреке к нему. Видеоклип "Качает" - одна из самых нашумевших экранизаций исполнителя, принесшая огромное внимание участников и поклонников, был опубликован на рэп ру и индарнби. Сегодня на нашем портале мы предлагаем оценить качество долгой проделанной работы нового релиза Алексея "Locolization", состоящий из 13 треков полностью, из которых вы услышите совместные треки с такими исполнителями, как Пино, Nicky Tee, L-Tune, Hood Star, ШЕFF, WaZaр и другими.


[islamvillage.com]_t_5567600.torrent
Торрент: Зарегистрирован ·  [ 2019-01-02 14:14 ] ·  2e59b51c245870e90ad6896e443a74ca91f834f4

19 KB

Статус: проверено
Скачан: 0 раз
Размер: 723 MB
Оценка: 
(Голосов: 0)
Сказали спасибо: 0  Спасибо
Похожие темы
[Профиль]    [ЛС]
Показать сообщения:    
Ответить на тему

Текущее время: Сегодня 19:06

Часовой пояс: GMT + 7



Вы не можете начинать темы
Вы не можете отвечать на сообщения
Вы не можете редактировать свои сообщения
Вы не можете удалять свои сообщения
Вы не можете голосовать в опросах
Вы не можете прикреплять файлы к сообщениям
Вы можете скачивать файлы


Augenoptik | 11:07(WARNING: Useless thread) Leaving the ship. | Como Eu Era Antes de Você - Dublado Torrent Drama / Romance 2016 1080p 720p BDRip FullHD HD MP4 Download