Театр двух актеров. Мужчина и женщины (Борис Львов-Анохин, Феликс Слидовкер) [1978, Комедия, юмор, SATRip]

Ответить на тему
Статистика раздачи [Обновить пиров]
Размер:  999 MB   |    Зарегистрирован:  16 дней   |    Скачан:  0 раз

Полного источника не было: Никогда

 
   
 
 
 
Автор Сообщение

islamvillage.com

Создавать темы 02-Янв-2019 15:26

[Цитировать]

Театр двух актеров. Мужчина и женщины
Страна: СССР, ТО "Экран"
Жанр: Комедия, юмор
Год выхода: 1978
Продолжительность: 01:03:49
Перевод: Не требуется
Язык: Русский
Субтитры: нет
Режиссёр: Борис Львов-Анохин, Феликс Слидовкер
В ролях: Мария Миронова, Александр Менакер
Описание: Комедия-шутка Леонида Зорина в 16-ти эпизодах.
Леонид Зорин на экземпляре этой пьесы написал: "Посвящается замечательным актерам — Марии Владимировне Мироновой и Александру Семеновичу Менакеру". Все женские роли, естественно, исполняла Мария Миронова. А одну - единственную мужскую — Александр Менакер. Пьеса предоставила Мироновой возможность для бесконечных трансформаций: она и скромная, заботливая жена, и постоянный член месткома, и жрица любви и поэзии, и темпераментная попутчица - грузинка, и медрегистратор диспансера, и многоопытный врач - психиатр, и наблюдательная соседка, и весьма ответственная дама-начальница. Действие развивается стремительно. Трудно вообразить, каким образом буквально за считанные секунды Мироновой удавалось сменить внешний и внутренний облик своих героинь, отличающихся друг от друга не только по возрасту и профессии, но, прежде всего, по темпераменту. Сюжет пьесы необычайно прост- ее единственный герой Ананий Семенович Гарунский обратился в психоневрологический диспансер с единственной просьбой: выдать справку, что он не состоит здесь на учете. Казалось бы, какая проблема? Но все оказывается не так-то просто…
Доп. информация:
Композитор: Ян Френкель
Художник: Борис Мессерер
Качество видео: SATRip
Формат файла: AVI
Видео: 704x544 (1.29:1), 25 fps, XviD build 50 ~2049 kbps avg, 0.21 bit/pixel
Аудио: 48 kHz, MPEG Layer 3, 2 ch, ~128.00 kbps avg

MediaInfo

Полное имя : D:\gotov\Театр двух актеров.Мужчина и женщины.1978.SATRip.avi
Формат файла : AVI
Формат файла/Информация : Audio Video Interleave
Размер файла : 999 Мбайт
Продолжительность : 1 ч. 3 м.
Общий поток : 2188 Кбит/сек
Программа кодирования : VirtualDubMod 1.5.10.3 | www.virtualdub-fr.org || (build 2550/release)
Библиотека кодирования : VirtualDubMod build 2550/release
Видео
Идентификатор : 0
Формат файла : MPEG-4 Visual
Профиль формата : Advanced Simple@L5
Параметр BVOP формата : 2
Параметр QPel формата : Нет
Параметр GMC формата : Без точки перехода
Параметр матрицы формата : Default (MPEG)
Идентификатор кодека : XVID
Идентификатор кодека/Подсказка : XviD
Продолжительность : 1 ч. 3 м.
Битрейт : 2050 Кбит/сек
Ширина : 704 пикселя
Высота : 544 пикселя
Соотношение сторон : 1,294
Частота кадров : 25,000 кадров/сек
Цветовое пространство : YUV
Субдискретизация насыщенности : 4:2:0
Битовая глубина : 8 бит
Тип развёртки : Прогрессивная
Метод сжатия : С потерями
Бит/(Пиксели*Кадры) : 0.214
Размер потока : 936 Мбайт (94%)
Библиотека кодирования : XviD 1.2.1 (UTC 2008-12-04)
Аудио
Идентификатор : 1
Формат файла : MPEG Audio
Версия формата : Version 1
Профиль формата : Layer 3
Идентификатор кодека : 55
Идентификатор кодека/Подсказка : MP3
Продолжительность : 1 ч. 3 м.
Вид битрейта : Постоянный
Битрейт : 128 Кбит/сек
Каналы : 2 канала
Частота : 48,0 КГц
Метод сжатия : С потерями
Размер потока : 58,4 Мбайт (6%)
Выравнивание : Соединение по промежуткам
Продолжительность промежутка : 40 мс. (1,00 видеокадр)
Время предзагрузки промежутка : 504 мс.
Библиотека кодирования : LAME3.99r
Настройки программы : -m s -V 4 -q 2 -lowpass 17 -b 128

Скриншоты



[islamvillage.com]_t_5664990.torrent
Торрент: Зарегистрирован ·  [ 2019-01-02 14:14 ] ·  6d0df98db7a65fa59394385c1c786c85d50d970b

10 KB

Статус: проверено
Скачан: 0 раз
Размер: 999 MB
Оценка: 
(Голосов: 0)
Сказали спасибо: 0  Спасибо
Похожие темы
[Профиль]    [ЛС]
Показать сообщения:    
Ответить на тему

Текущее время: Сегодня 09:01

Часовой пояс: GMT + 7



Вы не можете начинать темы
Вы не можете отвечать на сообщения
Вы не можете редактировать свои сообщения
Вы не можете удалять свои сообщения
Вы не можете голосовать в опросах
Вы не можете прикреплять файлы к сообщениям
Вы можете скачивать файлы


Хищник / The Predator (2018) WEB-DLRip | Локализованная версия | D | Adventure | Thám Tử Lừng Danh Conan chap 823