(SkaPunk) Big D And The Kids Table - Discography - 1997 - 2009, FLAC (tracks+.cue), lossless

Ответить на тему
Статистика раздачи [Обновить пиров]
Размер:  2.59 GB   |    Зарегистрирован:  12 дней   |    Скачан:  0 раз

Полного источника не было: Никогда

 
   
 
 
 
Автор Сообщение

islamvillage.com

Создавать темы 05-Янв-2019 14:34

[Цитировать]

Big D And The Kids Table - Discography- -Жанр: SkaPunk / Год выхода диска: 1997 - 2009 / Производитель диска: USA / Аудио кодек: FLAC (tracks+.cue) / Битрейт аудио: lossless--

1998 - Shot by Lammi [Split]


01. Big D And The Kids Table - In Front of Me (4:00)
02. Big D And The Kids Table - NNH (2:55)
03. Big D And The Kids Table - Draw The Line (1:48)
04. Big D And The Kids Table - Jeremy (2:30)
05. Big D And The Kids Table - What? (1:13)
06. Big D And The Kids Table - Quiet Room (5:59)
07. Big D And The Kids Table - Stupid Mind (2:44)
08. Big D And The Kids Table - Giving it Up (4:49)
09. Big D And The Kids Table - Conserve (2:41)
10. Big D And The Kids Table - Hey (2:31)
11. Big D And The Kids Table - Tommy (2:15)
12. Unknown (0:14)
13. Drexel - Praise on Them (3:00)
14. Drexel - BCM (4:27)
15. Drexel - Shoe (2:53)
16. Drexel - You Wanted It (2:58)
17. Drexel - Big Black (1:59)
18. Drexel - Nutshell (3:13)
19. Drexel - Allright (1:29)
20. Drexel - Lies (3:55)
21. Drexel - Honestly (2:21)
22. Drexel - Promises (8:32)

2000 - Good Luck


01. Myself (2:34)
02. 5 Kids Down (2:16)
03. G.L.D. (2:02)
04. Are You Just Scared? (1:46)
05. Fatman (3:18)
06. She Won't Ever Figure It Out (2:26)
07. Take Another Look (2:36)
08. Find Out (4:23)
09. Can't Be Caught (2:56)
10. I'd Rather (2:45)
11. Apology (0:51)
12. Dirt Lip (2:34)
13. Learning To Listen (2:04)
14. 51 Gardner (5:21)
15. Good Luck (4:21)

2002 - The Gipsy Hill [EP]


01. Checklist (2:26)
02. Evil Girl Angry Girl (3:00)
03. Wailing Paddle (3:36)
04. Great Song (3:25)
05. Those Kids Suck (1:21)
06. What The Hell Are You Going To Do? (0:13)
07. Find Out (Three Sheets to The Wind) (2:43)
08. Scenester (4:31)
09. The Difference (2:36)
10. New England (3:37)

2004 - How It Goes


01. The Sounds Of Allston Village (2:20)
02. LAX (5:06)
03. New Nail Bed (3:37)
04. If We Want To (4:11)
05. Flashlight (5:10)
06. Girls Against Drunk Bitches (3:23)
07. You Lost, You're Crazy (2:08)
08. Bender (3:32)
09. Safe Haven (4:31)
10. You're Me Now (3:41)
11. Voice Alone (5:35)
12. My Girlfriend's On Drugs (3:08)
13. President (2:37)
14. Cutshow (3:31)
15. Little Bitch (2:17)
16. (We All Have To) Burn Something (3:18)
17. 175 (4:30)
18. Chicago (3:52)
19. How It Goes (5:45)
20. Moment Without An End (4:11)

2005 - Salem Girls [EP]


01. Salem Girls (6:05)
02. She's Lovely (2:30)
03. Oo Ie Yah (2:32)
04. Baby Don't Cry (3:50)
05. Salem Girls (Dub Remix) (5:22)
06. She's Lovely (Stripped Down) (2:28)
07. Salem Girls (Instumental) (5:49)
08. blank (0:06)
09. blank (0:06)
10. Hidden Track (2:36)

2007 - Beijing To Boston [Split]


01. Brain Failure - Coming Down To Beijing (3:44)
02. Brain Failure - Living In The City (2:54)
03. Brain Failure - Time To Go (1:26)
04. Brain Failure - Fall In Love 2008 (4:39)
05. Brain Failure - City Junk (2:15)
06. Brain Failure - You're Gonna Die (2:55)
07. Big D And The Kids Table - Faded (3:27)
08. Big D And The Kids Table - Taking Back The Rhythm (2:58)
09. Big D And The Kids Table - I'm Yours Boston (2:51)
10. Big D And The Kids Table - Running Young (1:14)
11. Big D And The Kids Table - Digging In Your Nails (2:17)
12. Big D And The Kids Table - Ruin You (4:51)

2007 - Strictly Rude


01. Steady Riot (2:38)
02. Noise Complaint (3:13)
03. Shining On (3:14)
04. Souped-Up Vinyl (3:44)
05. Deadpan (2:32)
06. Snakebite (3:30)
07. Strictly Rude (4:46)
08. Try Out Your Voice (2:50)
09. Hell On Earth (3:05)
10. Fly Away (1:46)
11. Breaking The Bottle (2:15)
12. Raw Revolution (2:53)
13. Relocate The Beast (3:43)
14. The One (4:02)
15. She Knows Her Way (7:22)

2009 - Fluent in Stroll


01. Doped Up Dollies on A One Way Ticket to Blood (4:14)
02. Describing the Sky (4:30)
03. Not Fucking Around (3:34)
04. A Kiss A Week (3:53)
05. Been Wishing On (3:16)
06. Fluent in Stroll (2:49)
07. Down Around Here (3:52)
08. Chin Up, Boy! (3:29)
09. Where Did All the Women Go? (3:36)
10. Known to Be Blue (1:02)
11. I, I, I, (3:33)
12. Stop, Look & Listen (Shake Life Up) (5:03)
13. My Thoughts Take Me Away (3:47)
14. We Can Live Anywhere! (3:41)
--

EAC1998 - Shot by Lammi [Split]

EAC extraction logfile from 19. July 2008, 20:39 for CDVarious / Shot By Lammi
Used drive : MATSHITAUJ-840D Adapter: 1 ID: 0Read mode : Secure with NO C2, accurate stream, disable cacheRead offset correction : 102Overread into Lead-In and Lead-Out : No
Used output format : C:\Program Files\Exact Audio Copy\flac.exe (User Defined Encoder) 192 kBit/s Additional command line options : -8 -A tukey(0.25) -A gauss(0.1875) -b 4096 -V -T "artist=%a" -T "title=%t" -T "album=%g" -T "date=%y" -T "tracknumber=%n" -T "genre=%m" %s --sector-align
Other options : Fill up missing offset samples with silence : Yes Delete leading and trailing silent blocks : No Installed external ASPI interface
Track 1 Filename E:\FLACS\Various Artists\Shot By Lammi\01 - In Front Of Me - Big D And The Kids Table - In Front Of Me - Big D And The Kids Table.wav
Pre-gap length 0:00:02.00
Peak level 99.4 % Track quality 100.0 % Test CRC F9E35ACE Copy CRC F9E35ACE Copy OK
Track 2 Filename E:\FLACS\Various Artists\Shot By Lammi\02 - NNH - Big D And The Kids Table - NNH - Big D And The Kids Table.wav
Peak level 99.2 % Track quality 99.9 % Test CRC ECAAB9AE Copy CRC ECAAB9AE Copy OK
Track 3 Filename E:\FLACS\Various Artists\Shot By Lammi\03 - Draw The Line - Big D And The Kids Table - Draw The Line - Big D And The Kids Table.wav
Peak level 98.8 % Track quality 100.0 % Test CRC 79E80996 Copy CRC 79E80996 Copy OK
Track 4 Filename E:\FLACS\Various Artists\Shot By Lammi\04 - Jeremy - Big D And The Kids Table - Jeremy - Big D And The Kids Table.wav
Peak level 99.1 % Track quality 100.0 % Test CRC FA74DE1D Copy CRC FA74DE1D Copy OK
Track 5 Filename E:\FLACS\Various Artists\Shot By Lammi\05 - What - Big D And The Kids Table - What - Big D And The Kids Table.wav
Peak level 98.9 % Track quality 100.0 % Test CRC 94826C39 Copy CRC 94826C39 Copy OK
Track 6 Filename E:\FLACS\Various Artists\Shot By Lammi\06 - Quiet Room - Big D And The Kids Table - Quiet Room - Big D And The Kids Table.wav
Peak level 99.4 % Track quality 100.0 % Test CRC AA72DB44 Copy CRC AA72DB44 Copy OK
Track 7 Filename E:\FLACS\Various Artists\Shot By Lammi\07 - Stupid Mind - Big D And The Kids Table - Stupid Mind - Big D And The Kids Table.wav
Peak level 99.2 % Track quality 100.0 % Test CRC BF0E1E39 Copy CRC BF0E1E39 Copy OK
Track 8 Filename E:\FLACS\Various Artists\Shot By Lammi\08 - Giving It Up - Big D And The Kids Table - Giving It Up - Big D And The Kids Table.wav
Peak level 99.3 % Track quality 100.0 % Test CRC 532910B6 Copy CRC 532910B6 Copy OK
Track 9 Filename E:\FLACS\Various Artists\Shot By Lammi\09 - Conserve - Big D And The Kids Table - Conserve - Big D And The Kids Table.wav
Peak level 99.4 % Track quality 100.0 % Test CRC A6EA22CB Copy CRC A6EA22CB Copy OK
Track 10 Filename E:\FLACS\Various Artists\Shot By Lammi\10 - Hey - Big D And The Kids Table - Hey - Big D And The Kids Table.wav
Peak level 99.0 % Track quality 100.0 % Test CRC 33AEEFB8 Copy CRC 33AEEFB8 Copy OK
Track 11 Filename E:\FLACS\Various Artists\Shot By Lammi\11 - Tommy - Big D And The Kids Table - Tommy - Big D And The Kids Table.wav
Peak level 99.3 % Track quality 100.0 % Test CRC 2ECD6775 Copy CRC 2ECD6775 Copy OK
Track 12 Filename E:\FLACS\Various Artists\Shot By Lammi\12 - Interlude - Interlude.wav
Peak level 17.4 % Track quality 100.0 % Test CRC F21BA2B3 Copy CRC F21BA2B3 Copy OK
Track 13 Filename E:\FLACS\Various Artists\Shot By Lammi\13 - Praise On Them - Drexel - Praise On Them - Drexel.wav
Peak level 99.4 % Track quality 100.0 % Test CRC EE600D9C Copy CRC EE600D9C Copy OK
Track 14 Filename E:\FLACS\Various Artists\Shot By Lammi\14 - BCM - Drexel - BCM - Drexel.wav
Peak level 99.2 % Track quality 100.0 % Test CRC F9D54B7E Copy CRC F9D54B7E Copy OK
Track 15 Filename E:\FLACS\Various Artists\Shot By Lammi\15 - Shoe - Drexel - Shoe - Drexel.wav
Peak level 99.3 % Track quality 100.0 % Test CRC E2D17E35 Copy CRC E2D17E35 Copy OK
Track 16 Filename E:\FLACS\Various Artists\Shot By Lammi\16 - You Wanted It - Drexel - You Wanted It - Drexel.wav
Peak level 99.2 % Track quality 100.0 % Test CRC 6D3456DD Copy CRC 6D3456DD Copy OK
Track 17 Filename E:\FLACS\Various Artists\Shot By Lammi\17 - Big Black - Drexel - Big Black - Drexel.wav
Peak level 99.4 % Track quality 100.0 % Test CRC F611011D Copy CRC F611011D Copy OK
Track 18 Filename E:\FLACS\Various Artists\Shot By Lammi\18 - Nutshell - Drexel - Nutshell - Drexel.wav
Peak level 99.1 % Track quality 100.0 % Test CRC EFA508B6 Copy CRC EFA508B6 Copy OK
Track 19 Filename E:\FLACS\Various Artists\Shot By Lammi\19 - Allright - Drexel - Allright - Drexel.wav
Peak level 99.4 % Track quality 100.0 % Test CRC DF83752C Copy CRC DF83752C Copy OK
Track 20 Filename E:\FLACS\Various Artists\Shot By Lammi\20 - Lies - Drexel - Lies - Drexel.wav
Peak level 98.6 % Track quality 100.0 % Test CRC 1DACD013 Copy CRC 1DACD013 Copy OK
Track 21 Filename E:\FLACS\Various Artists\Shot By Lammi\21 - Honestly - Drexel - Honestly - Drexel.wav
Peak level 99.3 % Track quality 100.0 % Test CRC FFDCD9BE Copy CRC FFDCD9BE Copy OK
Track 22 Filename E:\FLACS\Various Artists\Shot By Lammi\22 - Promises - Drexel - Promises - Drexel.wav
Peak level 99.4 % Track quality 100.0 % Test CRC 71FE9DF2 Copy CRC 71FE9DF2 Copy OK
No errors occured
End of status report

2000 - Good Luck

EAC extraction logfile from 2. April 2007, 14:27 for CDBig D And The Kids Table / Good Luck
Used drive : PLEXTOR DVDR PX-760A Adapter: 2 ID: 0Read mode : Secure with NO C2, accurate stream, disable cacheRead offset correction : 30Overread into Lead-In and Lead-Out : Yes
Used output format : C:\Program Files\FLAC\flac.exe (User Defined Encoder) 128 kBit/s Additional command line options : -V -8 -T "artist=%a" -T "title=%t" -T "album=%g" -T "date=%y" -T "tracknumber=%n" -T "genre=%m" %s
Other options : Fill up missing offset samples with silence : Yes Delete leading and trailing silent blocks : No Installed external ASPI interface
Track 1 Filename E:\My Music\Big D And The Kids Table\Good Luck\01 - Myself.wav
Pre-gap length 0:00:02.00
Peak level 98.8 % Track quality 100.0 % Test CRC 06F5F10A Copy CRC 06F5F10A Copy OK
Track 2 Filename E:\My Music\Big D And The Kids Table\Good Luck\02 - 5 Kids Down.wav
Peak level 98.8 % Track quality 100.0 % Test CRC E6D16CCE Copy CRC E6D16CCE Copy OK
Track 3 Filename E:\My Music\Big D And The Kids Table\Good Luck\03 - G.L.D..wav
Peak level 98.8 % Track quality 100.0 % Test CRC 5E3F7B2C Copy CRC 5E3F7B2C Copy OK
Track 4 Filename E:\My Music\Big D And The Kids Table\Good Luck\04 - Are You Just Scared .wav
Pre-gap length 0:00:05.04
Peak level 98.8 % Track quality 100.0 % Test CRC B8CD4CB3 Copy CRC B8CD4CB3 Copy OK
Track 5 Filename E:\My Music\Big D And The Kids Table\Good Luck\05 - Fatman.wav
Peak level 98.8 % Track quality 100.0 % Test CRC A3D0FEEB Copy CRC A3D0FEEB Copy OK
Track 6 Filename E:\My Music\Big D And The Kids Table\Good Luck\06 - She Won't Ever Figure It Out.wav
Pre-gap length 0:00:08.09
Peak level 98.8 % Track quality 99.9 % Test CRC DA506931 Copy CRC DA506931 Copy OK
Track 7 Filename E:\My Music\Big D And The Kids Table\Good Luck\07 - Take Another Look.wav
Peak level 98.8 % Track quality 99.9 % Test CRC AA6FE1B2 Copy CRC AA6FE1B2 Copy OK
Track 8 Filename E:\My Music\Big D And The Kids Table\Good Luck\08 - Find Out.wav
Pre-gap length 0:00:05.81
Peak level 98.8 % Track quality 100.0 % Test CRC 4325C3CA Copy CRC 4325C3CA Copy OK
Track 9 Filename E:\My Music\Big D And The Kids Table\Good Luck\09 - Can't Be Caught.wav
Peak level 98.8 % Track quality 100.0 % Test CRC AB291DC2 Copy CRC AB291DC2 Copy OK
Track 10 Filename E:\My Music\Big D And The Kids Table\Good Luck\10 - I'd Rather.wav
Peak level 98.8 % Track quality 100.0 % Test CRC 4F47A590 Copy CRC 4F47A590 Copy OK
Track 11 Filename E:\My Music\Big D And The Kids Table\Good Luck\11 - Apology.wav
Peak level 98.8 % Track quality 99.7 % Test CRC 38122E03 Copy CRC 38122E03 Copy OK
Track 12 Filename E:\My Music\Big D And The Kids Table\Good Luck\12 - Dirt Lip.wav
Peak level 98.8 % Track quality 99.9 % Test CRC BFA84CF2 Copy CRC BFA84CF2 Copy OK
Track 13 Filename E:\My Music\Big D And The Kids Table\Good Luck\13 - Learning To Listen.wav
Peak level 98.8 % Track quality 100.0 % Test CRC 236CEB25 Copy CRC 236CEB25 Copy OK
Track 14 Filename E:\My Music\Big D And The Kids Table\Good Luck\14 - 51 Gardner.wav
Peak level 98.8 % Track quality 100.0 % Test CRC A29A3C01 Copy CRC A29A3C01 Copy OK
Track 15 Filename E:\My Music\Big D And The Kids Table\Good Luck\15 - Good Luck.wav
Pre-gap length 0:02:02.52
Peak level 98.8 % Track quality 100.0 % Test CRC 3552D4C7 Copy CRC 3552D4C7 Copy OK
No errors occured
End of status report

2002 - The Gipsy Hill [EP]

X Lossless Decoder version 20080926 (93.3)
XLD extraction logfile from 2008-12-13 18:50:17 -0500
Big D & The Kids Table / The Gipsy Hill [EP]
Used drive : MATSHITA DVD-R UJ-857 (revision HAEA)
Use cdparanoia mode : YES (CDParanoia III 10.2 engine)Disable audio cache : OK for the drive with cache less than 2750KBMake use of C2 pointers : NORead offset correction : 102Max retry count : 100
TOC of the extracted CD Track | Start | Length | Start sector | End sector --------------------------------------------------------- 1 | 00:00:00 | 02:25:48 | 0 | 10922 2 | 02:25:48 | 03:00:33 | 10923 | 24455 3 | 05:26:06 | 03:35:62 | 24456 | 40642 4 | 09:01:68 | 03:25:21 | 40643 | 56038 5 | 12:27:14 | 01:20:54 | 56039 | 62092 6 | 13:47:68 | 00:12:64 | 62093 | 63056 7 | 14:00:57 | 02:42:73 | 63057 | 75279 8 | 16:43:55 | 04:30:38 | 75280 | 95567 9 | 21:14:18 | 02:36:03 | 95568 | 107270 10 | 23:50:21 | 03:37:30 | 107271 | 123575
Track 01 Filename : /Users/MJ/Desktop/01 Big D & The Kids Table - Checklist.flac
CRC32 hash (test run) : 87C88DF4 CRC32 hash : 87C88DF4 CRC32 hash (skip zero) : D9069867 AccurateRip signature : 9EF46C6C ->Track not present in AccurateRip database. Statistics Read error : 0 Skipped (treated as error) : 0 Edge jitter error (maybe fixed) : 0 Atom jitter error (maybe fixed) : 0 Drift error (maybe fixed) : 0 Dropped bytes error (maybe fixed) : 0 Duplicated bytes error (maybe fixed) : 0 Inconsistency in error sectors : 0
Track 02 Filename : /Users/MJ/Desktop/02 Big D & The Kids Table - Evil Girl Angry Girl.flac
CRC32 hash (test run) : B7B591AE CRC32 hash : B7B591AE CRC32 hash (skip zero) : A379C1DA AccurateRip signature : F97E3297 ->Track not present in AccurateRip database. Statistics Read error : 0 Skipped (treated as error) : 0 Edge jitter error (maybe fixed) : 0 Atom jitter error (maybe fixed) : 0 Drift error (maybe fixed) : 0 Dropped bytes error (maybe fixed) : 0 Duplicated bytes error (maybe fixed) : 0 Inconsistency in error sectors : 0
Track 03 Filename : /Users/MJ/Desktop/03 Big D & The Kids Table - Wailing Paddle.flac
CRC32 hash (test run) : 837C2597 CRC32 hash : 837C2597 CRC32 hash (skip zero) : CA02DC1B AccurateRip signature : 60A2C712 ->Track not present in AccurateRip database. Statistics Read error : 0 Skipped (treated as error) : 0 Edge jitter error (maybe fixed) : 0 Atom jitter error (maybe fixed) : 0 Drift error (maybe fixed) : 0 Dropped bytes error (maybe fixed) : 0 Duplicated bytes error (maybe fixed) : 0 Inconsistency in error sectors : 0
Track 04 Filename : /Users/MJ/Desktop/04 Big D & The Kids Table - Great Song.flac
CRC32 hash (test run) : 56DD2AD4 CRC32 hash : 56DD2AD4 CRC32 hash (skip zero) : 2B1A6E1E AccurateRip signature : F28DE501 ->Track not present in AccurateRip database. Statistics Read error : 0 Skipped (treated as error) : 0 Edge jitter error (maybe fixed) : 0 Atom jitter error (maybe fixed) : 0 Drift error (maybe fixed) : 0 Dropped bytes error (maybe fixed) : 0 Duplicated bytes error (maybe fixed) : 0 Inconsistency in error sectors : 0
Track 05 Filename : /Users/MJ/Desktop/05 Big D & The Kids Table - Those Kids Suck.flac
CRC32 hash (test run) : EC4ED5B3 CRC32 hash : EC4ED5B3 CRC32 hash (skip zero) : 967B0510 AccurateRip signature : CA560B29 ->Track not present in AccurateRip database. Statistics Read error : 0 Skipped (treated as error) : 0 Edge jitter error (maybe fixed) : 0 Atom jitter error (maybe fixed) : 0 Drift error (maybe fixed) : 0 Dropped bytes error (maybe fixed) : 0 Duplicated bytes error (maybe fixed) : 0 Inconsistency in error sectors : 0
Track 06 Filename : /Users/MJ/Desktop/06 Big D & The Kids Table - What The Hell Are You Going To Do?.flac
CRC32 hash (test run) : 9E6909BF CRC32 hash : 9E6909BF CRC32 hash (skip zero) : D09B0309 AccurateRip signature : 6DFD2F7D ->Track not present in AccurateRip database. Statistics Read error : 0 Skipped (treated as error) : 0 Edge jitter error (maybe fixed) : 0 Atom jitter error (maybe fixed) : 0 Drift error (maybe fixed) : 0 Dropped bytes error (maybe fixed) : 0 Duplicated bytes error (maybe fixed) : 0 Inconsistency in error sectors : 0
Track 07 Filename : /Users/MJ/Desktop/07 Big D & The Kids Table - Find Out (Three Sheets to The Wind).flac
CRC32 hash (test run) : 52235AB3 CRC32 hash : 52235AB3 CRC32 hash (skip zero) : 0406E577 AccurateRip signature : 3FCFBC5A ->Track not present in AccurateRip database. Statistics Read error : 0 Skipped (treated as error) : 0 Edge jitter error (maybe fixed) : 0 Atom jitter error (maybe fixed) : 0 Drift error (maybe fixed) : 0 Dropped bytes error (maybe fixed) : 0 Duplicated bytes error (maybe fixed) : 0 Inconsistency in error sectors : 0
Track 08 Filename : /Users/MJ/Desktop/08 Big D & The Kids Table - Scenester.flac
CRC32 hash (test run) : BBF5E91F CRC32 hash : BBF5E91F CRC32 hash (skip zero) : 2DD781DE AccurateRip signature : 85BA85E8 ->Track not present in AccurateRip database. Statistics Read error : 0 Skipped (treated as error) : 0 Edge jitter error (maybe fixed) : 0 Atom jitter error (maybe fixed) : 0 Drift error (maybe fixed) : 0 Dropped bytes error (maybe fixed) : 0 Duplicated bytes error (maybe fixed) : 0 Inconsistency in error sectors : 0
Track 09 Filename : /Users/MJ/Desktop/09 Big D & The Kids Table - The Difference.flac
CRC32 hash (test run) : 8646CEA9 CRC32 hash : 8646CEA9 CRC32 hash (skip zero) : EDADB98E AccurateRip signature : 5387E89B ->Track not present in AccurateRip database. Statistics Read error : 0 Skipped (treated as error) : 0 Edge jitter error (maybe fixed) : 0 Atom jitter error (maybe fixed) : 0 Drift error (maybe fixed) : 0 Dropped bytes error (maybe fixed) : 0 Duplicated bytes error (maybe fixed) : 0 Inconsistency in error sectors : 0
Track 10 Filename : /Users/MJ/Desktop/10 Big D & The Kids Table - New England.flac
CRC32 hash (test run) : 4964A67C CRC32 hash : 4964A67C CRC32 hash (skip zero) : E057435D AccurateRip signature : 9AE0CF0B ->Track not present in AccurateRip database. Statistics Read error : 0 Skipped (treated as error) : 0 Edge jitter error (maybe fixed) : 0 Atom jitter error (maybe fixed) : 0 Drift error (maybe fixed) : 0 Dropped bytes error (maybe fixed) : 0 Duplicated bytes error (maybe fixed) : 0 Inconsistency in error sectors : 0
No errors occurred
End of status report

2004 - How It Goes

EAC extraction logfile from 27. June 2008, 15:54 for CDBig D And The Kids Table / How It Goes
Used drive : MATSHITAUJ-840D Adapter: 1 ID: 0Read mode : Secure with NO C2, accurate stream, disable cacheRead offset correction : 102Overread into Lead-In and Lead-Out : No
Used output format : C:\Program Files\Exact Audio Copy\flac.exe (User Defined Encoder) 192 kBit/s Additional command line options : -8 -A tukey(0.25) -A gauss(0.1875) -b 4096 -V -T "artist=%a" -T "title=%t" -T "album=%g" -T "date=%y" -T "tracknumber=%n" -T "genre=%m" %s --sector-align
Other options : Fill up missing offset samples with silence : Yes Delete leading and trailing silent blocks : No Installed external ASPI interface
Track 1 Filename E:\FLACS\Big D And The Kids Table\How It Goes\01 - Big D And The Kids Table - The Sounds Of Allston Village.wav
Pre-gap length 0:00:02.00
Peak level 100.0 % Track quality 100.0 % Test CRC 4D907E40 Copy CRC 4D907E40 Copy OK
Track 2 Filename E:\FLACS\Big D And The Kids Table\How It Goes\02 - Big D And The Kids Table - LAX.wav
Pre-gap length 0:00:16.28
Peak level 100.0 % Track quality 100.0 % Test CRC 33524E83 Copy CRC 33524E83 Copy OK
Track 3 Filename E:\FLACS\Big D And The Kids Table\How It Goes\03 - Big D And The Kids Table - New Nail Bed.wav
Pre-gap length 0:00:09.65
Peak level 100.0 % Track quality 100.0 % Test CRC 48175E3A Copy CRC 48175E3A Copy OK
Track 4 Filename E:\FLACS\Big D And The Kids Table\How It Goes\04 - Big D And The Kids Table - If We Want To.wav
Pre-gap length 0:00:06.58
Peak level 100.0 % Track quality 100.0 % Test CRC C03B0BEB Copy CRC C03B0BEB Copy OK
Track 5 Filename E:\FLACS\Big D And The Kids Table\How It Goes\05 - Big D And The Kids Table - Flashlight.wav
Peak level 100.0 % Track quality 100.0 % Test CRC 291D4D82 Copy CRC 291D4D82 Copy OK
Track 6 Filename E:\FLACS\Big D And The Kids Table\How It Goes\06 - Big D And The Kids Table - Girls Against Drunk Bitches.wav
Peak level 100.0 % Track quality 100.0 % Test CRC 88514D13 Copy CRC 88514D13 Copy OK
Track 7 Filename E:\FLACS\Big D And The Kids Table\How It Goes\07 - Big D And The Kids Table - You Lost, You're Crazy.wav
Pre-gap length 0:00:37.65
Peak level 100.0 % Track quality 100.0 % Test CRC 167343BF Copy CRC 167343BF Copy OK
Track 8 Filename E:\FLACS\Big D And The Kids Table\How It Goes\08 - Big D And The Kids Table - Bender.wav
Pre-gap length 0:00:27.17
Peak level 100.0 % Track quality 100.0 % Test CRC DF959CB0 Copy CRC DF959CB0 Copy OK
Track 9 Filename E:\FLACS\Big D And The Kids Table\How It Goes\09 - Big D And The Kids Table - Safe Haven.wav
Peak level 100.0 % Track quality 100.0 % Test CRC A6FDF48A Copy CRC A6FDF48A Copy OK
Track 10 Filename E:\FLACS\Big D And The Kids Table\How It Goes\10 - Big D And The Kids Table - You're Me Now.wav
Pre-gap length 0:00:09.17
Peak level 100.0 % Track quality 100.0 % Test CRC 5568E546 Copy CRC 5568E546 Copy OK
Track 11 Filename E:\FLACS\Big D And The Kids Table\How It Goes\11 - Big D And The Kids Table - Voice Alone.wav
Peak level 100.0 % Track quality 100.0 % Test CRC EAAD1D2E Copy CRC EAAD1D2E Copy OK
Track 12 Filename E:\FLACS\Big D And The Kids Table\How It Goes\12 - Big D And The Kids Table - My Girlfriend's On Drugs.wav
Pre-gap length 0:00:41.73
Peak level 100.0 % Track quality 100.0 % Test CRC D6F8193B Copy CRC D6F8193B Copy OK
Track 13 Filename E:\FLACS\Big D And The Kids Table\How It Goes\13 - Big D And The Kids Table - President.wav
Peak level 100.0 % Track quality 100.0 % Test CRC 5F847CCB Copy CRC 5F847CCB Copy OK
Track 14 Filename E:\FLACS\Big D And The Kids Table\How It Goes\14 - Big D And The Kids Table - Cutshow.wav
Pre-gap length 0:00:06.08
Peak level 100.0 % Track quality 99.9 % Test CRC BF9572DD Copy CRC BF9572DD Copy OK
Track 15 Filename E:\FLACS\Big D And The Kids Table\How It Goes\15 - Big D And The Kids Table - Little Bitch.wav
Peak level 100.0 % Track quality 100.0 % Test CRC B26EEA68 Copy CRC B26EEA68 Copy OK
Track 16 Filename E:\FLACS\Big D And The Kids Table\How It Goes\16 - Big D And The Kids Table - (We All Have To) Burn Something.wav
Pre-gap length 0:00:11.62
Peak level 100.0 % Track quality 100.0 % Test CRC 4B202086 Copy CRC 4B202086 Copy OK
Track 17 Filename E:\FLACS\Big D And The Kids Table\How It Goes\17 - Big D And The Kids Table - 175.wav
Pre-gap length 0:00:13.57
Peak level 100.0 % Track quality 100.0 % Test CRC F2A233AE Copy CRC F2A233AE Copy OK
Track 18 Filename E:\FLACS\Big D And The Kids Table\How It Goes\18 - Big D And The Kids Table - Chicago.wav
Peak level 100.0 % Track quality 99.9 % Test CRC CCE697A5 Copy CRC CCE697A5 Copy OK
Track 19 Filename E:\FLACS\Big D And The Kids Table\How It Goes\19 - Big D And The Kids Table - How It Goes.wav
Peak level 100.0 % Track quality 100.0 % Test CRC A9896FF4 Copy CRC A9896FF4 Copy OK
Track 20 Filename E:\FLACS\Big D And The Kids Table\How It Goes\20 - Big D And The Kids Table - Moment Without An End.wav
Peak level 100.0 % Track quality 100.0 % Test CRC 9F697A8C Copy CRC 9F697A8C Copy OK
No errors occured
End of status report

2005 - Salem Girls [EP]

EAC extraction logfile from 9. May 2009, 3:26 for CDBig D And The Kids Table / Salem Girls
Used drive : TSSTcorpCD/DVDW TS-L632D Adapter: 0 ID: 1Read mode : Secure with NO C2, accurate stream, disable cacheRead offset correction : 6Overread into Lead-In and Lead-Out : No
Used output format : C:\Program Files\FLAC\flac.exe (User Defined Encoder) 128 kBit/s Additional command line options : -V -8 -T "artist=%a" -T "title=%t" -T "album=%g" -T "date=%y" -T "tracknumber=%n" -T "genre=%m" %sber=%n -T genre=%m %s
Other options : Fill up missing offset samples with silence : Yes Delete leading and trailing silent blocks : No Installed external ASPI interface
Track 1 Filename C:\Documents and Settings\Adam\Desktop\Rips\Big D and the Kids Table - Salem Girls\01 - Big D And The Kids Table - Salem Girls.wav
Pre-gap length 0:00:02.00
Peak level 99.9 % Track quality 100.0 % Test CRC D471EDE9 Copy CRC D471EDE9 Copy OK
Track 2 Filename C:\Documents and Settings\Adam\Desktop\Rips\Big D and the Kids Table - Salem Girls\02 - Big D And The Kids Table - She's Lovely.wav
Pre-gap length 0:00:01.70
Peak level 99.5 % Track quality 100.0 % Test CRC 37E0B8C8 Copy CRC 37E0B8C8 Copy OK
Track 3 Filename C:\Documents and Settings\Adam\Desktop\Rips\Big D and the Kids Table - Salem Girls\03 - Big D And The Kids Table - Oo Ie Yah.wav
Pre-gap length 0:00:01.70
Peak level 99.9 % Track quality 100.0 % Test CRC 2146D112 Copy CRC 2146D112 Copy OK
Track 4 Filename C:\Documents and Settings\Adam\Desktop\Rips\Big D and the Kids Table - Salem Girls\04 - Big D And The Kids Table - Baby Don't Cry.wav
Peak level 99.5 % Track quality 100.0 % Test CRC 6557EE2D Copy CRC 6557EE2D Copy OK
Track 5 Filename C:\Documents and Settings\Adam\Desktop\Rips\Big D and the Kids Table - Salem Girls\05 - Big D And The Kids Table - Salem Girls (Dub Remix).wav
Pre-gap length 0:00:01.70
Peak level 99.9 % Track quality 100.0 % Test CRC 8063216A Copy CRC 8063216A Copy OK
Track 6 Filename C:\Documents and Settings\Adam\Desktop\Rips\Big D and the Kids Table - Salem Girls\06 - Big D And The Kids Table - She's Lovely (Stripped Down).wav
Pre-gap length 0:00:01.70
Peak level 99.8 % Track quality 100.0 % Test CRC 7B6FEB9F Copy CRC 7B6FEB9F Copy OK
Track 7 Filename C:\Documents and Settings\Adam\Desktop\Rips\Big D and the Kids Table - Salem Girls\07 - Big D And The Kids Table - Salem Girls (Instumental).wav
Pre-gap length 0:00:01.70
Peak level 100.0 % Track quality 100.0 % Test CRC B8B0BF8F Copy CRC B8B0BF8F Copy OK
Track 8 Filename C:\Documents and Settings\Adam\Desktop\Rips\Big D and the Kids Table - Salem Girls\08 - Big D And The Kids Table - blank.wav
Peak level 0.0 % Track quality 100.0 % Test CRC 4383F142 Copy CRC 4383F142 Copy OK
Track 9 Filename C:\Documents and Settings\Adam\Desktop\Rips\Big D and the Kids Table - Salem Girls\09 - Big D And The Kids Table - blank.wav
Peak level 0.0 % Track quality 98.1 % Test CRC 67400C61 Copy CRC 67400C61 Copy OK
Track 10 Filename C:\Documents and Settings\Adam\Desktop\Rips\Big D and the Kids Table - Salem Girls\10 - Big D And The Kids Table - Hidden Track.wav
Peak level 99.4 % Track quality 100.0 % Test CRC 5CA6CACA Copy CRC 5CA6CACA Copy OK
No errors occured
End of status report

2007 - Beijing To Boston [Split]

Exact Audio Copy V0.99 prebeta 5 from 4. May 2009
EAC extraction logfile from 14. June 2009, 17:32
Split / Beijing To Boston
Used drive : ATAPI DVD A DH16A6L-C Adapter: 2 ID: 1
Read mode : SecureUtilize accurate stream : YesDefeat audio cache : YesMake use of C2 pointers : No
Read offset correction : 6Overread into Lead-In and Lead-Out : NoFill up missing offset samples with silence : YesDelete leading and trailing silent blocks : NoNull samples used in CRC calculations : YesUsed interface : Native Win32 interface for Win NT & 2000Gap handling : Appended to previous track
Used output format : User Defined EncoderSelected bitrate : 768 kBit/sQuality : HighAdd ID3 tag : NoCommand line compressor : C:\Program Files (x86)\Exact Audio Copy\FLAC\FLAC.EXEAdditional command line options : -6 -V -T "ARTIST=%a" -T "TITLE=%t" -T "ALBUM=%g" -T "DATE=%y" -T "TRACKNUMBER=%n" -T "GENRE=%m" -T "COMMENT=%e" %s -o %d
TOC of the extracted CD
Track | Start | Length | Start sector | End sector --------------------------------------------------------- 1 | 0:00.00 | 3:44.32 | 0 | 16831 2 | 3:44.32 | 2:53.53 | 16832 | 29859 3 | 6:38.10 | 1:25.65 | 29860 | 36299 4 | 8:04.00 | 4:38.70 | 36300 | 57219 5 | 12:42.70 | 2:15.15 | 57220 | 67359 6 | 14:58.10 | 2:55.02 | 67360 | 80486 7 | 17:53.12 | 3:27.18 | 80487 | 96029 8 | 21:20.30 | 2:58.35 | 96030 | 109414 9 | 24:18.65 | 2:50.47 | 109415 | 122211 10 | 27:09.37 | 1:13.58 | 122212 | 127744 11 | 28:23.20 | 2:16.62 | 127745 | 138006 12 | 30:40.07 | 4:50.55 | 138007 | 159811
Track 1
Filename J:\Music\Brain Failure & Big D - Beijing To Boston\01 - Brain Failure - Coming Down To Beijing.wav
Pre-gap length 0:00:02.00
Peak level 98.8 % Track quality 100.0 % Test CRC F023203A Copy CRC F023203A Accurately ripped (confidence 2) [A8232532] Copy OK
Track 2
Filename J:\Music\Brain Failure & Big D - Beijing To Boston\02 - Brain Failure - Living In The City.wav
Peak level 98.8 % Track quality 100.0 % Test CRC 997C3448 Copy CRC 997C3448 Accurately ripped (confidence 2) [64C94FE1] Copy OK
Track 3
Filename J:\Music\Brain Failure & Big D - Beijing To Boston\03 - Brain Failure - Time To Go.wav
Peak level 98.8 % Track quality 100.0 % Test CRC 7EFB9396 Copy CRC 7EFB9396 Accurately ripped (confidence 2) [B50404D1] Copy OK
Track 4
Filename J:\Music\Brain Failure & Big D - Beijing To Boston\04 - Brain Failure - Fall In Love 2008.wav
Peak level 98.8 % Track quality 99.9 % Test CRC DF079A57 Copy CRC DF079A57 Accurately ripped (confidence 2) [C9F8ED9A] Copy OK
Track 5
Filename J:\Music\Brain Failure & Big D - Beijing To Boston\05 - Brain Failure - City Junk.wav
Peak level 98.8 % Track quality 100.0 % Test CRC 5D705832 Copy CRC 5D705832 Accurately ripped (confidence 2) [1A8FAB98] Copy OK
Track 6
Filename J:\Music\Brain Failure & Big D - Beijing To Boston\06 - Brain Failure - You're Gonna Die.wav
Peak level 98.8 % Track quality 100.0 % Test CRC 3D4E3981 Copy CRC 3D4E3981 Accurately ripped (confidence 2) [05DAAB1C] Copy OK
Track 7
Filename J:\Music\Brain Failure & Big D - Beijing To Boston\07 - Big D And The Kids Table - Faded.wav
Peak level 98.8 % Track quality 100.0 % Test CRC A3671515 Copy CRC A3671515 Accurately ripped (confidence 2) [0713714E] Copy OK
Track 8
Filename J:\Music\Brain Failure & Big D - Beijing To Boston\08 - Big D And The Kids Table - Taking Back The Rhythm.wav
Peak level 98.8 % Track quality 100.0 % Test CRC AA5CEA07 Copy CRC AA5CEA07 Accurately ripped (confidence 2) [0CAAAA10] Copy OK
Track 9
Filename J:\Music\Brain Failure & Big D - Beijing To Boston\09 - Big D And The Kids Table - I'm Yours Boston.wav
Peak level 98.8 % Track quality 100.0 % Test CRC 5C412C7E Copy CRC 5C412C7E Accurately ripped (confidence 2) [A4A34642] Copy OK
Track 10
Filename J:\Music\Brain Failure & Big D - Beijing To Boston\10 - Big D And The Kids Table - Running Young.wav
Peak level 98.8 % Track quality 100.0 % Test CRC F12AE7FD Copy CRC F12AE7FD Accurately ripped (confidence 2) [C15DE120] Copy OK
Track 11
Filename J:\Music\Brain Failure & Big D - Beijing To Boston\11 - Big D And The Kids Table - Digging In Your Nails.wav
Peak level 98.8 % Track quality 99.9 % Test CRC 161B309A Copy CRC 161B309A Accurately ripped (confidence 2) [5A37B82D] Copy OK
Track 12
Filename J:\Music\Brain Failure & Big D - Beijing To Boston\12 - Big D And The Kids Table - Ruin You.wav
Peak level 98.8 % Track quality 100.0 % Test CRC ACD1591A Copy CRC ACD1591A Accurately ripped (confidence 2) [E4591DEB] Copy OK
All tracks accurately ripped
No errors occurred
End of status report

2007 - Strictly Rude

Exact Audio Copy V0.99 prebeta 3 from 28. July 2007
EAC extraction logfile from 15. December 2008, 1:45
Big D And The Kids Table / Strictly Rude
Used drive : HL-DT-STDVD-RAM GSA-H55N Adapter: 0 ID: 0
Read mode : SecureUtilize accurate stream : YesDefeat audio cache : YesMake use of C2 pointers : No
Read offset correction : 667Overread into Lead-In and Lead-Out : NoFill up missing offset samples with silence : YesDelete leading and trailing silent blocks : NoNull samples used in CRC calculations : YesUsed interface : Native Win32 interface for Win NT & 2000Gap handling : Appended to previous track
Used output format : User Defined EncoderSelected bitrate : 128 kBit/sQuality : HighAdd ID3 tag : NoCommand line compressor : C:\Program Files\FLAC\flac.exeAdditional command line options : -V -8 -T "artist=%a" -T "title=%t" -T "album=%g" -T "date=%y" -T "tracknumber=%n" -T "genre=%m" %s
TOC of the extracted CD
Track | Start | Length | Start sector | End sector --------------------------------------------------------- 1 | 0:00.00 | 2:38.37 | 0 | 11886 2 | 2:38.37 | 3:12.48 | 11887 | 26334 3 | 5:51.10 | 3:14.07 | 26335 | 40891 4 | 9:05.17 | 3:43.46 | 40892 | 57662 5 | 12:48.63 | 2:31.48 | 57663 | 69035 6 | 15:20.36 | 3:29.50 | 69036 | 84760 7 | 18:50.11 | 4:45.52 | 84761 | 106187 8 | 23:35.63 | 2:49.60 | 106188 | 118922 9 | 26:25.48 | 3:05.21 | 118923 | 132818 10 | 29:30.69 | 1:46.05 | 132819 | 140773 11 | 31:16.74 | 2:15.05 | 140774 | 150903 12 | 33:32.04 | 2:53.18 | 150904 | 163896 13 | 36:25.22 | 3:43.18 | 163897 | 180639 14 | 40:08.40 | 4:01.53 | 180640 | 198767 15 | 44:10.18 | 7:22.10 | 198768 | 231927
Track 1
Filename C:\Documents and Settings\Owner\My Documents\FLAC\Big D And The Kids Table\Strictly Rude\01 - Steady Riot.wav
Pre-gap length 0:00:02.00
Peak level 99.9 % Track quality 99.9 % Test CRC B248408A Copy CRC B248408A Copy OK
Track 2
Filename C:\Documents and Settings\Owner\My Documents\FLAC\Big D And The Kids Table\Strictly Rude\02 - Noise Complaint.wav
Pre-gap length 0:00:00.02
Peak level 99.9 % Track quality 100.0 % Test CRC 9D75009A Copy CRC 9D75009A Copy OK
Track 3
Filename C:\Documents and Settings\Owner\My Documents\FLAC\Big D And The Kids Table\Strictly Rude\03 - Shining On.wav
Pre-gap length 0:00:00.02
Peak level 100.0 % Track quality 100.0 % Test CRC 93B37E5F Copy CRC 93B37E5F Copy OK
Track 4
Filename C:\Documents and Settings\Owner\My Documents\FLAC\Big D And The Kids Table\Strictly Rude\04 - Souped-Up Vinyl.wav
Peak level 100.0 % Track quality 100.0 % Test CRC D127DF56 Copy CRC D127DF56 Copy OK
Track 5
Filename C:\Documents and Settings\Owner\My Documents\FLAC\Big D And The Kids Table\Strictly Rude\05 - Deadpan.wav
Peak level 99.8 % Track quality 100.0 % Test CRC B3F0B748 Copy CRC B3F0B748 Copy OK
Track 6
Filename C:\Documents and Settings\Owner\My Documents\FLAC\Big D And The Kids Table\Strictly Rude\06 - Snakebite.wav
Peak level 100.0 % Track quality 100.0 % Test CRC 0AD4AA8D Copy CRC 0AD4AA8D Copy OK
Track 7
Filename C:\Documents and Settings\Owner\My Documents\FLAC\Big D And The Kids Table\Strictly Rude\07 - Strictly Rude.wav
Peak level 100.0 % Track quality 100.0 % Test CRC 43F823F7 Copy CRC 43F823F7 Copy OK
Track 8
Filename C:\Documents and Settings\Owner\My Documents\FLAC\Big D And The Kids Table\Strictly Rude\08 - Try Out Your Voice.wav
Peak level 100.0 % Track quality 100.0 % Test CRC B37ACF8E Copy CRC B37ACF8E Copy OK
Track 9
Filename C:\Documents and Settings\Owner\My Documents\FLAC\Big D And The Kids Table\Strictly Rude\09 - Hell On Earth.wav
Pre-gap length 0:00:01.06
Peak level 99.9 % Track quality 99.9 % Test CRC F16E8994 Copy CRC F16E8994 Copy OK
Track 10
Filename C:\Documents and Settings\Owner\My Documents\FLAC\Big D And The Kids Table\Strictly Rude\10 - Fly Away.wav
Peak level 99.9 % Track quality 100.0 % Test CRC 9381134B Copy CRC 9381134B Copy OK
Track 11
Filename C:\Documents and Settings\Owner\My Documents\FLAC\Big D And The Kids Table\Strictly Rude\11 - Breaking The Bottle.wav
Pre-gap length 0:00:00.12
Peak level 100.0 % Track quality 100.0 % Test CRC A3815FB9 Copy CRC A3815FB9 Copy OK
Track 12
Filename C:\Documents and Settings\Owner\My Documents\FLAC\Big D And The Kids Table\Strictly Rude\12 - Raw Revolution.wav
Pre-gap length 0:00:00.41
Peak level 99.8 % Track quality 100.0 % Test CRC 62D6127D Copy CRC 62D6127D Copy OK
Track 13
Filename C:\Documents and Settings\Owner\My Documents\FLAC\Big D And The Kids Table\Strictly Rude\13 - Relocate The Beast.wav
Peak level 100.0 % Track quality 100.0 % Test CRC F9937C58 Copy CRC F9937C58 Copy OK
Track 14
Filename C:\Documents and Settings\Owner\My Documents\FLAC\Big D And The Kids Table\Strictly Rude\14 - The One.wav
Peak level 100.0 % Track quality 100.0 % Test CRC 981B810F Copy CRC 981B810F Copy OK
Track 15
Filename C:\Documents and Settings\Owner\My Documents\FLAC\Big D And The Kids Table\Strictly Rude\15 - She Knows Her Way.wav
Pre-gap length 0:00:01.22
Peak level 99.9 % Track quality 100.0 % Test CRC 480B415B Copy CRC 480B415B Copy OK
No errors occurred
End of status report

2009 - Fluent in Stroll

Exact Audio Copy V0.99 prebeta 5 from 4. May 2009
EAC extraction logfile from 6. July 2009, 15:35
Big D and the Kids Table / Fluent in Stroll
Used drive : HL-DT-STDVD-RAM GH22LS30 Adapter: 3 ID: 1
Read mode : SecureUtilize accurate stream : YesDefeat audio cache : YesMake use of C2 pointers : No
Read offset correction : 102Overread into Lead-In and Lead-Out : NoFill up missing offset samples with silence : YesDelete leading and trailing silent blocks : NoNull samples used in CRC calculations : YesUsed interface : Native Win32 interface for Win NT & 2000Gap handling : Appended to previous track
Used output format : User Defined EncoderSelected bitrate : 128 kBit/sQuality : HighAdd ID3 tag : NoCommand line compressor : C:\Program Files\Exact Audio Copy\Flac\flac.exeAdditional command line options : -V -8 -T "artist=%a" -T "title=%t" -T "album=%g" -T "date=%y" -T "tracknumber=%n" -T "genre=%m" %s
TOC of the extracted CD
Track | Start | Length | Start sector | End sector --------------------------------------------------------- 1 | 0:00.00 | 4:13.39 | 0 | 19013 2 | 4:13.39 | 4:29.71 | 19014 | 39259 3 | 8:43.35 | 3:34.10 | 39260 | 55319 4 | 12:17.45 | 3:53.14 | 55320 | 72808 5 | 16:10.59 | 3:15.67 | 72809 | 87500 6 | 19:26.51 | 2:49.06 | 87501 | 100181 7 | 22:15.57 | 3:51.56 | 100182 | 117562 8 | 26:07.38 | 3:28.58 | 117563 | 133220 9 | 29:36.21 | 3:36.12 | 133221 | 149432 10 | 33:12.33 | 1:01.38 | 149433 | 154045 11 | 34:13.71 | 3:32.61 | 154046 | 170006 12 | 37:46.57 | 5:03.35 | 170007 | 192766 13 | 42:50.17 | 3:46.50 | 192767 | 209766 14 | 46:36.67 | 3:41.33 | 209767 | 226374
Track 1
Filename D:\Rips\Big D and the Kids Table - Fluent in Stroll\01 - Big D and the Kids Table - Doped Up Dollies on A One Way Ticket to Blood.wav
Pre-gap length 0:00:02.00
Peak level 99.7 % Track quality 100.0 % Test CRC A751B8AE Copy CRC A751B8AE Track not present in AccurateRip database Copy OK
Track 2
Filename D:\Rips\Big D and the Kids Table - Fluent in Stroll\02 - Big D and the Kids Table - Describing the Sky.wav
Peak level 100.0 % Track quality 99.9 % Test CRC 418BCC39 Copy CRC 418BCC39 Track not present in AccurateRip database Copy OK
Track 3
Filename D:\Rips\Big D and the Kids Table - Fluent in Stroll\03 - Big D and the Kids Table - Not Fucking Around.wav
Pre-gap length 0:00:00.29
Peak level 99.6 % Track quality 100.0 % Test CRC 1834908A Copy CRC 1834908A Track not present in AccurateRip database Copy OK
Track 4
Filename D:\Rips\Big D and the Kids Table - Fluent in Stroll\04 - Big D and the Kids Table - A Kiss A Week.wav
Peak level 100.0 % Track quality 100.0 % Test CRC 3E81E2B8 Copy CRC 3E81E2B8 Track not present in AccurateRip database Copy OK
Track 5
Filename D:\Rips\Big D and the Kids Table - Fluent in Stroll\05 - Big D and the Kids Table - Been Wishing On.wav
Peak level 98.7 % Track quality 99.9 % Test CRC 71F0BD9B Copy CRC 71F0BD9B Track not present in AccurateRip database Copy OK
Track 6
Filename D:\Rips\Big D and the Kids Table - Fluent in Stroll\06 - Big D and the Kids Table - Fluent in Stroll.wav
Peak level 99.6 % Track quality 100.0 % Test CRC 64A8AFD8 Copy CRC 64A8AFD8 Track not present in AccurateRip database Copy OK
Track 7
Filename D:\Rips\Big D and the Kids Table - Fluent in Stroll\07 - Big D and the Kids Table - Down Around Here.wav
Pre-gap length 0:00:00.53
Peak level 99.9 % Track quality 99.9 % Test CRC 4A5A02CC Copy CRC 4A5A02CC Track not present in AccurateRip database Copy OK
Track 8
Filename D:\Rips\Big D and the Kids Table - Fluent in Stroll\08 - Big D and the Kids Table - Chin Up, Boy!.wav
Peak level 100.0 % Track quality 100.0 % Test CRC BD674F98 Copy CRC BD674F98 Track not present in AccurateRip database Copy OK
Track 9
Filename D:\Rips\Big D and the Kids Table - Fluent in Stroll\09 - Big D and the Kids Table - Where Did All the Women Go .wav
Peak level 98.5 % Track quality 99.9 % Test CRC FEB1E316 Copy CRC FEB1E316 Track not present in AccurateRip database Copy OK
Track 10
Filename D:\Rips\Big D and the Kids Table - Fluent in Stroll\10 - Big D and the Kids Table - Known to Be Blue.wav
Pre-gap length 0:00:00.85
Peak level 77.9 % Track quality 100.0 % Test CRC 5508A9DA Copy CRC 5508A9DA Track not present in AccurateRip database Copy OK
Track 11
Filename D:\Rips\Big D and the Kids Table - Fluent in Stroll\11 - Big D and the Kids Table - I, I, I,.wav
Pre-gap length 0:00:00.76
Peak level 98.5 % Track quality 100.0 % Test CRC A22B1496 Copy CRC A22B1496 Track not present in AccurateRip database Copy OK
Track 12
Filename D:\Rips\Big D and the Kids Table - Fluent in Stroll\12 - Big D and the Kids Table - Stop, Look & Listen (Shake Life Up).wav
Peak level 99.8 % Track quality 100.0 % Test CRC 367DB6FD Copy CRC 367DB6FD Track not present in AccurateRip database Copy OK
Track 13
Filename D:\Rips\Big D and the Kids Table - Fluent in Stroll\13 - Big D and the Kids Table - My Thoughts Take Me Away.wav
Peak level 98.3 % Track quality 100.0 % Test CRC B209D8A7 Copy CRC B209D8A7 Track not present in AccurateRip database Copy OK
Track 14
Filename D:\Rips\Big D and the Kids Table - Fluent in Stroll\14 - Big D and the Kids Table - We Can Live Anywhere!.wav
Peak level 99.2 % Track quality 100.0 % Test CRC 308758FC Copy CRC 308758FC Track not present in AccurateRip database Copy OK
None of the tracks are present in the AccurateRip database
No errors occurred
End of status report
-Информация о группеen.wikipedia.org писал(а): Big D and the Kids Table is a third wave ska band formed in October 1995 in Allston, Massachusetts when its members converged in college. Their first release was on their own Fork In Hand Records label, but have since teamed with Springman Records and SideOneDummy. The band has been noted for its strict DIY work ethic,[3] such as engineering, producing, and releasing their own albums and videos and self-promotion of their own shows.
In 2000 the band recorded a gangsta rap album, Porch Life, and distributed it unofficially via cassette tape. In 2003 the album was officially released on CD through Fork In Hand. They have also recorded splits with Melt Banana, Brain Failure, and Drexel.
Big D and the Kids Table have played 200 shows a year, on average, in support of such bands as Less Than Jake, Streetlight Manifesto, Catch 22, The Mighty Mighty Bosstones, Dropkick Murphys, Voodoo Glow Skulls, Mustard Plug, Rancid, Alexisonfire, and Anti-Flag and have become a regular performer on the Warped Tour. The band has also performed in the Summer of Ska Tour 2006 and the Ska Is Dead tour.
In the fall and winter of 2007 the band embarked on their first-ever large scale headlining tour, The Steady Riot Tour.
Name origin-Many stories exist about the band name's origin, especially about running over various pets named Big D. Another rumor is that the band actually got their name when a friend told lead singer Dave McWane if he ever started a band he should call it Big D and the Kids Table, so he did.
At a recent concert, McWane stated that the name came about because he and some friends had been playing together, but not seriously, when they were thrust onto a bill, but had no name. The show's organizer called them Big D and the Kids Table, and it stuck.
Band History-Early Years (1995-1998)
Big D and the Kids Table was founded in 1995 when members converged at Berklee College of Music in Boston. Despite a frequently revolving lineup, the band built up a large local following almost immediately, packing clubs, halls, dorms, and basements in and around Boston. The band formed their own label, Fork in Hand Records, to put out their first album, Shot By Lammi, a split with Boston punk band Drexel, a side project of several Big D members (under assumed names). Soon, their label was releasing albums by a stable of popular Boston-area bands, building a vibrant punk/ska scene around them. Following Shot By Lammi, the band released a Live EP. Early on, they also began their tradition of holding an annual Halloween concert at home in Boston.
Rise: Good Luck, How it Goes, Strictly Rude (1999-2009)
In 1999, Big D signed on to Mike Park’s Asian Man Records and released their first full length album, Good Luck. Big D picked up the award for Outstanding Ska Band at the 1999 Boston Music Awards. The band returned in 2002 with The Gipsy Hill EP and continued with their busy show schedule (playing an average of 200 shows a year), as a split EP with Japanese noise rock act Melt Banana appeared in 2003. Also in 2003, the band released a gangsta rap album of their songs recorded in 2000 on their own Fork in Hand Records. Fueled by a D.I.Y. work ethic since early on, the band's small but loyal fan base kept growing through incessant grassroots touring and promotion, all with little label support and money. Big D hooked up with part of the summer's Warped Tour and played at Vegas' Ska Summit.
In 2004, the band signed to Springman Records and released How It Goes. They headed out across North America in 2004 on the Ska Is Dead and You're Next tour with Catch 22, Mustard Plug, and the Planet Smashers. Following the release of How It Goes, Big D released several music video variations of their cover of The Specials’ Little Bitch, taking place in Montreal, St. Pete, and on Warped Tour. While continuing to tour with bands such as Suicide Machines, Reel Big Fish, and Streetlight Manifesto, the band released a limited edition EP entitled ‘’’Salem Girls’’’ for Halloween 2005. This was the first recording featuring new and talented drummer Jon Reilly. Also in 2005, "You Lost, You're Crazy" from How It Goes appeared on the Warped Tour 2005 Tour Compilation as Big D toured with Warped Tour again.
In March 2007, Big D released Strictly Rude and proceeded to tour with Anti-Flag, Alexisonfire and Set Your Goals in the Spring of 07. That Summer they were on the Vans Warped Tour and followed it with a Fall US Headlining tour. In the summer of 2008 they were a part of the Shout It Loud tour along with Less Than Jake, Goldfinger, Suburban Legends and Westbound Train. In early 2009, they did a short east coast tour with The English Beat.
A new album, Fluent In Stroll, was released by the band on July 7, 2009. They are currently touring to promote the album during the 2009 Warped Tour.

Members-
  • David McWane — vocals, Melodica
  • Sean P. Rogan — Guitar, backing vocals
  • Steve Foote — Bass
  • Derek Davis — drums
  • Dan Stoppelman — Trumpet
  • Ryan O'Connor — Tenor Saxophone
  • Paul E. Cuttler — Trombone
Former members-
  • Jon Reilly — drums (Strictly Rude, Salem Girls, Beijing to Boston)
  • Marc Flynn — vocals, Trumpet, Valve Trombone (Shot By Lammi, Good Luck)
  • Chris Bush — Tenor Saxophone (Shot by Lammi, Good Luck, Gipsy Hill EP, How It Goes)
  • Jon Lammi — Tenor Saxophone, Guitar (Shot By Lammi, Good Luck)
  • Aaron Sinclair — Guitar (Shot By Lammi)
  • Gabe Feenberg — Trombone (Shot by Lammi, Good Luck)
  • Jason Gilbert — drums (Gipsy Hill EP, How it Goes)
  • Max McVeety — drums (now with Crown City Rockers, reunited with Big D for six shows in February 2009) (Shot By Lammi, Good Luck)
  • Chris Sallen — Tenor Saxophone (Shot By Lammi, Good Luck)
  • Jeremy Barnes — Guitar
- -Источник: Torrentc -


[islamvillage.com]_t_2022370.torrent
Торрент: Зарегистрирован ·  [ 2019-01-05 13:55 ] ·  d4dec8e0bf2cc78b2c08923da4ac95bf8295d7e9

27 KB

Статус: проверено
Скачан: 0 раз
Размер: 2.59 GB
Оценка: 
(Голосов: 0)
Сказали спасибо: 0  Спасибо
Похожие темы
[Профиль]    [ЛС]
Показать сообщения:    
Ответить на тему

Текущее время: Сегодня 05:54

Часовой пояс: GMT + 7



Вы не можете начинать темы
Вы не можете отвечать на сообщения
Вы не можете редактировать свои сообщения
Вы не можете удалять свои сообщения
Вы не можете голосовать в опросах
Вы не можете прикреплять файлы к сообщениям
Вы можете скачивать файлы


£0 Shipping | (Tập 13/13)Thuyết MinhBộ Ba Trời Giáng: Câu Chuyện Ở Arcadia3Below: Tales Of Arcadia | Cars for Salvage