(Mainstream Jazz) [CD] The Ian McDougall Sextet - Dry with a Twist - 1999, FLAC (tracks+.cue), lossless

Ответить на тему
Статистика раздачи [Обновить пиров]
Размер:  415 MB   |    Зарегистрирован:  16 дней   |    Скачан:  0 раз

Полного источника не было: Никогда

 
   
 
 
 
Автор Сообщение

islamvillage.com

Создавать темы 06-Янв-2019 19:22

[Цитировать]

The Ian McDougall Sextet - Dry with a Twist
Жанр: Mainstream Jazz
Носитель: CD
Страна-производитель диска (релиза): Канада
Год издания: 1999
Издатель (лейбл): Factor
Номер по каталогу: CDM02
Аудиокодек: FLAC (*.flac)
Тип рипа: tracks+.cue
Битрейт аудио: lossless
Продолжительность: 73:45
Источник (релизер): tweetiebird
Наличие сканов в содержимом раздачи: да
Треклист:
01. Ian Leaps Out (McDougall) - 5:34
02. So Nice (Gannon) - 6:25
03. I'll Be Around (Wilder) - 7:05
04. I'm Gettin' Sentimental over You (Bassman) - 7:53
05. Gift of Love (Johnston) - 5:44
06. Night and Day (Porter) - 9:07
07. Broadway (Woode-McRae-Bird) - 8:55
08. Filomena (Johnston) - 5:11
09. Zimbabwe (McDougall) - 5:47
10. Blue Cabaret (Gannon) - 6:09
11. Dry with a Twist (McDougall) - 5:55
Состав:
Ian McDougall - trombone
Oliver Gannon - guitar
Andre Lachance - bass
Ron Johnston - piano
Ross Taggart - tenor saxophone
Jerry Fuller - drums
Recorded at Creation Studios, Burnaby in October 1998.

Лог создания рипа

Exact Audio Copy V1.3 from 2. September 2016
EAC extraction logfile from 10. December 2018, 11:45
The Ian McDougall Sextet / Dry with a Twist
Used drive : HL-DT-STBD-RE WH14NS40 Adapter: 1 ID: 0
Read mode : SecureUtilize accurate stream : YesDefeat audio cache : YesMake use of C2 pointers : No
Read offset correction : 6Overread into Lead-In and Lead-Out : NoFill up missing offset samples with silence : YesDelete leading and trailing silent blocks : NoNull samples used in CRC calculations : YesUsed interface : Native Win32 interface for Win NT & 2000Gap handling : Appended to previous track
Used output format : User Defined EncoderSelected bitrate : 896 kBit/sQuality : HighAdd ID3 tag : NoCommand line compressor : C:\Program Files (x86)\Exact Audio Copy\Flac\flac.exeAdditional command line options : -8 -e -p -V -T "ARTIST=%artist%" -T "TITLE=%title%" -T "ALBUM=%albumtitle%" -T "DATE=%year%" -T "TRACKNUMBER=%tracknr%" -T "GENRE=%genre%" -T "PERFORMER=%albuminterpret%" -T "COMPOSER=%composer%" %haslyrics%--tag-from-file=LYRICS="%lyricsfile%"%haslyrics% -T "ALBUMARTIST=%albumartist%" -T "DISCNUMBER=%cdnumber%" -T "TOTALDISCS=%totalcds%" -T "TOTALTRACKS=%numtracks%" -T "COMMENT=%comment%" %source% -o %dest%
TOC of the extracted CD
Track | Start | Length | Start sector | End sector --------------------------------------------------------- 1 | 0:00.00 | 5:33.47 | 0 | 25021 2 | 5:33.47 | 6:25.13 | 25022 | 53909 3 | 11:58.60 | 7:05.15 | 53910 | 85799 4 | 19:04.00 | 7:52.54 | 85800 | 121253 5 | 26:56.54 | 5:44.28 | 121254 | 147081 6 | 32:41.07 | 9:07.00 | 147082 | 188106 7 | 41:48.07 | 8:54.58 | 188107 | 228214 8 | 50:42.65 | 5:11.20 | 228215 | 251559 9 | 55:54.10 | 5:46.65 | 251560 | 277574 10 | 61:41.00 | 6:09.22 | 277575 | 305271 11 | 67:50.22 | 5:55.05 | 305272 | 331901
Track 1
Filename D:\EAC\The Ian McDougall Sextet - Dry With a Twist (1999)[FLAC]{Factor CDM02}\01 - Ian Leaps Out.wav
Pre-gap length 0:00:02.00
Peak level 100.0 % Extraction speed 2.7 X Track quality 99.9 % Test CRC 47A82CB4 Copy CRC 47A82CB4 Accurately ripped (confidence 1) [52851340] (AR v2) Copy OK
Track 2
Filename D:\EAC\The Ian McDougall Sextet - Dry With a Twist (1999)[FLAC]{Factor CDM02}\02 - So Nicwe.wav
Pre-gap length 0:00:04.22
Peak level 100.0 % Extraction speed 1.4 X Track quality 100.0 % Test CRC 29C8BB08 Copy CRC 29C8BB08 Accurately ripped (confidence 1) [E9F9F200] (AR v2) Copy OK
Track 3
Filename D:\EAC\The Ian McDougall Sextet - Dry With a Twist (1999)[FLAC]{Factor CDM02}\03 - I'll Be Around.wav
Pre-gap length 0:00:03.77
Peak level 85.0 % Extraction speed 1.5 X Track quality 100.0 % Test CRC ABF86265 Copy CRC ABF86265 Accurately ripped (confidence 1) [B5BD0616] (AR v2) Copy OK
Track 4
Filename D:\EAC\The Ian McDougall Sextet - Dry With a Twist (1999)[FLAC]{Factor CDM02}\04 - I'm Gettin' Sentimental Over You.wav
Pre-gap length 0:00:04.17
Peak level 100.0 % Extraction speed 1.6 X Track quality 99.9 % Test CRC 0BCD72F3 Copy CRC 0BCD72F3 Accurately ripped (confidence 1) [8ECB6CA4] (AR v2) Copy OK
Track 5
Filename D:\EAC\The Ian McDougall Sextet - Dry With a Twist (1999)[FLAC]{Factor CDM02}\05 - Gift of Love.wav
Pre-gap length 0:00:03.89
Peak level 79.9 % Extraction speed 1.8 X Track quality 100.0 % Test CRC 555F86D5 Copy CRC 555F86D5 Accurately ripped (confidence 1) [746DB461] (AR v2) Copy OK
Track 6
Filename D:\EAC\The Ian McDougall Sextet - Dry With a Twist (1999)[FLAC]{Factor CDM02}\06 - Night and Day.wav
Pre-gap length 0:00:04.68
Peak level 100.0 % Extraction speed 2.0 X Track quality 100.0 % Test CRC 9970A5B9 Copy CRC 9970A5B9 Accurately ripped (confidence 1) [B9DD0652] (AR v2) Copy OK
Track 7
Filename D:\EAC\The Ian McDougall Sextet - Dry With a Twist (1999)[FLAC]{Factor CDM02}\07 - Broadway.wav
Pre-gap length 0:00:04.18
Peak level 100.0 % Extraction speed 2.2 X Track quality 100.0 % Test CRC 11C4A5F5 Copy CRC 11C4A5F5 Accurately ripped (confidence 1) [1F5FAFE1] (AR v2) Copy OK
Track 8
Filename D:\EAC\The Ian McDougall Sextet - Dry With a Twist (1999)[FLAC]{Factor CDM02}\08 - Filomena.wav
Pre-gap length 0:00:04.25
Peak level 100.0 % Extraction speed 2.2 X Track quality 100.0 % Test CRC DE1DB1D4 Copy CRC DE1DB1D4 Accurately ripped (confidence 1) [EC83D0AE] (AR v2) Copy OK
Track 9
Filename D:\EAC\The Ian McDougall Sextet - Dry With a Twist (1999)[FLAC]{Factor CDM02}\09 - Zimbabwe.wav
Pre-gap length 0:00:04.24
Peak level 100.0 % Extraction speed 2.3 X Track quality 100.0 % Test CRC 92969B38 Copy CRC 92969B38 Accurately ripped (confidence 1) [D5086D31] (AR v2) Copy OK
Track 10
Filename D:\EAC\The Ian McDougall Sextet - Dry With a Twist (1999)[FLAC]{Factor CDM02}\10 - Blue Cabaret.wav
Pre-gap length 0:00:04.29
Peak level 98.4 % Extraction speed 2.4 X Track quality 100.0 % Test CRC BE847B7A Copy CRC BE847B7A Accurately ripped (confidence 1) [C4896FAA] (AR v2) Copy OK
Track 11
Filename D:\EAC\The Ian McDougall Sextet - Dry With a Twist (1999)[FLAC]{Factor CDM02}\11 - Dry with a Twist.wav
Pre-gap length 0:00:05.29
Peak level 100.0 % Extraction speed 2.5 X Track quality 100.0 % Test CRC D42ACFD4 Copy CRC D42ACFD4 Accurately ripped (confidence 1) [5482A326] (AR v2) Copy OK
All tracks accurately ripped
No errors occurred
End of status report
---- CUETools DB Plugin V2.1.6
[CTDB TOCID: TL5s1xVli3shzcqx4FwqbvgG6Lg-] foundSubmit result: already submittedTrack | CTDB Status 1 | (1/1) Accurately ripped 2 | (1/1) Accurately ripped 3 | (1/1) Accurately ripped 4 | (1/1) Accurately ripped 5 | (1/1) Accurately ripped 6 | (1/1) Accurately ripped 7 | (1/1) Accurately ripped 8 | (1/1) Accurately ripped 9 | (1/1) Accurately ripped 10 | (1/1) Accurately ripped 11 | (1/1) Accurately ripped
==== Log checksum 4D4D2B108B4D4D91A225CCA866873CEECB859566C7EBDFAE1214F12A35BFF239 ====

Содержание индексной карты (.CUE)

REM GENRE JazzREM DATE 1999REM DISCID 8311490BREM COMMENT "ExactAudioCopy v1.3"PERFORMER "Ian McDougall"TITLE "Dry with a Twist"FILE "01 - Ian Leaps Out.wav" WAVE TRACK 01 AUDIO TITLE "Ian Leaps Out" PERFORMER "Ian McDougall" INDEX 01 00:00:00 TRACK 02 AUDIO TITLE "So Nice" PERFORMER "Ian McDougall" INDEX 00 05:29:30FILE "02 - So Nice.wav" WAVE INDEX 01 00:00:00 TRACK 03 AUDIO TITLE "I'll Be Around" PERFORMER "Ian McDougall" INDEX 00 06:21:30FILE "03 - I'll Be Around.wav" WAVE INDEX 01 00:00:00 TRACK 04 AUDIO TITLE "I'm Gettin' Sentimental over You" PERFORMER "Ian McDougall" INDEX 00 07:01:02FILE "04 - I'm Gettin' Sentimental over You.wav" WAVE INDEX 01 00:00:00 TRACK 05 AUDIO TITLE "Gift of Love" PERFORMER "Ian McDougall" INDEX 00 07:48:62FILE "05 - Gift of Love.wav" WAVE INDEX 01 00:00:00 TRACK 06 AUDIO TITLE "Night and Day" PERFORMER "Ian McDougall" INDEX 00 05:39:52FILE "06 - Night and Day.wav" WAVE INDEX 01 00:00:00 TRACK 07 AUDIO TITLE "Broadway" PERFORMER "Ian McDougall" INDEX 00 09:02:61FILE "07 - Broadway.wav" WAVE INDEX 01 00:00:00 TRACK 08 AUDIO TITLE "Filomena" PERFORMER "Ian McDougall" INDEX 00 08:50:39FILE "08 - Filomena.wav" WAVE INDEX 01 00:00:00 TRACK 09 AUDIO TITLE "Zimbabwe" PERFORMER "Ian McDougall" INDEX 00 05:07:02FILE "09 - Zimbabwe.wav" WAVE INDEX 01 00:00:00 TRACK 10 AUDIO TITLE "Blue Cabaret" PERFORMER "Ian McDougall" INDEX 00 05:42:43FILE "10 - Blue Cabaret.wav" WAVE INDEX 01 00:00:00 TRACK 11 AUDIO TITLE "Dry with a Twist" PERFORMER "Ian McDougall" INDEX 00 06:04:00FILE "11 - Dry with a Twist.wav" WAVE INDEX 01 00:00:00

Отчет CUETools

[CUETools log; Date: 14.12.2018 0:55:00; Version: 2.1.6][CTDB TOCID: TL5s1xVli3shzcqx4FwqbvgG6Lg-] found.Track | CTDB Status 1 | (1/1) Accurately ripped 2 | (1/1) Accurately ripped 3 | (1/1) Accurately ripped 4 | (1/1) Accurately ripped 5 | (1/1) Accurately ripped 6 | (1/1) Accurately ripped 7 | (1/1) Accurately ripped 8 | (1/1) Accurately ripped 9 | (1/1) Accurately ripped 10 | (1/1) Accurately ripped 11 | (1/1) Accurately ripped[AccurateRip ID: 001ec1d3-010c0c5c-8311490b] found.Track [ CRC | V2 ] Status 01 [9958f64e|52851340] (1+1/2) Accurately ripped 02 [339dda60|e9f9f200] (1+1/2) Accurately ripped 03 [0a056a0a|b5bd0616] (1+1/2) Accurately ripped 04 [bf94a75d|8ecb6ca4] (1+1/2) Accurately ripped 05 [4ec9d9fd|746db461] (1+1/2) Accurately ripped 06 [18ebeda8|b9dd0652] (1+1/2) Accurately ripped 07 [e81c9ae9|1f5fafe1] (1+1/2) Accurately ripped 08 [9138b51e|ec83d0ae] (1+1/2) Accurately ripped 09 [e192b469|d5086d31] (1+1/2) Accurately ripped 10 [85584a29|c4896faa] (1+1/2) Accurately ripped 11 [4e7abcee|5482a326] (1+1/2) Accurately ripped
Track Peak [ CRC32 ] [W/O NULL] [ LOG ] -- 100,0 [4D99FC84] [189359EF] 01 100,0 [47A82CB4] [B7B6D716] CRC32 02 100,0 [29C8BB08] [6FB88EC5] CRC32 03 85,0 [ABF86265] [4D2978A6] CRC32 04 100,0 [0BCD72F3] [A9105164] CRC32 05 79,9 [555F86D5] [79801B27] CRC32 06 100,0 [9970A5B9] [1474F2D6] CRC32 07 100,0 [11C4A5F5] [09F3CF74] CRC32 08 100,0 [DE1DB1D4] [8CC25DFE] CRC32 09 100,0 [92969B38] [6261ACF6] CRC32 10 98,4 [BE847B7A] [5DB2E8B5] CRC32 11 100,0 [D42ACFD4] [29DEE5E4] CRC32

AllMusic Review by Steve Loewy

Ian McDougall marches to the beat of a different trombonist, perhaps one from decades past but with an updated twist. His distinct, attractively pinched tone and relaxed style, coupled with a technical mastery of his horn, put him in the circle of some of the icons of the trombone from the days before bop, musicians like Jack Teagarden and Jimmy Harrison. Here, in the company of his sextet, McDougall glides through familiar warhorses such as "I'm Getting Sentimental Over You" and "Night and Day" with a handful of originals added to the mix. The trombonist is never less than tasteful, and his solos have the effect of a good brandy warmly hitting the spot. McDougall's improvisations sneak up on you; understated and elegant, they realize a certain sophisticated structure that is only apparent after they are finished. Never engaging in crass exhibitionism, McDougall sports an unpretentious style that trumps many a modernist. Kudos, too, to Ross Taggart, whose highly compatible tenor dances over a superb and understated but highly sympathetic four-piece rhythm section.


[islamvillage.com]_t_5659244.torrent
Торрент: Зарегистрирован ·  [ 2019-01-06 19:01 ] ·  c632f6e9246c38fe4e0a095ac9e27165dc9064ef

18 KB

Статус: проверено
Скачан: 0 раз
Размер: 415 MB
Оценка: 
(Голосов: 0)
Сказали спасибо: 0  Спасибо
Похожие темы
[Профиль]    [ЛС]
Показать сообщения:    
Ответить на тему

Текущее время: Сегодня 22:46

Часовой пояс: GMT + 7



Вы не можете начинать темы
Вы не можете отвечать на сообщения
Вы не можете редактировать свои сообщения
Вы не можете удалять свои сообщения
Вы не можете голосовать в опросах
Вы не можете прикреплять файлы к сообщениям
Вы можете скачивать файлы


VW Crafter 2.5TDI L2H2 Camper | Captulo 82 : ¡La solución de Dalton! El desembarco de las fuerzas de Wapol | Sticky Password Premium 8 2 1 228 + Crack [CracksNow]