(Fusion / Jazz-Rock / Contemporary Jazz) [WEB] Negative Press Project - Seeevileyes - Civilize - 2015, FLAC (tracks), lossless

Ответить на тему
Статистика раздачи [Обновить пиров]
Размер:  412 MB   |    Зарегистрирован:  1 месяц 14 дней   |    Скачан:  0 раз

Полного источника не было: Никогда

 
   
 
 
 
Автор Сообщение

islamvillage.com

Создавать темы 06-Янв-2019 19:23

[Цитировать]

Negative Press Project / Seeevileyes - Civilize
Жанр: Fusion / Jazz-Rock / Contemporary Jazz
Носитель: WEB
Год издания: 2015
Издатель (лейбл): Web Release
Страна исполнителя (группы): US
Аудиокодек: FLAC (*.flac)
Тип рипа: tracks
Битрейт аудио: lossless
Продолжительность: 67:22 min
Источник (релизер): bandcamp.com
Наличие сканов в содержимом раздачи: нет
Треклист:
1. Translation. 7:30
2. Toru. 5:34
3. The Demonstration. 9:53
4. Rogue State. 5:39
5. Street Sweeper. 8:36
6. Hymn to Nik. 6:21
7. Road P'alla. 4:31
8. Joliette's Prelude. 3:35
9. Joliette's Song. 8:59
10. Being There. 6:38

DRM.log

foobar2000 1.3.8 / Dynamic Range Meter 1.1.1log date: 2018-12-14 00:40:54
--------------------------------------------------------------------------------Analyzed: Negative Press Project / Seeevileyes - Civilize--------------------------------------------------------------------------------
DR Peak RMS Duration Track--------------------------------------------------------------------------------DR9 0.00 dB -11.17 dB 7:30 01-TranslationDR11 -0.10 dB -13.02 dB 5:35 02-ToruDR9 0.00 dB -11.24 dB 9:53 03-The DemonstrationDR9 0.00 dB -11.86 dB 5:40 04-Rogue StateDR12 0.00 dB -14.07 dB 8:36 05-Street SweeperDR10 0.00 dB -11.11 dB 6:22 06-Hymn to NikDR9 0.00 dB -9.99 dB 4:31 07-Road P'allaDR8 -4.22 dB -13.92 dB 3:35 08-Joliette's PreludeDR11 0.00 dB -12.44 dB 9:00 09-Joliette's SongDR8 0.00 dB -10.70 dB 6:39 10-Being There--------------------------------------------------------------------------------
Number of tracks: 10Official DR value: DR10
Samplerate: 44100 HzChannels: 2Bits per sample: 16Bitrate: 844 kbpsCodec: FLAC================================================================================

Лог проверки качества

-----------------------
DON'T MODIFY THIS FILE
-----------------------
PERFORMER: auCDtect Task Manager, ver. 1.6.0 RC1 build 1.6.0.1Copyright (c) 2008-2010 y-soft. All rights reservedhttp://y-soft.org
ANALYZER: auCDtect: CD records authenticity detector, version 0.8.2Copyright (c) 2004 Oleg Berngardt. All rights reserved.Copyright (c) 2004 Alexander Djourik. All rights reserved.
FILE: 01. Translation.flac Size: 49293461 Hash: 58EC3A3735E6521539A002D444519328 Accuracy: -m0 Conclusion: CDDA 100% Signature: 03DC81DC9D71A0B7F0E52E75F01CC46943CC5AD8FILE: 02. Toru.flac Size: 37005114 Hash: 0799E2F06845F01C7DE810FAB7AAD69D Accuracy: -m0 Conclusion: CDDA 100% Signature: 75F14288DBA3BBD151F83D72F32D3E6BC0B86E6EFILE: 03. The Demonstration.flac Size: 60311407 Hash: 42441F1EBE10CA1935E8CD8611EE9CFA Accuracy: -m0 Conclusion: CDDA 100% Signature: F2636B40E5B4CE643CD0AF719FA77537DE6CB9C2FILE: 04. Rogue State.flac Size: 38758676 Hash: FCE1262D652A148A7D0910677973AD31 Accuracy: -m0 Conclusion: CDDA 100% Signature: F71838488B45870E90BBF66ABD11004CE42F5377FILE: 05. Street Sweeper.flac Size: 51348702 Hash: 34B866F353BBB0A04A3F988FEDA66E66 Accuracy: -m0 Conclusion: CDDA 100% Signature: 2F08C80436AF0994E72BFDA0611526305C6018F1FILE: 06. Hymn to Nik.flac Size: 44076564 Hash: 881CADD74B4958C6A920BD0A6B0FF366 Accuracy: -m0 Conclusion: CDDA 100% Signature: 5EAE030FD94959BC896DEF5A6BB90AB390F09E92FILE: 07. Road P'alla.flac Size: 33234359 Hash: 7DC8A14498C2AFA47DC124DFC4D01C8E Accuracy: -m0 Conclusion: CDDA 99% Signature: B5699DB9E76D5E99C4829D3113BC4A68DE3A29B0FILE: 08. Joliette's Prelude.flac Size: 18269710 Hash: CC09D7DB1BC4DDE7A535CC2FFBB5F918 Accuracy: -m0 Conclusion: CDDA 100% Signature: E24D1DB70D3DBE272B98F551964BC4C11709B290FILE: 09. Joliette's Song.flac Size: 56931464 Hash: 537E7DC8D2F7CE087D325758A09F84E1 Accuracy: -m0 Conclusion: CDDA 100% Signature: 659C18928B4C9A23EB0C9BF5564D5DB1127E8E06FILE: 10. Being There.flac Size: 42233044 Hash: 97471E955078C475112F635B3EF97274 Accuracy: -m0 Conclusion: CDDA 100% Signature: D3E6483F65B0C94E6E0AF5B79793E436CD8E5C70

Об альбоме (сборнике)

Recorded at Laughing Tiger Studios, Ari Rios
Additional Recording & Editing by Matt Boudreau
Mixed at Brick Hill, Jon Evans
Mastered at Michael Romanowski Mastering, Michael Romanowski
released October 17, 2015

Состав

- Ruthie Dineen / Piano, Fender Rhodes
- Jason Lewis / Drums, Percussion
- Andrew Lion / Double Bass, Electric Bass
- Tony Peebles / Tenor Saxophone
- Rafa Postel / Trumpet
- Chris Sullivan / Alto Saxophone
Featuring:
- Alex Doty / Electric Guitar (Tracks 3, 7, 10)
- Matthew Charles Heulitt / Electric Guitar (Track 1)
- Gawain Mathews / Electric Guitar (Track 9)


[islamvillage.com]_t_5659160.torrent
Торрент: Зарегистрирован ·  [ 2019-01-06 19:01 ] ·  049c941833e6625d568d27ccce961fb9054f1e44

17 KB

Статус: проверено
Скачан: 0 раз
Размер: 412 MB
Оценка: 
(Голосов: 0)
Сказали спасибо: 0  Спасибо
Похожие темы
[Профиль]    [ЛС]
Показать сообщения:    
Ответить на тему

Текущее время: Сегодня 18:23

Часовой пояс: GMT + 7



Вы не можете начинать темы
Вы не можете отвечать на сообщения
Вы не можете редактировать свои сообщения
Вы не можете удалять свои сообщения
Вы не можете голосовать в опросах
Вы не можете прикреплять файлы к сообщениям
Вы можете скачивать файлы


DUMPERT DATEN! Maarten + Tim | MKMN99-the kid | Terms & Conditions