(Vocal Jazz, Chanson) [CD] Vanina de Franco - HyperCardioide - 2018, FLAC (tracks+.cue), lossless

Ответить на тему
Статистика раздачи [Обновить пиров]
Размер:  261 MB   |    Зарегистрирован:  11 дней   |    Скачан:  0 раз

Полного источника не было: Никогда

 
   
 
 
 
Автор Сообщение

islamvillage.com

Создавать темы 06-Янв-2019 19:27

[Цитировать]

Vanina de Franco - HyperCardioide
Жанр: Vocal Jazz, Chanson
Носитель: CD
Страна-производитель диска (релиза): Франция
Год издания: 2018
Издатель (лейбл): Obsidienne
Аудиокодек: FLAC (*.flac)
Тип рипа: tracks+.cue
Битрейт аудио: lossless
Продолжительность: 00:50:49
Источник (релизер): Gpoff
Наличие сканов в содержимом раздачи: нет
Треклист:
01. Carinho (3:46)
02. Des si (4:18)
03. Leon (3:58)
04. Paris pleut (4:59)
05. Le manege de mon ame (4:26)
06. Robert (3:03)
07. Il jouait aux dames (4:06)
08. Grandir (2:55)
09. Ta gueule defaite (5:04)
10. Les mains (4:08)
11. P'tit gars (3:27)
12. Intro Grand-pere (1:27)
13. Grand-pere (5:12)

Лог создания рипа

Exact Audio Copy V1.0 beta 3 from 29. August 2011
EAC extraction logfile from 18. October 2018, 7:08
Vanina De Franco / HyperCardioïde
Used drive : ASUS SDRW-08U7M-U Adapter: 1 ID: 0
Read mode : SecureUtilize accurate stream : YesDefeat audio cache : YesMake use of C2 pointers : No
Read offset correction : 6Overread into Lead-In and Lead-Out : NoFill up missing offset samples with silence : YesDelete leading and trailing silent blocks : NoNull samples used in CRC calculations : YesUsed interface : Native Win32 interface for Win NT & 2000Gap handling : Appended to previous track
Used output format : User Defined EncoderSelected bitrate : 1024 kBit/sQuality : HighAdd ID3 tag : NoCommand line compressor : C:\Program Files (x86)\Exact Audio Copy\Flac\flac.exeAdditional command line options : -8 -V -T "ARTIST=%artist%" -T "TITLE=%title%" -T "ALBUM=%albumtitle%" -T "DATE=%year%" -T "TRACKNUMBER=%tracknr%" -T "GENRE=%genre%" -T "PERFORMER=%albuminterpret%" -T "COMPOSER=%composer%" %haslyrics%--tag-from-file=LYRICS="%lyricsfile%"%haslyrics% -T "ALBUMARTIST=%albumartist%" -T "DISCNUMBER=%cdnumber%" -T "TOTALDISCS=%totalcds%" -T "TOTALTRACKS=%numtracks%" -T "COMMENT=%comment%" %source% -o %dest%
TOC of the extracted CD
Track | Start | Length | Start sector | End sector --------------------------------------------------------- 1 | 0:00.00 | 3:45.59 | 0 | 16933 2 | 3:45.59 | 4:17.49 | 16934 | 36257 3 | 8:03.33 | 3:58.29 | 36258 | 54136 4 | 12:01.62 | 4:58.70 | 54137 | 76556 5 | 17:00.57 | 4:26.24 | 76557 | 96530 6 | 21:27.06 | 3:03.32 | 96531 | 110287 7 | 24:30.38 | 4:06.06 | 110288 | 128743 8 | 28:36.44 | 2:55.13 | 128744 | 141881 9 | 31:31.57 | 5:04.25 | 141882 | 164706 10 | 36:36.07 | 4:08.30 | 164707 | 183336 11 | 40:44.37 | 3:26.59 | 183337 | 198845 12 | 44:11.21 | 1:27.02 | 198846 | 205372 13 | 45:38.23 | 5:12.03 | 205373 | 228775
Track 1
Filename C:\EAC\Vanina De Franco - HyperCardioïde - 2018 - FLAC - CD\01. Carinho.wav
Pre-gap length 0:00:02.00
Peak level 99.0 % Extraction speed 1.3 X Track quality 100.0 % Test CRC 8788E4AC Copy CRC 8788E4AC Track not present in AccurateRip database Copy OK
Track 2
Filename C:\EAC\Vanina De Franco - HyperCardioïde - 2018 - FLAC - CD\02. Des Si.wav
Peak level 98.9 % Extraction speed 1.3 X Track quality 99.9 % Test CRC 8D421582 Copy CRC 8D421582 Track not present in AccurateRip database Copy OK
Track 3
Filename C:\EAC\Vanina De Franco - HyperCardioïde - 2018 - FLAC - CD\03. Léon.wav
Peak level 98.9 % Extraction speed 1.3 X Track quality 99.9 % Test CRC E5516CFE Copy CRC E5516CFE Track not present in AccurateRip database Copy OK
Track 4
Filename C:\EAC\Vanina De Franco - HyperCardioïde - 2018 - FLAC - CD\04. Paris Pleut.wav
Peak level 98.7 % Extraction speed 1.7 X Track quality 100.0 % Test CRC 2AE74ED3 Copy CRC 2AE74ED3 Track not present in AccurateRip database Copy OK
Track 5
Filename C:\EAC\Vanina De Franco - HyperCardioïde - 2018 - FLAC - CD\05. Le Manège De Mon Ame.wav
Peak level 93.5 % Extraction speed 1.8 X Track quality 100.0 % Test CRC C702F78F Copy CRC C702F78F Track not present in AccurateRip database Copy OK
Track 6
Filename C:\EAC\Vanina De Franco - HyperCardioïde - 2018 - FLAC - CD\06. Robert.wav
Peak level 87.6 % Extraction speed 1.8 X Track quality 100.0 % Test CRC D47BF56A Copy CRC D47BF56A Track not present in AccurateRip database Copy OK
Track 7
Filename C:\EAC\Vanina De Franco - HyperCardioïde - 2018 - FLAC - CD\07. Il Jouait Aux Dames.wav
Peak level 98.0 % Extraction speed 1.9 X Track quality 100.0 % Test CRC 74FBBD65 Copy CRC 74FBBD65 Track not present in AccurateRip database Copy OK
Track 8
Filename C:\EAC\Vanina De Franco - HyperCardioïde - 2018 - FLAC - CD\08. Grandir.wav
Peak level 91.6 % Extraction speed 1.9 X Track quality 100.0 % Test CRC 637EC6A4 Copy CRC 637EC6A4 Track not present in AccurateRip database Copy OK
Track 9
Filename C:\EAC\Vanina De Franco - HyperCardioïde - 2018 - FLAC - CD\09. Ta Gueule Défaite.wav
Peak level 99.0 % Extraction speed 2.1 X Track quality 100.0 % Test CRC 2635A202 Copy CRC 2635A202 Track not present in AccurateRip database Copy OK
Track 10
Filename C:\EAC\Vanina De Franco - HyperCardioïde - 2018 - FLAC - CD\10. Les Mains.wav
Peak level 98.9 % Extraction speed 2.1 X Track quality 100.0 % Test CRC 6A72B01D Copy CRC 6A72B01D Track not present in AccurateRip database Copy OK
Track 11
Filename C:\EAC\Vanina De Franco - HyperCardioïde - 2018 - FLAC - CD\11. P'tit Gars.wav
Peak level 88.5 % Extraction speed 1.9 X Track quality 99.9 % Test CRC 833F7784 Copy CRC 833F7784 Track not present in AccurateRip database Copy OK
Track 12
Filename C:\EAC\Vanina De Franco - HyperCardioïde - 2018 - FLAC - CD\12. Intro Grand-Père.wav
Peak level 69.0 % Extraction speed 1.8 X Track quality 100.0 % Test CRC D3D9CA14 Copy CRC D3D9CA14 Track not present in AccurateRip database Copy OK
Track 13
Filename C:\EAC\Vanina De Franco - HyperCardioïde - 2018 - FLAC - CD\13. Grand-Père.wav
Peak level 98.9 % Extraction speed 2.4 X Track quality 100.0 % Test CRC BCBE83C4 Copy CRC BCBE83C4 Track not present in AccurateRip database Copy OK
None of the tracks are present in the AccurateRip database
No errors occurred
End of status report
==== Log checksum DA3262FA8BFE0A6663DD5EF763BA5A539A0EF11BC63F9DE9794C6ED9D69B2494 ====

Содержание индексной карты (.CUE)

REM GENRE JazzREM DATE 2018REM DISCID B80BEA0DREM COMMENT "ExactAudioCopy v1.0b3"CATALOG 3760231763286PERFORMER "Vanina de Franco"TITLE "HyperCardioide"FILE "01 - Carinho.wav" WAVE TRACK 01 AUDIO TITLE "Carinho" PERFORMER "Vanina de Franco" ISRC FR9W11714508 INDEX 01 00:00:00FILE "02 - Des si.wav" WAVE TRACK 02 AUDIO TITLE "Des si" PERFORMER "Vanina de Franco" ISRC FR9W11714509 INDEX 01 00:00:00FILE "03 - Leon.wav" WAVE TRACK 03 AUDIO TITLE "Leon" PERFORMER "Vanina de Franco" ISRC FR9W11714510 INDEX 01 00:00:00FILE "04 - Paris pleut.wav" WAVE TRACK 04 AUDIO TITLE "Paris pleut" PERFORMER "Vanina de Franco" ISRC FR9W11714511 INDEX 01 00:00:00FILE "05 - Le manege de mon ame.wav" WAVE TRACK 05 AUDIO TITLE "Le manege de mon ame" PERFORMER "Vanina de Franco" ISRC FR9W11714512 INDEX 01 00:00:00FILE "06 - Robert.wav" WAVE TRACK 06 AUDIO TITLE "Robert" PERFORMER "Vanina de Franco" ISRC FR9W11714513 INDEX 01 00:00:00FILE "07 - Il jouait aux dames.wav" WAVE TRACK 07 AUDIO TITLE "Il jouait aux dames" PERFORMER "Vanina de Franco" ISRC FR9W11714514 INDEX 01 00:00:00FILE "08 - Grandir.wav" WAVE TRACK 08 AUDIO TITLE "Grandir" PERFORMER "Vanina de Franco" ISRC FR9W11714515 INDEX 01 00:00:00FILE "09 - Ta gueule defaite.wav" WAVE TRACK 09 AUDIO TITLE "Ta gueule defaite" PERFORMER "Vanina de Franco" ISRC FR9W11714516 INDEX 01 00:00:00FILE "10 - Les mains.wav" WAVE TRACK 10 AUDIO TITLE "Les mains" PERFORMER "Vanina de Franco" ISRC FR9W11714517 INDEX 01 00:00:00FILE "11 - P'tit gars.wav" WAVE TRACK 11 AUDIO TITLE "P'tit gars" PERFORMER "Vanina de Franco" ISRC FR9W11714518 INDEX 01 00:00:00FILE "12 - Intro Grand-pere.wav" WAVE TRACK 12 AUDIO TITLE "Intro Grand-pere" PERFORMER "Vanina de Franco" ISRC FR9W11714519 INDEX 01 00:00:00FILE "13 - Grand-pere.wav" WAVE TRACK 13 AUDIO TITLE "Grand-pere" PERFORMER "Vanina de Franco" ISRC FR9W11714519 INDEX 01 00:00:00

Об альбоме (сборнике)

Quelque chose d’immense qui a la forme d’un cœur. Quelque chose qui le dépasse. Quelque chose qui sait toucher le cœur des autres. Ah, ce quelque chose... C’est quelque chose !
C’est la voix de Vanina, c’est sa musique : du jazz à texte. Elle chante ses textes en français sur ses compositions jazz. Un jazz qui flirte avec la chanson, les deux univers qui l’ont façonnée.
Dans son hyper-cardioïde, il y a des valses Barbaresques aussi bien que des swings Gainsbourisants, et de petites douceurs à la Camille. Ce qu'il faut de chansons d'amour, qui sont parfois joyeuses du début à la fin. Pas mal d'émerveillement devant des gens ordinaires qui l'ont épatée. Ajoutez-y un peu de dérision, quelques déchirures et un peu de folie, et vous l'avez : son gros cœur à écouter.
Il n'y a plus qu'à le laisser toucher le votre en passant par vos oreilles. C'est bizarre, anatomiquement discutable, et pourtant bien possible et très fréquemment constaté.
Sur scène, les chansons prennent vie aux côtés de complices talentueux : Jessica Rock au piano, Soheil Tabrizi-Zadeh à la guitare et à la trompette, Joan Eche-Puig à la contrebasse.


[islamvillage.com]_t_5667067.torrent
Торрент: Зарегистрирован ·  [ 2019-01-06 19:01 ] ·  b060fdf0f79eea7e3b7da5565093a06373553723

12 KB

Статус: проверено
Скачан: 0 раз
Размер: 261 MB
Оценка: 
(Голосов: 0)
Сказали спасибо: 0  Спасибо
Похожие темы
[Профиль]    [ЛС]
Показать сообщения:    
Ответить на тему

Текущее время: Сегодня 06:11

Часовой пояс: GMT + 7



Вы не можете начинать темы
Вы не можете отвечать на сообщения
Вы не можете редактировать свои сообщения
Вы не можете удалять свои сообщения
Вы не можете голосовать в опросах
Вы не можете прикреплять файлы к сообщениям
Вы можете скачивать файлы


Play Movie | Best Match | Mit Amazon Prime könnt ihr bald alle Fast Furious-Filme schauen (außer den emotionalsten)