(Vocal Jazz) [CD] Katinka Wilson - One Life - 2003, FLAC (tracks+.cue), lossless

Ответить на тему
Статистика раздачи [Обновить пиров]
Размер:  240 MB   |    Зарегистрирован:  11 дней   |    Скачан:  0 раз

Полного источника не было: Никогда

 
   
 
 
 
Автор Сообщение

islamvillage.com

Создавать темы 06-Янв-2019 19:27

[Цитировать]

Katinka Wilson - One Life
Жанр: Vocal Jazz
Носитель: CD
Страна-производитель диска (релиза): Германия
Год издания: 2003
Издатель (лейбл): Opus 3 Records
Номер по каталогу: CD 22032
Аудиокодек: FLAC (*.flac)
Тип рипа: tracks+.cue
Битрейт аудио: lossless
Продолжительность: 00:44:34
Источник (релизер): ozrensmb
Наличие сканов в содержимом раздачи: нет
Треклист:
01. Why (3:12)
02. Did You Fly (3:37)
03. The Boat (3:34)
04. Bottomline (2:49)
05. One Life (4:05)
06. 'Cause I Miss You (3:58)
07. Heather (3:31)
08. El Morte (4:02)
09. Sounds (4:23)
10. The Puppet (3:18)
11. Grey Dressed Skies (4:11)
12. Razor Blade Jane (3:54)
Состав:
Katinka Wilson - vocals, guitar
Janne Petersson - piano, wurlitzer, accordion
Hasse Larsson - acoustic bass, electric bass
Kjell Segerbrandt - electric guitar, acoustic guitar
Micke Nilsson - percussion
Dave Wilczewski - tenor saxophone, soprano saxophone

Лог создания рипа

Exact Audio Copy V1.3 from 2. September 2016
EAC extraction logfile from 16. December 2018, 22:40
Katinka Wilson / One life
Used drive : TSSTcorpCDDVDW SH-224DB Adapter: 1 ID: 0
Read mode : SecureUtilize accurate stream : YesDefeat audio cache : YesMake use of C2 pointers : No
Read offset correction : 6Overread into Lead-In and Lead-Out : NoFill up missing offset samples with silence : YesDelete leading and trailing silent blocks : NoNull samples used in CRC calculations : YesUsed interface : Native Win32 interface for Win NT & 2000Gap handling : Appended to previous track
Used output format : User Defined EncoderSelected bitrate : 1024 kBit/sQuality : HighAdd ID3 tag : NoCommand line compressor : C:\Program Files (x86)\Exact Audio Copy\Flac\flac.exeAdditional command line options : -8 -V -T "ARTIST=%artist%" -T "TITLE=%title%" -T "ALBUM=%albumtitle%" -T "DATE=%year%" -T "TRACKNUMBER=%tracknr%" -T "GENRE=%genre%" -T "PERFORMER=%albuminterpret%" -T "COMPOSER=%composer%" %haslyrics%--tag-from-file=LYRICS="%lyricsfile%"%haslyrics% -T "ALBUMARTIST=%albumartist%" -T "DISCNUMBER=%cdnumber%" -T "TOTALDISCS=%totalcds%" -T "TOTALTRACKS=%numtracks%" -T "COMMENT=%comment%" %source% -o %dest%
TOC of the extracted CD
Track | Start | Length | Start sector | End sector --------------------------------------------------------- 1 | 0:00.00 | 3:12.07 | 0 | 14406 2 | 3:12.07 | 3:37.06 | 14407 | 30687 3 | 6:49.13 | 3:33.48 | 30688 | 46710 4 | 10:22.61 | 2:48.64 | 46711 | 59374 5 | 13:11.50 | 4:05.37 | 59375 | 77786 6 | 17:17.12 | 3:58.37 | 77787 | 95673 7 | 21:15.49 | 3:31.09 | 95674 | 111507 8 | 24:46.58 | 4:02.09 | 111508 | 129666 9 | 28:48.67 | 4:23.36 | 129667 | 149427 10 | 33:12.28 | 3:17.39 | 149428 | 164241 11 | 36:29.67 | 4:10.51 | 164242 | 183042 12 | 40:40.43 | 3:53.70 | 183043 | 200587
Track 1
Filename C:\EAC Rips\01 - Why.wav
Pre-gap length 0:00:02.00
Peak level 95.9 % Extraction speed 1.9 X Track quality 100.0 % Test CRC 39A74673 Copy CRC 39A74673 Track not present in AccurateRip database Copy OK
Track 2
Filename C:\EAC Rips\02 - Did you fly.wav
Peak level 95.2 % Extraction speed 2.0 X Track quality 100.0 % Test CRC 33CF1A5D Copy CRC 33CF1A5D Track not present in AccurateRip database Copy OK
Track 3
Filename C:\EAC Rips\03 - The boat.wav
Peak level 93.8 % Extraction speed 2.2 X Track quality 100.0 % Test CRC F115EB04 Copy CRC F115EB04 Track not present in AccurateRip database Copy OK
Track 4
Filename C:\EAC Rips\04 - Bottomline.wav
Peak level 95.2 % Extraction speed 2.2 X Track quality 100.0 % Test CRC 2F1B1B52 Copy CRC 2F1B1B52 Track not present in AccurateRip database Copy OK
Track 5
Filename C:\EAC Rips\05 - One life.wav
Peak level 94.9 % Extraction speed 2.5 X Track quality 100.0 % Test CRC B30752E0 Copy CRC B30752E0 Track not present in AccurateRip database Copy OK
Track 6
Filename C:\EAC Rips\06 - Cause I miss you.wav
Peak level 95.2 % Extraction speed 2.6 X Track quality 100.0 % Test CRC E4375900 Copy CRC E4375900 Track not present in AccurateRip database Copy OK
Track 7
Filename C:\EAC Rips\07 - heather.wav
Peak level 93.9 % Extraction speed 2.1 X Track quality 99.9 % Test CRC 7874A71A Copy CRC 7874A71A Track not present in AccurateRip database Copy OK
Track 8
Filename C:\EAC Rips\08 - El morte.wav
Peak level 94.4 % Extraction speed 2.9 X Track quality 100.0 % Test CRC DCFD722C Copy CRC DCFD722C Track not present in AccurateRip database Copy OK
Track 9
Filename C:\EAC Rips\09 - Sounds.wav
Peak level 94.8 % Extraction speed 3.0 X Track quality 100.0 % Test CRC 966F666F Copy CRC 966F666F Track not present in AccurateRip database Copy OK
Track 10
Filename C:\EAC Rips\10 - The puppet.wav
Peak level 94.0 % Extraction speed 2.2 X Track quality 99.9 % Test CRC 586F4C4F Copy CRC 586F4C4F Track not present in AccurateRip database Copy OK
Track 11
Filename C:\EAC Rips\11 - Grey dressed skies.wav
Peak level 90.3 % Extraction speed 2.6 X Track quality 99.9 % Test CRC BAB02D83 Copy CRC BAB02D83 Track not present in AccurateRip database Copy OK
Track 12
Filename C:\EAC Rips\12 - Razor blade jane.wav
Peak level 81.9 % Extraction speed 3.3 X Track quality 100.0 % Test CRC F909F7C5 Copy CRC F909F7C5 Track not present in AccurateRip database Copy OK
None of the tracks are present in the AccurateRip database
No errors occurred
End of status report
---- CUETools DB Plugin V2.1.6
[CTDB TOCID: 2jzeAs_qFkpehmQfdMzVPqx0qIk-] foundSubmit result: 2jzeAs_qFkpehmQfdMzVPqx0qIk- has been confirmedTrack | CTDB Status 1 | (2/2) Accurately ripped 2 | (2/2) Accurately ripped 3 | (2/2) Accurately ripped 4 | (2/2) Accurately ripped 5 | (2/2) Accurately ripped 6 | (2/2) Accurately ripped 7 | (2/2) Accurately ripped 8 | (2/2) Accurately ripped 9 | (2/2) Accurately ripped 10 | (2/2) Accurately ripped 11 | (2/2) Accurately ripped 12 | (2/2) Accurately ripped
==== Log checksum E7E5BE1C09CFF49395583F29D9A63299B8DAA5C94FFFDFC33E9A479F2D93A32A ====

Содержание индексной карты (.CUE)

REM GENRE JazzREM DATE 2003REM DISCID A30A720CREM COMMENT "ExactAudioCopy v1.3"PERFORMER "Katinka Wilson"TITLE "One Life"FILE "01 - Why.wav" WAVE TRACK 01 AUDIO TITLE "Why" PERFORMER "Katinka Wilson" INDEX 01 00:00:00FILE "02 - Did You Fly.wav" WAVE TRACK 02 AUDIO TITLE "Did You Fly" PERFORMER "Katinka Wilson" INDEX 01 00:00:00FILE "03 - The Boat.wav" WAVE TRACK 03 AUDIO TITLE "The Boat" PERFORMER "Katinka Wilson" INDEX 01 00:00:00FILE "04 - Bottomline.wav" WAVE TRACK 04 AUDIO TITLE "Bottomline" PERFORMER "Katinka Wilson" INDEX 01 00:00:00FILE "05 - One Life.wav" WAVE TRACK 05 AUDIO TITLE "One Life" PERFORMER "Katinka Wilson" INDEX 01 00:00:00FILE "06 - 'Cause I Miss You.wav" WAVE TRACK 06 AUDIO TITLE "'Cause I Miss You" PERFORMER "Katinka Wilson" INDEX 01 00:00:00FILE "07 - Heather.wav" WAVE TRACK 07 AUDIO TITLE "Heather" PERFORMER "Katinka Wilson" INDEX 01 00:00:00FILE "08 - El Morte.wav" WAVE TRACK 08 AUDIO TITLE "El Morte" PERFORMER "Katinka Wilson" INDEX 01 00:00:00FILE "09 - Sounds.wav" WAVE TRACK 09 AUDIO TITLE "Sounds" PERFORMER "Katinka Wilson" INDEX 01 00:00:00FILE "10 - The Puppet.wav" WAVE TRACK 10 AUDIO TITLE "The Puppet" PERFORMER "Katinka Wilson" INDEX 01 00:00:00FILE "11 - Grey Dressed Skies.wav" WAVE TRACK 11 AUDIO TITLE "Grey Dressed Skies" PERFORMER "Katinka Wilson" INDEX 01 00:00:00FILE "12 - Razor Blade Jane.wav" WAVE TRACK 12 AUDIO TITLE "Razor Blade Jane" PERFORMER "Katinka Wilson" INDEX 01 00:00:00

Отчет CUETools

[CUETools log; Date: 30.12.2018 15:58:19; Version: 2.1.6][CTDB TOCID: 2jzeAs_qFkpehmQfdMzVPqx0qIk-] found.Track | CTDB Status 1 | (3/3) Accurately ripped 2 | (3/3) Accurately ripped 3 | (3/3) Accurately ripped 4 | (3/3) Accurately ripped 5 | (3/3) Accurately ripped 6 | (3/3) Accurately ripped 7 | (3/3) Accurately ripped 8 | (3/3) Accurately ripped 9 | (3/3) Accurately ripped 10 | (3/3) Accurately ripped 11 | (3/3) Accurately ripped 12 | (3/3) Accurately ripped[AccurateRip ID: 0013460e-00b5a8b7-a30a720c] disk not present in database.
Track Peak [ CRC32 ] [W/O NULL] [ LOG ] -- 95,9 [292D5E82] [7C65A552] 01 95,9 [39A74673] [6E0F2D2B] CRC32 02 95,2 [33CF1A5D] [22EC5A9B] CRC32 03 93,8 [F115EB04] [37A6202A] CRC32 04 95,2 [2F1B1B52] [60CFF1A1] CRC32 05 94,9 [B30752E0] [1EC7794C] CRC32 06 95,2 [E4375900] [25D42EB9] CRC32 07 93,9 [7874A71A] [04C3A34D] CRC32 08 94,4 [DCFD722C] [F0659EBC] CRC32 09 94,8 [966F666F] [E3369624] CRC32 10 94,0 [586F4C4F] [C79A8A1F] CRC32 11 90,3 [BAB02D83] [9B3DD328] CRC32 12 81,9 [F909F7C5] [3C33447B] CRC32

Об альбоме (сборнике)

One Life, Katinka Wilson’s debut album, was recorded in an acoustic environment and with an occasional touch of Pop. Katinka is not only a singer/guitarist, but also composes the music and writes the lyrics in a very personal sensual style.


[islamvillage.com]_t_5667059.torrent
Торрент: Зарегистрирован ·  [ 2019-01-06 19:01 ] ·  47963c4f639dea0fdb14e0202d30fac392b39a37

20 KB

Статус: проверено
Скачан: 0 раз
Размер: 240 MB
Оценка: 
(Голосов: 0)
Сказали спасибо: 0  Спасибо
Похожие темы
[Профиль]    [ЛС]
Показать сообщения:    
Ответить на тему

Текущее время: Сегодня 05:52

Часовой пояс: GMT + 7



Вы не можете начинать темы
Вы не можете отвечать на сообщения
Вы не можете редактировать свои сообщения
Вы не можете удалять свои сообщения
Вы не можете голосовать в опросах
Вы не можете прикреплять файлы к сообщениям
Вы можете скачивать файлы


change language | Light as a Feather HDTV 720p AC3 5.1 | BumblebeeOn the run in the year 1987 Bumblebee finds refuge in a junkyard in a small Californian beach town. Charlie on the cusp of turning 18 and trying to find her place in the world discovers Bumblebee battle-scarred and...', WIDTH, -300, FONTFACE, 'Arial, Tahoma', FONTSIZE, '13px')">Bumblebee