(Vocal Jazz, Christmas) [CD] Frank Sinatra - The Ultimate Christmas (Daily Mail CD) - 2012, FLAC (tracks+.cue), lossless

Ответить на тему
Статистика раздачи [Обновить пиров]
Размер:  192 MB   |    Зарегистрирован:  1 месяц 15 дней   |    Скачан:  0 раз

Полного источника не было: Никогда

 
   
 
 
 
Автор Сообщение

islamvillage.com

Создавать темы 06-Янв-2019 19:27

[Цитировать]

Frank Sinatra - The Ultimate Christmas (Daily Mail CD)
Жанр: Vocal Jazz, Christmas
Носитель: CD
Страна-производитель диска (релиза): Великобритания
Год издания: 2012
Издатель (лейбл): Upfront
Номер по каталогу: UPFNKSA001
Страна исполнителя (группы): США
Аудиокодек: FLAC (*.flac)
Тип рипа: tracks+.cue
Битрейт аудио: lossless
Продолжительность: 45:56
Источник (релизер): strifeknot
Наличие сканов в содержимом раздачи: сетевые
Треклист:
01. Hark! The Herald Angels Sing (2:25)
02. Jingle Bells (2:03)
03. Let It Snow! Let It Snow! Let It Snow! (2:38)
04. O Come All Ye Faithful (Adeste Fidelis) (2:36)
05. Silent Night Holy Night (2:32)
06. The First Noel (2:45)
07. Have Yourself a Merry Little Christmas (3:30)
08. The Christmas Song (3:30)
09. Santa Claus Is Coming to Town (2:37)
10. White Christmas (5:37)
Bonus tracks - unknown performers
11. Away in a Manger (2:56)
12. Ding Dong Merrily on High (2:10)
13. God Rest Ye Merry Gentlemen (3:03)
14. O Little Town of Bethlehem (3:18)
15. A Child This Day Is Born (4:16)

Лог создания рипа

Exact Audio Copy V1.3 from 2. September 2016
EAC extraction logfile from 23. December 2016, 23:21
Frank Sinatra / The Ultimate Christmas (Daily Mail CD)
Used drive : HL-DT-STDVDRAM GH24NSC0 Adapter: 1 ID: 0
Read mode : SecureUtilize accurate stream : YesDefeat audio cache : YesMake use of C2 pointers : No
Read offset correction : 6Overread into Lead-In and Lead-Out : NoFill up missing offset samples with silence : YesDelete leading and trailing silent blocks : NoNull samples used in CRC calculations : YesUsed interface : Native Win32 interface for Win NT & 2000Gap handling : Appended to previous track
Used output format : User Defined EncoderSelected bitrate : 1024 kBit/sQuality : HighAdd ID3 tag : NoCommand line compressor : C:\Program Files (x86)\Exact Audio Copy\Flac\flac.exeAdditional command line options : -8 -e -p -V -T "ARTIST=%artist%" -T "TITLE=%title%" -T "ALBUM=%albumtitle%" -T "DATE=%year%" -T "TRACKNUMBER=%tracknr%" -T "GENRE=%genre%" -T "PERFORMER=%albuminterpret%" -T "COMPOSER=%composer%" %haslyrics%--tag-from-file=LYRICS="%lyricsfile%"%haslyrics% -T "ALBUMARTIST=%albumartist%" -T "DISCNUMBER=%cdnumber%" -T "TOTALDISCS=%totalcds%" -T "TOTALTRACKS=%numtracks%" -T "COMMENT=%comment%" %source% -o %dest%
TOC of the extracted CD
Track | Start | Length | Start sector | End sector --------------------------------------------------------- 1 | 0:00.00 | 2:25.34 | 0 | 10908 2 | 2:25.34 | 2:02.60 | 10909 | 20118 3 | 4:28.19 | 2:38.00 | 20119 | 31968 4 | 7:06.19 | 2:35.68 | 31969 | 43661 5 | 9:42.12 | 2:31.42 | 43662 | 55028 6 | 12:13.54 | 2:45.30 | 55029 | 67433 7 | 14:59.09 | 3:30.24 | 67434 | 83207 8 | 18:29.33 | 3:30.17 | 83208 | 98974 9 | 21:59.50 | 2:37.30 | 98975 | 110779 10 | 24:37.05 | 5:36.73 | 110780 | 136052 11 | 30:14.03 | 2:56.16 | 136053 | 149268 12 | 33:10.19 | 2:09.63 | 149269 | 159006 13 | 35:20.07 | 3:02.38 | 159007 | 172694 14 | 38:22.45 | 3:18.10 | 172695 | 187554 15 | 41:40.55 | 4:15.73 | 187555 | 206752
Track 1
Filename Z:\media\mediacentre\Mediacentre\Music\Incoming\Frank Sinatra - Sinatra – The Ultimate Christmas (2012) [CD FLAC] {UPFNKSA001}\01 - Frank Sinatra - Hark! The Herald Angels Sing.wav
Pre-gap length 0:00:02.00
Peak level 98.8 % Extraction speed 0.9 X Track quality 100.0 % Test CRC 368071FA Copy CRC 368071FA Accurately ripped (confidence 7) [C6C02D77] (AR v2) Copy OK
Track 2
Filename Z:\media\mediacentre\Mediacentre\Music\Incoming\Frank Sinatra - Sinatra – The Ultimate Christmas (2012) [CD FLAC] {UPFNKSA001}\02 - Frank Sinatra - Jingle Bells.wav
Pre-gap length 0:00:02.00
Peak level 98.8 % Extraction speed 0.7 X Track quality 99.9 % Test CRC 8D0DC40F Copy CRC 8D0DC40F Accurately ripped (confidence 7) [922C723A] (AR v2) Copy OK
Track 3
Filename Z:\media\mediacentre\Mediacentre\Music\Incoming\Frank Sinatra - Sinatra – The Ultimate Christmas (2012) [CD FLAC] {UPFNKSA001}\03 - Frank Sinatra - Let it Snow! Let it Snow! Let it Snow!.wav
Pre-gap length 0:00:02.00
Peak level 98.8 % Extraction speed 0.9 X Track quality 99.9 % Test CRC BADC9A00 Copy CRC BADC9A00 Accurately ripped (confidence 7) [1B4530D9] (AR v2) Copy OK
Track 4
Filename Z:\media\mediacentre\Mediacentre\Music\Incoming\Frank Sinatra - Sinatra – The Ultimate Christmas (2012) [CD FLAC] {UPFNKSA001}\04 - Frank Sinatra - O Come All Ye Faithful (Adeste Fidelis).wav
Pre-gap length 0:00:02.00
Peak level 98.8 % Extraction speed 1.1 X Track quality 100.0 % Test CRC F86D6D7F Copy CRC F86D6D7F Accurately ripped (confidence 7) [83887245] (AR v2) Copy OK
Track 5
Filename Z:\media\mediacentre\Mediacentre\Music\Incoming\Frank Sinatra - Sinatra – The Ultimate Christmas (2012) [CD FLAC] {UPFNKSA001}\05 - Frank Sinatra - Silent Night Holy Night.wav
Pre-gap length 0:00:02.00
Peak level 98.8 % Extraction speed 1.2 X Track quality 100.0 % Test CRC 178E61D9 Copy CRC 178E61D9 Accurately ripped (confidence 7) [F263393B] (AR v2) Copy OK
Track 6
Filename Z:\media\mediacentre\Mediacentre\Music\Incoming\Frank Sinatra - Sinatra – The Ultimate Christmas (2012) [CD FLAC] {UPFNKSA001}\06 - Frank Sinatra - The First Noel.wav
Pre-gap length 0:00:02.00
Peak level 98.8 % Extraction speed 1.3 X Track quality 100.0 % Test CRC 716EC057 Copy CRC 716EC057 Accurately ripped (confidence 7) [EF6188CA] (AR v2) Copy OK
Track 7
Filename Z:\media\mediacentre\Mediacentre\Music\Incoming\Frank Sinatra - Sinatra – The Ultimate Christmas (2012) [CD FLAC] {UPFNKSA001}\07 - Frank Sinatra - Have Yourself A Merry Little Christmas.wav
Pre-gap length 0:00:02.00
Peak level 98.8 % Extraction speed 1.4 X Track quality 100.0 % Test CRC 001236DF Copy CRC 001236DF Accurately ripped (confidence 7) [3BB1FD48] (AR v2) Copy OK
Track 8
Filename Z:\media\mediacentre\Mediacentre\Music\Incoming\Frank Sinatra - Sinatra – The Ultimate Christmas (2012) [CD FLAC] {UPFNKSA001}\08 - Frank Sinatra - The Christmas Song.wav
Pre-gap length 0:00:02.00
Peak level 98.8 % Extraction speed 1.5 X Track quality 100.0 % Test CRC 3F65F425 Copy CRC 3F65F425 Accurately ripped (confidence 7) [A32CC497] (AR v2) Copy OK
Track 9
Filename Z:\media\mediacentre\Mediacentre\Music\Incoming\Frank Sinatra - Sinatra – The Ultimate Christmas (2012) [CD FLAC] {UPFNKSA001}\09 - Frank Sinatra - Santa Claus Is Coming To Town.wav
Pre-gap length 0:00:02.00
Peak level 98.8 % Extraction speed 1.4 X Track quality 100.0 % Test CRC A4E76583 Copy CRC A4E76583 Accurately ripped (confidence 7) [3CC1E4CC] (AR v2) Copy OK
Track 10
Filename Z:\media\mediacentre\Mediacentre\Music\Incoming\Frank Sinatra - Sinatra – The Ultimate Christmas (2012) [CD FLAC] {UPFNKSA001}\10 - Frank Sinatra - White Christmas.wav
Pre-gap length 0:00:02.00
Peak level 98.8 % Extraction speed 1.6 X Track quality 99.9 % Test CRC 31ACE77A Copy CRC 31ACE77A Accurately ripped (confidence 7) [54CA23CA] (AR v2) Copy OK
Track 11
Filename Z:\media\mediacentre\Mediacentre\Music\Incoming\Frank Sinatra - Sinatra – The Ultimate Christmas (2012) [CD FLAC] {UPFNKSA001}\11 - [unknown] - Away In A Manger.wav
Pre-gap length 0:03:00.00
Peak level 98.8 % Extraction speed 1.6 X Track quality 100.0 % Test CRC 4F2955F0 Copy CRC 4F2955F0 Accurately ripped (confidence 6) [649C49E9] (AR v2) Copy OK
Track 12
Filename Z:\media\mediacentre\Mediacentre\Music\Incoming\Frank Sinatra - Sinatra – The Ultimate Christmas (2012) [CD FLAC] {UPFNKSA001}\12 - [unknown] - Ding Dong Merrily On High.wav
Pre-gap length 0:00:02.00
Peak level 98.8 % Extraction speed 1.6 X Track quality 100.0 % Test CRC E950D7B8 Copy CRC E950D7B8 Accurately ripped (confidence 6) [9F148DDE] (AR v2) Copy OK
Track 13
Filename Z:\media\mediacentre\Mediacentre\Music\Incoming\Frank Sinatra - Sinatra – The Ultimate Christmas (2012) [CD FLAC] {UPFNKSA001}\13 - [unknown] - God Rest Ye Merry Gentlemen.wav
Pre-gap length 0:00:02.00
Peak level 98.8 % Extraction speed 1.7 X Track quality 100.0 % Test CRC 9D7EF560 Copy CRC 9D7EF560 Accurately ripped (confidence 6) [4D6BE596] (AR v2) Copy OK
Track 14
Filename Z:\media\mediacentre\Mediacentre\Music\Incoming\Frank Sinatra - Sinatra – The Ultimate Christmas (2012) [CD FLAC] {UPFNKSA001}\14 - [unknown] - O Little Town Of Bethlehem.wav
Pre-gap length 0:00:02.00
Peak level 98.8 % Extraction speed 1.8 X Track quality 100.0 % Test CRC F70F7280 Copy CRC F70F7280 Accurately ripped (confidence 6) [97BD9223] (AR v2) Copy OK
Track 15
Filename Z:\media\mediacentre\Mediacentre\Music\Incoming\Frank Sinatra - Sinatra – The Ultimate Christmas (2012) [CD FLAC] {UPFNKSA001}\15 - [unknown] - A Child This Day Is Born.wav
Pre-gap length 0:00:02.00
Peak level 98.8 % Extraction speed 1.7 X Track quality 99.9 % Test CRC AA707D8B Copy CRC AA707D8B Accurately ripped (confidence 6) [5B17B38E] (AR v2) Copy OK
All tracks accurately ripped
No errors occurred
End of status report
==== Log checksum 7527273E5CD03F6B8D2C685328BC3EBE1E839E5D645121488090DAE0672F6FFF ====

Содержание индексной карты (.CUE)

REM GENRE ChristmasREM DATE 2012REM DISCID AD0AC40FREM COMMENT "ExactAudioCopy v1.3"PERFORMER "Frank Sinatra"TITLE "The Ultimate Christmas"FILE "01 - Frank Sinatra - Hark! The Herald Angels Sing.wav" WAVE TRACK 01 AUDIO TITLE "Hark! The Herald Angels Sing" PERFORMER "Frank Sinatra" INDEX 01 00:00:00 TRACK 02 AUDIO TITLE "Jingle Bells" PERFORMER "Frank Sinatra" INDEX 00 02:23:34FILE "02 - Frank Sinatra - Jingle Bells.wav" WAVE INDEX 01 00:00:00 TRACK 03 AUDIO TITLE "Let It Snow! Let It Snow! Let It Snow!" PERFORMER "Frank Sinatra" INDEX 00 02:00:60FILE "03 - Frank Sinatra - Let It Snow! Let It Snow! Let It Snow!.wav" WAVE INDEX 01 00:00:00 TRACK 04 AUDIO TITLE "O Come All Ye Faithful (Adeste Fidelis)" PERFORMER "Frank Sinatra" INDEX 00 02:36:00FILE "04 - Frank Sinatra - O Come All Ye Faithful (Adeste Fidelis).wav" WAVE INDEX 01 00:00:00 TRACK 05 AUDIO TITLE "Silent Night Holy Night" PERFORMER "Frank Sinatra" INDEX 00 02:33:68FILE "05 - Frank Sinatra - Silent Night Holy Night.wav" WAVE INDEX 01 00:00:00 TRACK 06 AUDIO TITLE "The First Noel" PERFORMER "Frank Sinatra" INDEX 00 02:29:42FILE "06 - Frank Sinatra - The First Noel.wav" WAVE INDEX 01 00:00:00 TRACK 07 AUDIO TITLE "Have Yourself a Merry Little Christmas" PERFORMER "Frank Sinatra" INDEX 00 02:43:30FILE "07 - Frank Sinatra - Have Yourself a Merry Little Christmas.wav" WAVE INDEX 01 00:00:00 TRACK 08 AUDIO TITLE "The Christmas Song" PERFORMER "Frank Sinatra" INDEX 00 03:28:24FILE "08 - Frank Sinatra - The Christmas Song.wav" WAVE INDEX 01 00:00:00 TRACK 09 AUDIO TITLE "Santa Claus Is Coming to Town" PERFORMER "Frank Sinatra" INDEX 00 03:28:17FILE "09 - Frank Sinatra - Santa Claus Is Coming to Town.wav" WAVE INDEX 01 00:00:00 TRACK 10 AUDIO TITLE "White Christmas" PERFORMER "Frank Sinatra" INDEX 00 02:35:30FILE "10 - Frank Sinatra - White Christmas.wav" WAVE INDEX 01 00:00:00 TRACK 11 AUDIO TITLE "Away in a Manger" PERFORMER "[unknown]" INDEX 00 02:36:73FILE "11 - [unknown] - Away in a Manger.wav" WAVE INDEX 01 00:00:00 TRACK 12 AUDIO TITLE "Ding Dong Merrily on High" PERFORMER "[unknown]" INDEX 00 02:54:16FILE "12 - [unknown] - Ding Dong Merrily on High.wav" WAVE INDEX 01 00:00:00 TRACK 13 AUDIO TITLE "God Rest Ye Merry Gentlemen" PERFORMER "[unknown]" INDEX 00 02:07:63FILE "13 - [unknown] - God Rest Ye Merry Gentlemen.wav" WAVE INDEX 01 00:00:00 TRACK 14 AUDIO TITLE "O Little Town of Bethlehem" PERFORMER "[unknown]" INDEX 00 03:00:38FILE "14 - [unknown] - O Little Town of Bethlehem.wav" WAVE INDEX 01 00:00:00 TRACK 15 AUDIO TITLE "A Child This Day Is Born" PERFORMER "[unknown]" INDEX 00 03:16:10FILE "15 - [unknown] - A Child This Day Is Born.wav" WAVE INDEX 01 00:00:00

Отчет CUETools

[CUETools log; Date: 25.12.2018 19:59:49; Version: 2.1.6][CTDB TOCID: 1KrBa92ZOfVhdvYUc288L6wKRJQ-] found.Track | CTDB Status 1 | (53/53) Accurately ripped 2 | (53/53) Accurately ripped 3 | (53/53) Accurately ripped 4 | (52/53) Accurately ripped 5 | (53/53) Accurately ripped 6 | (53/53) Accurately ripped 7 | (53/53) Accurately ripped 8 | (53/53) Accurately ripped 9 | (53/53) Accurately ripped 10 | (53/53) Accurately ripped 11 | (53/53) Accurately ripped 12 | (53/53) Accurately ripped 13 | (53/53) Accurately ripped 14 | (53/53) Accurately ripped 15 | (53/53) Accurately ripped[AccurateRip ID: 001765e9-010f6f92-ad0ac40f] found.Track [ CRC | V2 ] Status 01 [7d83256a|c6c02d77] (00+08/32) Accurately ripped 02 [2ed9ae60|922c723a] (00+08/32) Accurately ripped 03 [adeb6c52|1b4530d9] (00+08/32) Accurately ripped 04 [f269cdd9|83887245] (00+08/32) Accurately ripped 05 [a8a79048|f263393b] (00+08/32) Accurately ripped 06 [41ed8e6c|ef6188ca] (00+08/32) Accurately ripped 07 [31bf36c4|3bb1fd48] (00+08/32) Accurately ripped 08 [a7235bf0|a32cc497] (00+08/32) Accurately ripped 09 [9dc1352e|3cc1e4cc] (00+08/32) Accurately ripped 10 [166251a1|54ca23ca] (00+08/32) Accurately ripped 11 [0fe9bf3f|649c49e9] (00+07/30) Accurately ripped 12 [a404d1d8|9f148dde] (00+07/30) Accurately ripped 13 [e6e96a7e|4d6be596] (00+07/30) Accurately ripped 14 [2d2afa40|97bd9223] (00+07/30) Accurately ripped 15 [81d5db73|5b17b38e] (00+07/30) Accurately rippedOffsetted by -646: 01 [110ba0e8] (00/32) No match (V2 was not tested) 02 [d6e7753c] (00/32) No match (V2 was not tested) 03 [b0f3c0c0] (00/32) No match (V2 was not tested) 04 [734e79e3] (00/32) No match (V2 was not tested) 05 [979f1afc] (00/32) No match (V2 was not tested) 06 [ff0207a8] (00/32) No match (V2 was not tested) 07 [70bd8b20] (00/32) No match (V2 was not tested) 08 [6ad51ff0] (00/32) No match (V2 was not tested) 09 [c956c890] (00/32) No match (V2 was not tested) 10 [88246223] (00/32) No match (V2 was not tested) 11 [c5f8a315] (00/30) No match (V2 was not tested) 12 [27d02878] (00/30) No match (V2 was not tested) 13 [9ed69826] (00/30) No match (V2 was not tested) 14 [1e277230] (00/30) No match (V2 was not tested) 15 [2c2b3c55] (00/30) No match (V2 was not tested)Offsetted by 30: 01 [1de4a274] (00/32) No match (V2 was not tested) 02 [cfdd0114] (00/32) No match (V2 was not tested) 03 [e216a0ac] (00/32) No match (V2 was not tested) 04 [54411127] (00/32) No match (V2 was not tested) 05 [38e691c4] (00/32) No match (V2 was not tested) 06 [124fad40] (00/32) No match (V2 was not tested) 07 [58d3e5f8] (00/32) No match (V2 was not tested) 08 [a06d87f0] (00/32) No match (V2 was not tested) 09 [d98d15c4] (00/32) No match (V2 was not tested) 10 [c9c51897] (00/32) No match (V2 was not tested) 11 [66911491] (00/30) No match (V2 was not tested) 12 [724e98b8] (00/30) No match (V2 was not tested) 13 [f2fa2436] (00/30) No match (V2 was not tested) 14 [a720d690] (00/30) No match (V2 was not tested) 15 [5316d889] (00/30) No match (V2 was not tested)
Track Peak [ CRC32 ] [W/O NULL] [ LOG ] -- 98,8 [BA6E962E] [301A689B] 01 98,8 [368071FA] [756465F5] CRC32 02 98,8 [8D0DC40F] [4FF407FE] CRC32 03 98,8 [BADC9A00] [FD930177] CRC32 04 98,8 [F86D6D7F] [EBD154D1] CRC32 05 98,8 [178E61D9] [2C9F7CDA] CRC32 06 98,8 [716EC057] [84ADD25C] CRC32 07 98,8 [001236DF] [65419931] CRC32 08 98,8 [3F65F425] [76B8E94D] CRC32 09 98,8 [A4E76583] [A58C71B6] CRC32 10 98,8 [31ACE77A] [807A9C1D] CRC32 11 98,8 [4F2955F0] [649D7E0B] CRC32 12 98,8 [E950D7B8] [C6B63A01] CRC32 13 98,8 [9D7EF560] [D2122FF5] CRC32 14 98,8 [F70F7280] [986C5650] CRC32 15 98,8 [AA707D8B] [4C7B9D34] CRC32


[islamvillage.com]_t_5664945.torrent
Торрент: Зарегистрирован ·  [ 2019-01-06 19:01 ] ·  c0bf1ea2bbda87d3d7332008897da2c4a705423b

17 KB

Статус: проверено
Скачан: 0 раз
Размер: 192 MB
Оценка: 
(Голосов: 0)
Сказали спасибо: 0  Спасибо
Похожие темы
[Профиль]    [ЛС]
Показать сообщения:    
Ответить на тему

Текущее время: Сегодня 22:29

Часовой пояс: GMT + 7



Вы не можете начинать темы
Вы не можете отвечать на сообщения
Вы не можете редактировать свои сообщения
Вы не можете удалять свои сообщения
Вы не можете голосовать в опросах
Вы не можете прикреплять файлы к сообщениям
Вы можете скачивать файлы


Manikarnika : The Queen of Jhansi | Chicago.PD.S05E07.Die.Krieger.German.DD51.Dubbed.DL.1080p.AmazonHD.x264-TVS | Мультфильмы (HD Video)