(Vocal Jazz, Contemporary Jazz, Easy Listening) [CD] Linx · Fresu · Wissels / Heartland - The Whistleblowers - 2015, FLAC (tracks+.cue), lossless

Ответить на тему
Статистика раздачи [Обновить пиров]
Размер:  355 MB   |    Зарегистрирован:  11 дней   |    Скачан:  0 раз

Полного источника не было: Никогда

 
   
 
 
 
Автор Сообщение

islamvillage.com

Создавать темы 06-Янв-2019 19:27

[Цитировать]

Linx · Fresu · Wissels / Heartland - The Whistleblowers
Жанр: Vocal Jazz, Contemporary Jazz, Easy Listening
Носитель: CD
Страна-производитель диска (релиза): FRA/ITA
Год издания: 2015
Издатель (лейбл): Bonsaï Music / Tuk Music
Номер по каталогу: BON151101
Страна исполнителя (группы): BEL/ITA/HOL
Аудиокодек: FLAC (*.flac)
Тип рипа: tracks+.cue
Битрейт аудио: lossless
Продолжительность: 00:54:15
Источник (релизер): thanks dtromp
Наличие сканов в содержимом раздачи: .png
Треклист:
1. As One (feat. Cristophe Wallemme, Helge Andreas Norbakken & Quartetto Alborada) (04:40)
2. December (feat. Cristophe Wallemme, Helge Andreas Norbakken & Quartetto Alborada) (04:53)
3. This Dwelling Place (feat. Cristophe Wallemme & Helge Andreas Norbakken) (03:46)
4. The Whistleblowers (feat. Christophe Wallemme, Helge Andreas Norbakken & Quartetto Alborada) (04:07)
5. Trailblazers (feat. Cristophe Wallemme & Helge Andreas Norbakken) (03:26)
6. Paris (feat. Cristophe Wallemme, Helge Andreas Norbakken & Quartetto Alborada) (05:27)
7. Contradiction Takes Its Place, Pt. 1 (feat. Cristophe Wallemme & Helge Andreas Norbakken) (02:11)
8. Contradiction Takes Its Place, Pt. 2 (feat. Cristophe Wallemme & Helge Andreas Norbakken) (04:06)
9. O grande Kilapy (feat. Cristophe Wallemme & Helge Andreas Norbakken) (03:48)
10. Le tue mani (feat. Cristophe Wallemme & Helge Andreas Norbakken) (05:49)
11. Dredge Up (feat. Cristophe Wallemme, Helge Andreas Norbakken & Quartetto Alborada) (04:03)
12. Shake up Your Trust (For Kenny Wheeler) [feat. Cristophe Wallemme & Helge Andreas Norbakken] (05:14)
13. Confusion (feat. Cristophe Wallemme & Helge Andreas Norbakken) (02:37)

Лог создания рипа

Exact Audio Copy V1.1 from 23. June 2015
EAC extraction logfile from 11. March 2016, 17:38
Linx, Fresu, Wissels - Heartland / The Whistleblowers
Used drive : ATAPI iHBS112 2 Adapter: 1 ID: 1
Read mode : SecureUtilize accurate stream : YesDefeat audio cache : YesMake use of C2 pointers : No
Read offset correction : 6Overread into Lead-In and Lead-Out : NoFill up missing offset samples with silence : YesDelete leading and trailing silent blocks : NoNull samples used in CRC calculations : YesUsed interface : Native Win32 interface for Win NT & 2000Gap handling : Appended to previous track
Used output format : User Defined EncoderSelected bitrate : 768 kBit/sQuality : HighAdd ID3 tag : NoCommand line compressor : C:\Program Files\Exact Audio Copy\FLAC\FLAC.EXEAdditional command line options : -8 -V -T "ARTIST=%artist%" -T "TITLE=%title%" -T "ALBUM=%albumtitle%" -T "DATE=%year%" -T "TRACKNUMBER=%tracknr%" -T "GENRE=%genre%" -T "PERFORMER=%albuminterpret%" -T "COMPOSER=%composer%" -T "ALBUMARTIST=%albumartist%" -T "DISCNUMBER=%cdnumber%" -T "TOTALDISCS=%totalcds%" -T "TOTALTRACKS=%numtracks%" -T "COMMENT=EAC Secure Mode, Test & Copy, AccurateRip, FLAC -8" %source% -o %dest%
TOC of the extracted CD
Track | Start | Length | Start sector | End sector --------------------------------------------------------- 1 | 0:00.00 | 4:40.22 | 0 | 21021 2 | 4:40.22 | 4:53.07 | 21022 | 43003 3 | 9:33.29 | 3:46.24 | 43004 | 59977 4 | 13:19.53 | 4:07.67 | 59978 | 78569 5 | 17:27.45 | 3:26.59 | 78570 | 94078 6 | 20:54.29 | 5:28.01 | 94079 | 118679 7 | 26:22.30 | 2:11.72 | 118680 | 128576 8 | 28:34.27 | 4:06.38 | 128577 | 147064 9 | 32:40.65 | 3:48.36 | 147065 | 164200 10 | 36:29.26 | 5:49.64 | 164201 | 190439 11 | 42:19.15 | 4:03.53 | 190440 | 208717 12 | 46:22.68 | 5:14.68 | 208718 | 232335 13 | 51:37.61 | 2:37.19 | 232336 | 244129
Track 1
Filename F:\DL\Linx, Fresu, Wissels - Heartland - The Whistleblowers (2015) [FLAC]\01 - As One.wav
Pre-gap length 0:00:02.00
Peak level 99.0 % Extraction speed 4.8 X Track quality 100.0 % Test CRC 730A2091 Copy CRC 730A2091 Track not present in AccurateRip database Copy OK
Track 2
Filename F:\DL\Linx, Fresu, Wissels - Heartland - The Whistleblowers (2015) [FLAC]\02 - December.wav
Pre-gap length 0:00:02.00
Peak level 100.0 % Extraction speed 5.5 X Track quality 100.0 % Test CRC 7D355578 Copy CRC 7D355578 Track not present in AccurateRip database Copy OK
Track 3
Filename F:\DL\Linx, Fresu, Wissels - Heartland - The Whistleblowers (2015) [FLAC]\03 - This Dwelling Place.wav
Pre-gap length 0:00:02.00
Peak level 96.6 % Extraction speed 5.7 X Track quality 100.0 % Test CRC 501CEB31 Copy CRC 501CEB31 Track not present in AccurateRip database Copy OK
Track 4
Filename F:\DL\Linx, Fresu, Wissels - Heartland - The Whistleblowers (2015) [FLAC]\04 - The Whistleblowers.wav
Pre-gap length 0:00:02.00
Peak level 100.0 % Extraction speed 6.1 X Track quality 100.0 % Test CRC DF46B634 Copy CRC DF46B634 Track not present in AccurateRip database Copy OK
Track 5
Filename F:\DL\Linx, Fresu, Wissels - Heartland - The Whistleblowers (2015) [FLAC]\05 - Trailblazers.wav
Pre-gap length 0:00:02.00
Peak level 96.7 % Extraction speed 5.2 X Track quality 99.9 % Test CRC 84DFFAF2 Copy CRC 84DFFAF2 Track not present in AccurateRip database Copy OK
Track 6
Filename F:\DL\Linx, Fresu, Wissels - Heartland - The Whistleblowers (2015) [FLAC]\06 - Paris.wav
Pre-gap length 0:00:02.00
Peak level 100.0 % Extraction speed 6.2 X Track quality 99.9 % Test CRC D05B328D Copy CRC D05B328D Track not present in AccurateRip database Copy OK
Track 7
Filename F:\DL\Linx, Fresu, Wissels - Heartland - The Whistleblowers (2015) [FLAC]\07 - Contradiction Takes Its Place (part one).wav
Pre-gap length 0:00:02.00
Peak level 89.4 % Extraction speed 6.4 X Track quality 100.0 % Test CRC F79E12D0 Copy CRC F79E12D0 Track not present in AccurateRip database Copy OK
Track 8
Filename F:\DL\Linx, Fresu, Wissels - Heartland - The Whistleblowers (2015) [FLAC]\08 - Contradiction Takes Its Place (part two).wav
Peak level 97.7 % Extraction speed 7.3 X Track quality 100.0 % Test CRC 2B402673 Copy CRC 2B402673 Track not present in AccurateRip database Copy OK
Track 9
Filename F:\DL\Linx, Fresu, Wissels - Heartland - The Whistleblowers (2015) [FLAC]\09 - O Grande Kilapy.wav
Pre-gap length 0:00:02.00
Peak level 97.7 % Extraction speed 7.5 X Track quality 100.0 % Test CRC D56F50E0 Copy CRC D56F50E0 Track not present in AccurateRip database Copy OK
Track 10
Filename F:\DL\Linx, Fresu, Wissels - Heartland - The Whistleblowers (2015) [FLAC]\10 - Le Tue Mani.wav
Pre-gap length 0:00:02.00
Peak level 96.6 % Extraction speed 8.2 X Track quality 100.0 % Test CRC E4128157 Copy CRC E4128157 Track not present in AccurateRip database Copy OK
Track 11
Filename F:\DL\Linx, Fresu, Wissels - Heartland - The Whistleblowers (2015) [FLAC]\11 - Dredge Up.wav
Pre-gap length 0:00:02.00
Peak level 99.0 % Extraction speed 6.8 X Track quality 99.9 % Test CRC 479A34F3 Copy CRC 479A34F3 Track not present in AccurateRip database Copy OK
Track 12
Filename F:\DL\Linx, Fresu, Wissels - Heartland - The Whistleblowers (2015) [FLAC]\12 - Shake Up Your Trust.wav
Pre-gap length 0:00:02.00
Peak level 82.2 % Extraction speed 8.5 X Track quality 100.0 % Test CRC D03C978A Copy CRC D03C978A Track not present in AccurateRip database Copy OK
Track 13
Filename F:\DL\Linx, Fresu, Wissels - Heartland - The Whistleblowers (2015) [FLAC]\13 - Confusion.wav
Pre-gap length 0:00:02.00
Peak level 97.1 % Extraction speed 8.0 X Track quality 100.0 % Test CRC EA4FE752 Copy CRC EA4FE752 Track not present in AccurateRip database Copy OK
None of the tracks are present in the AccurateRip database
No errors occurred
End of status report
---- CUETools DB Plugin V2.1.6
[CTDB TOCID: rqybSu2AZ2FCX1rL0iWRwJqDVoM-] foundSubmit result: rqybSu2AZ2FCX1rL0iWRwJqDVoM- has been confirmedTrack | CTDB Status 1 | (4/4) Accurately ripped 2 | (4/4) Accurately ripped 3 | (4/4) Accurately ripped 4 | (4/4) Accurately ripped 5 | (4/4) Accurately ripped 6 | (4/4) Accurately ripped 7 | (4/4) Accurately ripped 8 | (4/4) Accurately ripped 9 | (4/4) Accurately ripped 10 | (4/4) Accurately ripped 11 | (4/4) Accurately ripped 12 | (4/4) Accurately ripped 13 | (4/4) Accurately ripped
==== Log checksum 33E8FCD67809B7DF70A3A65397F7DB55A581EC060B7A012418FBB9C339DA87AD ====

Содержание индексной карты (.CUE)

REM GENRE JazzREM DATE 2015REM DISCID BA0CB70DREM COMMENT "ExactAudioCopy v1.1"FILE "01 - As One.wav" WAVE TRACK 01 AUDIO INDEX 01 00:00:00 TRACK 02 AUDIO INDEX 00 04:38:22FILE "02 - December.wav" WAVE INDEX 01 00:00:00 TRACK 03 AUDIO INDEX 00 04:51:07FILE "03 - This Dwelling Place.wav" WAVE INDEX 01 00:00:00 TRACK 04 AUDIO INDEX 00 03:44:24FILE "04 - The Whistleblowers.wav" WAVE INDEX 01 00:00:00 TRACK 05 AUDIO INDEX 00 04:05:67FILE "05 - Trailblazers.wav" WAVE INDEX 01 00:00:00 TRACK 06 AUDIO INDEX 00 03:24:59FILE "06 - Paris.wav" WAVE INDEX 01 00:00:00 TRACK 07 AUDIO INDEX 00 05:26:01FILE "07 - Contradiction Takes Its Place (part one).wav" WAVE INDEX 01 00:00:00FILE "08 - Contradiction Takes Its Place (part two).wav" WAVE TRACK 08 AUDIO INDEX 01 00:00:00 TRACK 09 AUDIO INDEX 00 04:04:38FILE "09 - O Grande Kilapy.wav" WAVE INDEX 01 00:00:00 TRACK 10 AUDIO INDEX 00 03:46:36FILE "10 - Le Tue Mani.wav" WAVE INDEX 01 00:00:00 TRACK 11 AUDIO INDEX 00 05:47:64FILE "11 - Dredge Up.wav" WAVE INDEX 01 00:00:00 TRACK 12 AUDIO INDEX 00 04:01:53FILE "12 - Shake Up Your Trust.wav" WAVE INDEX 01 00:00:00 TRACK 13 AUDIO INDEX 00 05:12:68FILE "13 - Confusion.wav" WAVE INDEX 01 00:00:00
Доп. информация:

front, 500px -> 1440px @ amazon

Recordings Studio de Meudon • Paris/France by Julien Bassères • November 2014 and Studio Artesuono • Udine/Italy by Stefano Amerio • January 2015
Mixing and Mastering Studio Artesuono • Udine/Italy by Stefano Amerio • January 2015
Artistic Production David Linx • Paolo Fresu • Diederik Wissels
Production Coordinator Luca Devito
Photos Roberto Cifarelli [www.robertocifarelli.com]
Cover Painting Sshhh by Olimpia Zagnoli 2013 • Digital Art
Graphic Design Benno Simma [www.bennosimma.com]

Об альбоме (сборнике)

http://www.tukmusic.com/it/catalogue/the-whistleblowers-t-k-voice/
After a debut album which came out in 1999 finally the second chapter of the collaboration between Paolo Fresu, David Linx and Diederik Wissels.
A abstract bridge between Al Jarreau and the french song, chamber music and -obviously- jazz athmospheres.

Состав

David Linx: vocals
Paolo Fresu: trumpet, flugelhorn and electronics
Diederik Wissels: piano and Fender Rhodes
Christophe Wallemme: acoustic and electric bass
Helge Andreas Norbakken: drums and percussions
Quartetto Alborada (strings):
Anton Berovski: violin
Sonia Peana: violin
Nico Ciricugno: viola
Piero Salvatori: cello


[islamvillage.com]_t_5661845.torrent
Торрент: Зарегистрирован ·  [ 2019-01-06 19:01 ] ·  29abd5513509815ad7ce981ec4839afde8475c00

30 KB

Статус: проверено
Скачан: 0 раз
Размер: 355 MB
Оценка: 
(Голосов: 0)
Сказали спасибо: 0  Спасибо
Похожие темы
[Профиль]    [ЛС]
Показать сообщения:    
Ответить на тему

Текущее время: Сегодня 06:28

Часовой пояс: GMT + 7



Вы не можете начинать темы
Вы не можете отвечать на сообщения
Вы не можете редактировать свои сообщения
Вы не можете удалять свои сообщения
Вы не можете голосовать в опросах
Вы не можете прикреплять файлы к сообщениям
Вы можете скачивать файлы


Informações do veículo | John Malkovich | Queen - Bohemian Rhapsody - Original Soundtrack - Full Album_H264_AAC_360p m4a