(Soul/R&B/Funk) [CD] The Main Ingredient - Collection: 9 albums - 1970-2018, FLAC (tracks+.cue), lossless

Ответить на тему
Статистика раздачи [Обновить пиров]
Размер:  2.73 GB   |    Зарегистрирован:  16 дней   |    Скачан:  0 раз

Полного источника не было: Никогда

 
   
 
 
 
Автор Сообщение

islamvillage.com

Создавать темы 06-Янв-2019 19:28

[Цитировать]

The Main Ingredient / 9 albums (1970-2018)
Жанр: Soul / R&B / Funk
Носитель: CD
Страна-производитель диска (релиза): USA, UK
Год издания: 1995-2007
Издатель (лейбл): RCA, Expansion
Страна исполнителя (группы): USA
Аудиокодек: FLAC (*.flac)
Тип рипа: tracks+.cue
Битрейт аудио: lossless
Продолжительность: 07:22:20
Источник (релизер): из интернета
Наличие сканов в содержимом раздачи: да
"Золотой" хит группы по версии Recording Industry Association of America (R.I.A.A.):
Everybody Plays The Fool (1972) - http://www.youtube.com/watch?v=qb46mJmppN4

1970 - Tasteful Soul (00:32:52)

01 I'm Better Off Without You
02 Magic Shoes
03 I'm So Proud
04 Somebody's Been Sleeping
05 Make It With You
06 Spinning Around (I Must Be Falling In Love)
07 Need Her Love (Mr Bugler)
08 That's What Fate Will Do
09 Look At Me
10 Searching

Лог создания рипа

Exact Audio Copy V0.99 prebeta 5 from 4. May 2009
EAC extraction logfile from 14. December 2010, 12:12
The Main Ingredient / Tasteful Soul
Used drive : HP DVD Writer 1270d Adapter: 5 ID: 0
Read mode : SecureUtilize accurate stream : YesDefeat audio cache : YesMake use of C2 pointers : No
Read offset correction : 6Overread into Lead-In and Lead-Out : NoFill up missing offset samples with silence : YesDelete leading and trailing silent blocks : NoNull samples used in CRC calculations : YesUsed interface : Installed external ASPI interfaceGap handling : Appended to previous track
Used output format : User Defined EncoderSelected bitrate : 1024 kBit/sQuality : HighAdd ID3 tag : NoCommand line compressor : C:\Program Files\Exact Audio Copy\Flac\flac.exeAdditional command line options : -V -8 -T "artist=%a" -T "title=%t" -T "album=%g" -T "date=%y" -T "tracknumber=%n" -T "genre=%m" %s
TOC of the extracted CD
Track | Start | Length | Start sector | End sector --------------------------------------------------------- 1 | 0:00.00 | 3:11.43 | 0 | 14367 2 | 3:11.43 | 2:49.36 | 14368 | 27078 3 | 6:01.04 | 3:35.62 | 27079 | 43265 4 | 9:36.66 | 2:54.58 | 43266 | 56373 5 | 12:31.49 | 3:49.26 | 56374 | 73574 6 | 16:21.00 | 3:11.64 | 73575 | 87963 7 | 19:32.64 | 3:17.11 | 87964 | 102749 8 | 22:50.00 | 3:33.29 | 102750 | 118753 9 | 26:23.29 | 2:55.57 | 118754 | 131935 10 | 29:19.11 | 3:33.24 | 131936 | 147934
Track 1
Filename F:\Music Place\FLAC & WAV\THE MAIN INGREDIENT\The Main Ingredient - Tasteful Soul (1971)\01. The Main Ingredient - I'm Better Off Without You.wav
Pre-gap length 0:00:02.00
Peak level 100.0 % Track quality 99.9 % Test CRC 7F3637A5 Copy CRC 7F3637A5 Track not present in AccurateRip database Copy OK
Track 2
Filename F:\Music Place\FLAC & WAV\THE MAIN INGREDIENT\The Main Ingredient - Tasteful Soul (1971)\02. The Main Ingredient - Magic Shoes.wav
Pre-gap length 0:00:02.00
Peak level 100.0 % Track quality 100.0 % Test CRC E2B224D6 Copy CRC E2B224D6 Track not present in AccurateRip database Copy OK
Track 3
Filename F:\Music Place\FLAC & WAV\THE MAIN INGREDIENT\The Main Ingredient - Tasteful Soul (1971)\03. The Main Ingredient - I'm So Proud.wav
Pre-gap length 0:00:01.98
Peak level 100.0 % Track quality 99.9 % Test CRC BBD09673 Copy CRC BBD09673 Track not present in AccurateRip database Copy OK
Track 4
Filename F:\Music Place\FLAC & WAV\THE MAIN INGREDIENT\The Main Ingredient - Tasteful Soul (1971)\04. The Main Ingredient - Somebody's Been Sleeping.wav
Pre-gap length 0:00:01.98
Peak level 100.0 % Track quality 100.0 % Test CRC BF5598AD Copy CRC BF5598AD Track not present in AccurateRip database Copy OK
Track 5
Filename F:\Music Place\FLAC & WAV\THE MAIN INGREDIENT\The Main Ingredient - Tasteful Soul (1971)\05. The Main Ingredient - Make It With You.wav
Pre-gap length 0:00:01.98
Peak level 100.0 % Track quality 100.0 % Test CRC 3E922EAF Copy CRC 3E922EAF Track not present in AccurateRip database Copy OK
Track 6
Filename F:\Music Place\FLAC & WAV\THE MAIN INGREDIENT\The Main Ingredient - Tasteful Soul (1971)\06. The Main Ingredient - Spinning Around (I Must Be Falling In Love).wav
Pre-gap length 0:00:01.98
Peak level 100.0 % Track quality 100.0 % Test CRC EA8B3B14 Copy CRC EA8B3B14 Track not present in AccurateRip database Copy OK
Track 7
Filename F:\Music Place\FLAC & WAV\THE MAIN INGREDIENT\The Main Ingredient - Tasteful Soul (1971)\07. The Main Ingredient - Need Her Love (Mr Bugler).wav
Pre-gap length 0:00:01.98
Peak level 100.0 % Track quality 100.0 % Test CRC 89F61B76 Copy CRC 89F61B76 Track not present in AccurateRip database Copy OK
Track 8
Filename F:\Music Place\FLAC & WAV\THE MAIN INGREDIENT\The Main Ingredient - Tasteful Soul (1971)\08. The Main Ingredient - That's What Fate Will Do.wav
Pre-gap length 0:00:01.98
Peak level 100.0 % Track quality 100.0 % Test CRC 1EC8A599 Copy CRC 1EC8A599 Track not present in AccurateRip database Copy OK
Track 9
Filename F:\Music Place\FLAC & WAV\THE MAIN INGREDIENT\The Main Ingredient - Tasteful Soul (1971)\09. The Main Ingredient - Look At Me.wav
Pre-gap length 0:00:01.98
Peak level 100.0 % Track quality 100.0 % Test CRC AAD13F06 Copy CRC AAD13F06 Track not present in AccurateRip database Copy OK
Track 10
Filename F:\Music Place\FLAC & WAV\THE MAIN INGREDIENT\The Main Ingredient - Tasteful Soul (1971)\10. The Main Ingredient - Searching.wav
Pre-gap length 0:00:01.98
Peak level 100.0 % Track quality 100.0 % Test CRC 1A242D66 Copy CRC 1A242D66 Track not present in AccurateRip database Copy OK
None of the tracks are present in the AccurateRip database
No errors occurred
End of status report

Содержание индексной карты (.CUE)

REM GENRE SoulREM DATE 1971REM DISCID 3A0FFE14REM COMMENT "ExactAudioCopy v0.99pb5"PERFORMER "The Main Ingredient"TITLE "Tasteful Soul"FILE "01 I'm Better Off Without You.wav" WAVE TRACK 01 AUDIO TITLE "I'm Better Off Without You" PERFORMER "The Main Ingredient" INDEX 01 00:00:00 TRACK 02 AUDIO TITLE "Magic Shoes" PERFORMER "The Main Ingredient" INDEX 00 03:09:43FILE "02 Magic Shoes.wav" WAVE INDEX 01 00:00:00 TRACK 03 AUDIO TITLE "I'm So Proud" PERFORMER "The Main Ingredient" INDEX 00 02:47:37FILE "03 I'm So Proud.wav" WAVE INDEX 01 00:00:00 TRACK 04 AUDIO TITLE "Somebody's Been Sleeping" PERFORMER "The Main Ingredient" INDEX 00 03:33:63FILE "04 Somebody's Been Sleeping.wav" WAVE INDEX 01 00:00:00 TRACK 05 AUDIO TITLE "Make It With You" PERFORMER "The Main Ingredient" INDEX 00 02:52:59FILE "05 Make It With You.wav" WAVE INDEX 01 00:00:00 TRACK 06 AUDIO TITLE "Spinning Around (I Must Be Falling In Love)" PERFORMER "The Main Ingredient" INDEX 00 03:47:27FILE "06 Spinning Around (I Must Be Falling In Love).wav" WAVE INDEX 01 00:00:00 TRACK 07 AUDIO TITLE "Need Her Love (Mr Bugler)" PERFORMER "The Main Ingredient" INDEX 00 03:09:65FILE "07 Need Her Love (Mr Bugler).wav" WAVE INDEX 01 00:00:00 TRACK 08 AUDIO TITLE "That's What Fate Will Do" PERFORMER "The Main Ingredient" INDEX 00 03:15:12FILE "08 That's What Fate Will Do.wav" WAVE INDEX 01 00:00:00 TRACK 09 AUDIO TITLE "Look At Me" PERFORMER "The Main Ingredient" INDEX 00 03:31:30FILE "09 Look At Me.wav" WAVE INDEX 01 00:00:00 TRACK 10 AUDIO TITLE "Searching" PERFORMER "The Main Ingredient" INDEX 00 02:53:58FILE "10 Searching.wav" WAVE INDEX 01 00:00:00

1972 - Bitter Sweet (00:35:06)

01 Traveling
02 Where Are You
03 You've Got to Take It (If You Want It)
04 Everybody Plays the Fool
05 Whirl-Wind
06 Fly Baby Fly
07 I Can't See Me Without You
08 Where Do Broken Hearted Lovers Go
09 Who Can I Turn To (When Nobody Needs Me)
10 No Tears (In the End)

Лог проверки качества

AUDIOCHECKER v2.0 beta (build 457) - by Dester - opdester@freemail.hu~~~~~~~~~~~~~~~~~~~~~~~~~~~~~~~~~~
Начато: среда, 10. 02. 2016. - 21:35.27Найдено файлов: 10
01 -===- C:\1972 - Bitter Sweet [RCA]\01 Traveling.flac Извлечение успешно выполнено Заключение: этот трек - CDDA с вероятностью 100% Временный файл удалён.
02 -===- C:\1972 - Bitter Sweet [RCA]\02 Where Are You.flac Извлечение успешно выполнено Заключение: этот трек - CDDA с вероятностью 100% Временный файл удалён.
03 -===- C:\1972 - Bitter Sweet [RCA]\03 You've Got to Take It (If You Want It).flac Извлечение успешно выполнено Заключение: этот трек - CDDA с вероятностью 100% Временный файл удалён.
04 -===- C:\1972 - Bitter Sweet [RCA]\04 Everybody Plays the Fool.flac Извлечение успешно выполнено Заключение: этот трек - CDDA с вероятностью 100% Временный файл удалён.
05 -===- C:\1972 - Bitter Sweet [RCA]\05 Whirl-Wind.flac Извлечение успешно выполнено Заключение: этот трек - CDDA с вероятностью 100% Временный файл удалён.
06 -===- C:\1972 - Bitter Sweet [RCA]\06 Fly Baby Fly.flac Извлечение успешно выполнено Заключение: этот трек - CDDA с вероятностью 100% Временный файл удалён.
07 -===- C:\1972 - Bitter Sweet [RCA]\07 I Can't See Me Without You.flac Извлечение успешно выполнено Заключение: этот трек - CDDA с вероятностью 100% Временный файл удалён.
08 -===- C:\1972 - Bitter Sweet [RCA]\08 Where Do Broken Hearted Lovers Go.flac Извлечение успешно выполнено Заключение: этот трек - CDDA с вероятностью 100% Временный файл удалён.
09 -===- C:\1972 - Bitter Sweet [RCA]\09 Who Can I Turn To (When Nobody Needs Me).flac Извлечение успешно выполнено Заключение: этот трек - CDDA с вероятностью 100% Временный файл удалён.
10 -===- C:\1972 - Bitter Sweet [RCA]\10 No Tears (In the End).flac Извлечение успешно выполнено Заключение: этот трек - CDDA с вероятностью 100% Временный файл удалён.
Завершено: среда, 10. 02. 2016. - 21:38.09 (Время операции: 0:02.42)

1973 - Afrodisiac (00:39:16)

01 Superwoman
02 Where Were You When I Needed You
03 I Am Yours
04 Work To Do
05 Girl Blue
06 You Can Call Me Rover
07 Something 'Bout Love
08 Love Of My Life
09 Something Lovely
10 Goodbye My Love

Лог создания рипа

Exact Audio Copy V1.0 beta 2 from 29. April 2011
EAC extraction logfile from 1. May 2012, 13:05
The Main Ingredient / Afrodesiac
Used drive : HP DVD Writer 1270d Adapter: 5 ID: 0
Read mode : SecureUtilize accurate stream : YesDefeat audio cache : YesMake use of C2 pointers : No
Read offset correction : 6Overread into Lead-In and Lead-Out : NoFill up missing offset samples with silence : YesDelete leading and trailing silent blocks : NoNull samples used in CRC calculations : YesUsed interface : Installed external ASPI interfaceGap handling : Appended to previous track
Used output format : User Defined EncoderSelected bitrate : 1024 kBit/sQuality : HighAdd ID3 tag : NoCommand line compressor : C:\Program Files\Exact Audio Copy\Flac\flac.exeAdditional command line options : -8 -V -T "ARTIST=%artist%" -T "TITLE=%title%" -T "ALBUM=%albumtitle%" -T "DATE=%year%" -T "TRACKNUMBER=%tracknr%" -T "GENRE=%genre%" -T "PERFORMER=%albuminterpret%" -T "COMPOSER=%composer%" %haslyrics%--tag-from-file=LYRICS
TOC of the extracted CD
Track | Start | Length | Start sector | End sector --------------------------------------------------------- 1 | 0:00.00 | 3:16.24 | 0 | 14723 2 | 3:16.24 | 4:14.49 | 14724 | 33822 3 | 7:30.73 | 4:14.13 | 33823 | 52885 4 | 11:45.11 | 3:18.10 | 52886 | 67745 5 | 15:03.21 | 4:25.65 | 67746 | 87685 6 | 19:29.11 | 3:32.39 | 87686 | 103624 7 | 23:01.50 | 4:29.74 | 103625 | 123873 8 | 27:31.49 | 3:34.43 | 123874 | 139966 9 | 31:06.17 | 3:16.61 | 139967 | 154727 10 | 34:23.03 | 4:53.22 | 154728 | 176724
Track 1
Filename F:\Music Place\FLAC & WAV\THE MAIN INGREDIENT\The Main Ingredient - Afrodisiac (1973)\01. The Main Ingredient - Superwoman.wav
Pre-gap length 0:00:02.00
Peak level 100.0 % Extraction speed 3.2 X Track quality 100.0 % Test CRC 93FAC6D9 Copy CRC 93FAC6D9 Accurately ripped (confidence 1) [FB66AFC9] (AR v1) Copy OK
Track 2
Filename F:\Music Place\FLAC & WAV\THE MAIN INGREDIENT\The Main Ingredient - Afrodisiac (1973)\02. The Main Ingredient - Where Were You When I Needed You.wav
Pre-gap length 0:00:01.60
Peak level 99.9 % Extraction speed 3.0 X Track quality 99.9 % Test CRC 168626DA Copy CRC 168626DA Accurately ripped (confidence 1) [F28E390E] (AR v1) Copy OK
Track 3
Filename F:\Music Place\FLAC & WAV\THE MAIN INGREDIENT\The Main Ingredient - Afrodisiac (1973)\03. The Main Ingredient - I Am Yours.wav
Pre-gap length 0:00:01.60
Peak level 100.0 % Extraction speed 4.1 X Track quality 100.0 % Test CRC 842079E9 Copy CRC 842079E9 Accurately ripped (confidence 1) [45F8A371] (AR v1) Copy OK
Track 4
Filename F:\Music Place\FLAC & WAV\THE MAIN INGREDIENT\The Main Ingredient - Afrodisiac (1973)\04. The Main Ingredient - Work To Do.wav
Pre-gap length 0:00:01.60
Peak level 100.0 % Extraction speed 4.2 X Track quality 100.0 % Test CRC 0B739820 Copy CRC 0B739820 Accurately ripped (confidence 1) [0719AD43] (AR v1) Copy OK
Track 5
Filename F:\Music Place\FLAC & WAV\THE MAIN INGREDIENT\The Main Ingredient - Afrodisiac (1973)\05. The Main Ingredient - Girl Blue.wav
Pre-gap length 0:00:01.60
Peak level 80.2 % Extraction speed 4.7 X Track quality 100.0 % Test CRC B58919EF Copy CRC B58919EF Accurately ripped (confidence 1) [AF52A585] (AR v1) Copy OK
Track 6
Filename F:\Music Place\FLAC & WAV\THE MAIN INGREDIENT\The Main Ingredient - Afrodisiac (1973)\06. The Main Ingredient - You Can Call Me Rover.wav
Pre-gap length 0:00:01.60
Peak level 100.0 % Extraction speed 4.8 X Track quality 100.0 % Test CRC D9F65AAC Copy CRC D9F65AAC Accurately ripped (confidence 1) [A9BDD4E4] (AR v1) Copy OK
Track 7
Filename F:\Music Place\FLAC & WAV\THE MAIN INGREDIENT\The Main Ingredient - Afrodisiac (1973)\07. The Main Ingredient - Something 'Bout Love.wav
Pre-gap length 0:00:01.60
Peak level 100.0 % Extraction speed 5.2 X Track quality 100.0 % Test CRC B4C703DD Copy CRC B4C703DD Accurately ripped (confidence 1) [2BA0D333] (AR v1) Copy OK
Track 8
Filename F:\Music Place\FLAC & WAV\THE MAIN INGREDIENT\The Main Ingredient - Afrodisiac (1973)\08. The Main Ingredient - Love Of My Life.wav
Pre-gap length 0:00:01.60
Peak level 96.1 % Extraction speed 5.3 X Track quality 100.0 % Test CRC D7345F40 Copy CRC D7345F40 Accurately ripped (confidence 1) [FD4DE5C6] (AR v1) Copy OK
Track 9
Filename F:\Music Place\FLAC & WAV\THE MAIN INGREDIENT\The Main Ingredient - Afrodisiac (1973)\09. The Main Ingredient - Something Lovely.wav
Pre-gap length 0:00:01.60
Peak level 100.0 % Extraction speed 5.4 X Track quality 100.0 % Test CRC 55252778 Copy CRC 55252778 Accurately ripped (confidence 1) [3817EC7F] (AR v1) Copy OK
Track 10
Filename F:\Music Place\FLAC & WAV\THE MAIN INGREDIENT\The Main Ingredient - Afrodisiac (1973)\10. The Main Ingredient - Goodbye My Love.wav
Pre-gap length 0:00:01.60
Peak level 77.3 % Extraction speed 5.9 X Track quality 100.0 % Test CRC 275B826E Copy CRC 275B826E Accurately ripped (confidence 1) [B2ABCE85] (AR v1) Copy OK
All tracks accurately ripped
No errors occurred
End of status report
---- CUETools DB Plugin V2.1.2
[CTDB TOCID: DGirRhnjpSLseZFbgNh8g2aCGh4-] disk not present in database, Submit result: DGirRhnjpSLseZFbgNh8g2aCGh4- has been uploaded
==== Log checksum 3C9D994C0755EAEB2C3C5B1EBC82CD01C11765F425FB06C75B48103F15D86471 ====

Содержание индексной карты (.CUE)

REM GENRE SoulREM DATE 1973REM DISCID 8709340AREM COMMENT "ExactAudioCopy v1.0b2"FILE "01 Superwoman.wav" WAVE TRACK 01 AUDIO FLAGS DCP INDEX 01 00:00:00 TRACK 02 AUDIO FLAGS DCP INDEX 00 03:14:54FILE "02 Where Were You When I Needed You.wav" WAVE INDEX 01 00:00:00 TRACK 03 AUDIO FLAGS DCP INDEX 00 04:13:04FILE "03 I Am Yours.wav" WAVE INDEX 01 00:00:00 TRACK 04 AUDIO FLAGS DCP INDEX 00 04:12:43FILE "04 Work To Do.wav" WAVE INDEX 01 00:00:00 TRACK 05 AUDIO FLAGS DCP INDEX 00 03:16:40FILE "05 Girl Blue.wav" WAVE INDEX 01 00:00:00 TRACK 06 AUDIO FLAGS DCP INDEX 00 04:24:20FILE "06 You Can Call Me Rover.wav" WAVE INDEX 01 00:00:00 TRACK 07 AUDIO FLAGS DCP INDEX 00 03:30:69FILE "07 Something 'Bout Love.wav" WAVE INDEX 01 00:00:00 TRACK 08 AUDIO FLAGS DCP INDEX 00 04:28:29FILE "08 Love Of My Life.wav" WAVE INDEX 01 00:00:00 TRACK 09 AUDIO FLAGS DCP INDEX 00 03:32:73FILE "09 Something Lovely.wav" WAVE INDEX 01 00:00:00 TRACK 10 AUDIO FLAGS DCP INDEX 00 03:15:16FILE "10 Goodbye My Love.wav" WAVE INDEX 01 00:00:00

1974 - Euphrates River (00:38:09)

01 Euphrates
02 Have You Ever Tried It
03 Summer Breeze
04 California My Way
05 Happiness Is Just Around The Bend
06 Looks Like Rain
07 Don't You Worry 'Bout A Thing
08 Just Don't Want To Be Lonely
09 Let Me Prove My Love To You

Лог создания рипа

Exact Audio Copy V0.99 prebeta 5 from 4. May 2009
EAC extraction logfile from 20. March 2010, 14:06
The Main Ingredient / Euphrates River
Used drive : HP DVD Writer 1270d Adapter: 5 ID: 0
Read mode : SecureUtilize accurate stream : YesDefeat audio cache : YesMake use of C2 pointers : No
Read offset correction : 6Overread into Lead-In and Lead-Out : NoFill up missing offset samples with silence : YesDelete leading and trailing silent blocks : NoNull samples used in CRC calculations : YesUsed interface : Installed external ASPI interfaceGap handling : Appended to previous track
Used output format : User Defined EncoderSelected bitrate : 128 kBit/sQuality : HighAdd ID3 tag : NoCommand line compressor : C:\Program Files\Exact Audio Copy\Flac\flac.exeAdditional command line options : -8 -A tukey(0.25) -A gauss(0.1875) -b 4096 -V -T "artist=%a" -T "title=%t" -T "album=%g" -T "date=%y" -T "tracknumber=%n" -T "genre=%m" %s
TOC of the extracted CD
Track | Start | Length | Start sector | End sector --------------------------------------------------------- 1 | 0:00.00 | 4:47.65 | 0 | 21589 2 | 4:47.65 | 3:10.30 | 21590 | 35869 3 | 7:58.20 | 4:19.67 | 35870 | 55361 4 | 12:18.12 | 4:41.00 | 55362 | 76436 5 | 16:59.12 | 6:22.73 | 76437 | 105159 6 | 23:22.10 | 3:21.27 | 105160 | 120261 7 | 26:43.37 | 4:07.38 | 120262 | 138824 8 | 30:51.00 | 3:36.67 | 138825 | 155091 9 | 34:27.67 | 3:41.43 | 155092 | 171709
Track 1
Filename F:\Music Place\FLAC & WAV\The Main Ingredient - Euphrates River (1974)\01. The Main Ingredient - Euphrates.wav
Pre-gap length 0:00:02.00
Peak level 98.8 % Track quality 99.9 % Test CRC 9321698A Copy CRC 9321698A Track not present in AccurateRip database Copy OK
Track 2
Filename F:\Music Place\FLAC & WAV\The Main Ingredient - Euphrates River (1974)\02. The Main Ingredient - Have You Ever Tried It.wav
Pre-gap length 0:00:03.57
Peak level 98.8 % Track quality 100.0 % Test CRC A9C891D6 Copy CRC A9C891D6 Track not present in AccurateRip database Copy OK
Track 3
Filename F:\Music Place\FLAC & WAV\The Main Ingredient - Euphrates River (1974)\03. The Main Ingredient - Summer Breeze.wav
Pre-gap length 0:00:03.57
Peak level 98.8 % Track quality 100.0 % Test CRC C969698E Copy CRC C969698E Track not present in AccurateRip database Copy OK
Track 4
Filename F:\Music Place\FLAC & WAV\The Main Ingredient - Euphrates River (1974)\04. The Main Ingredient - California My Way.wav
Pre-gap length 0:00:03.56
Peak level 98.8 % Track quality 100.0 % Test CRC 6DD0EE82 Copy CRC 6DD0EE82 Track not present in AccurateRip database Copy OK
Track 5
Filename F:\Music Place\FLAC & WAV\The Main Ingredient - Euphrates River (1974)\05. The Main Ingredient - Happiness Is Just Around The Bend.wav
Pre-gap length 0:00:03.56
Peak level 98.8 % Track quality 100.0 % Test CRC EE7AF2CC Copy CRC EE7AF2CC Track not present in AccurateRip database Copy OK
Track 6
Filename F:\Music Place\FLAC & WAV\The Main Ingredient - Euphrates River (1974)\06. The Main Ingredient - Looks Like Rain.wav
Pre-gap length 0:00:03.06
Peak level 98.8 % Track quality 100.0 % Test CRC 383A9D98 Copy CRC 383A9D98 Track not present in AccurateRip database Copy OK
Track 7
Filename F:\Music Place\FLAC & WAV\The Main Ingredient - Euphrates River (1974)\07. The Main Ingredient - Don't You Worry 'Bout A Thing.wav
Pre-gap length 0:00:03.56
Peak level 98.8 % Track quality 100.0 % Test CRC 6278F00D Copy CRC 6278F00D Track not present in AccurateRip database Copy OK
Track 8
Filename F:\Music Place\FLAC & WAV\The Main Ingredient - Euphrates River (1974)\08. The Main Ingredient - Just Don't Want To Be Lonely.wav
Peak level 98.8 % Track quality 100.0 % Test CRC E1706E1D Copy CRC E1706E1D Track not present in AccurateRip database Copy OK
Track 9
Filename F:\Music Place\FLAC & WAV\The Main Ingredient - Euphrates River (1974)\09. The Main Ingredient - Let Me Prove My Love To You.wav
Pre-gap length 0:00:03.56
Peak level 99.9 % Track quality 100.0 % Test CRC 60A6A24A Copy CRC 60A6A24A Track not present in AccurateRip database Copy OK
None of the tracks are present in the AccurateRip database
No errors occurred
End of status report

Содержание индексной карты (.CUE)

REM GENRE R&BREM DATE 1974REM DISCID 6708F109REM COMMENT "ExactAudioCopy v0.99pb5"PERFORMER "The Main Ingredient"TITLE "Euphrates River"FILE "01 Euphrates.wav" WAVE TRACK 01 AUDIO TITLE "Euphrates" PERFORMER "The Main Ingredient" INDEX 01 00:00:00 TRACK 02 AUDIO TITLE "Have You Ever Tried It" PERFORMER "The Main Ingredient" INDEX 00 04:44:22FILE "02 Have You Ever Tried It.wav" WAVE INDEX 01 00:00:00 TRACK 03 AUDIO TITLE "Summer Breeze" PERFORMER "The Main Ingredient" INDEX 00 03:06:62FILE "03 Summer Breeze.wav" WAVE INDEX 01 00:00:00 TRACK 04 AUDIO TITLE "California My Way" PERFORMER "The Main Ingredient" INDEX 00 04:16:25FILE "04 California My Way.wav" WAVE INDEX 01 00:00:00 TRACK 05 AUDIO TITLE "Happiness Is Just Around The Bend" PERFORMER "The Main Ingredient" INDEX 00 04:37:33FILE "05 Happiness Is Just Around The Bend.wav" WAVE INDEX 01 00:00:00 TRACK 06 AUDIO TITLE "Looks Like Rain" PERFORMER "The Main Ingredient" INDEX 00 06:19:68FILE "06 Looks Like Rain.wav" WAVE INDEX 01 00:00:00 TRACK 07 AUDIO TITLE "Don't You Worry 'Bout A Thing" PERFORMER "The Main Ingredient" INDEX 00 03:17:60FILE "07 Don't You Worry 'Bout A Thing.wav" WAVE INDEX 01 00:00:00FILE "08 Just Don't Want To Be Lonely.wav" WAVE TRACK 08 AUDIO TITLE "Just Don't Want To Be Lonely" PERFORMER "The Main Ingredient" INDEX 01 00:00:00 TRACK 09 AUDIO TITLE "Let Me Prove My Love To You" PERFORMER "The Main Ingredient" INDEX 00 03:33:25FILE "09 Let Me Prove My Love To You.wav" WAVE INDEX 01 00:00:00

1975 - Rolling Down A Mountainside (00:35:51)

01 Rolling Down A Mountainside
02 Of This I'm Sure
03 The Good Old Days
04 I Want To Make You Glad
05 Thanks For The Laughs
06 You & Me - Me & You
07 Family Man
08 A Broken Heart Don't Really Break
09 That Ain't My Style

Лог проверки качества

AUDIOCHECKER v2.0 beta (build 457) - by Dester - opdester@freemail.hu~~~~~~~~~~~~~~~~~~~~~~~~~~~~~~~~~~
Начато: понедельник, 19. 06. 2017. - 21:56.00Найдено файлов: 9
1 -===- C:\1975 - Rolling Down A Mountainside [RCA]\01 Rolling Down A Mountainside.flac Извлечение успешно выполнено Заключение: этот трек - CDDA с вероятностью 100% Временный файл удалён.
2 -===- C:\1975 - Rolling Down A Mountainside [RCA]\02 Of This I'm Sure.flac Извлечение успешно выполнено Заключение: этот трек - CDDA с вероятностью 100% Временный файл удалён.
3 -===- C:\1975 - Rolling Down A Mountainside [RCA]\03 The Good Old Days.flac Извлечение успешно выполнено Заключение: этот трек - CDDA с вероятностью 100% Временный файл удалён.
4 -===- C:\1975 - Rolling Down A Mountainside [RCA]\04 I Want To Make You Glad.flac Извлечение успешно выполнено Заключение: этот трек - CDDA с вероятностью 100% Временный файл удалён.
5 -===- C:\1975 - Rolling Down A Mountainside [RCA]\05 Thanks For The Laughs.flac Извлечение успешно выполнено Заключение: этот трек - CDDA с вероятностью 100% Временный файл удалён.
6 -===- C:\1975 - Rolling Down A Mountainside [RCA]\06 You & Me-Me & You.flac Извлечение успешно выполнено Заключение: этот трек - CDDA с вероятностью 100% Временный файл удалён.
7 -===- C:\1975 - Rolling Down A Mountainside [RCA]\07 Family Man.flac Извлечение успешно выполнено Заключение: этот трек - CDDA с вероятностью 100% Временный файл удалён.
8 -===- C:\1975 - Rolling Down A Mountainside [RCA]\08 A Broken Heart Don't Really Break.flac Извлечение успешно выполнено Заключение: этот трек - CDDA с вероятностью 100% Временный файл удалён.
9 -===- C:\1975 - Rolling Down A Mountainside [RCA]\09 That Ain't My Style.flac Извлечение успешно выполнено Заключение: этот трек - CDDA с вероятностью 99% Временный файл удалён.
Завершено: понедельник, 19. 06. 2017. - 21:58.45 (Время операции: 0:02.45)

1977 - Music Maximus (00:37:12)

01 The Laughing Song
02 I Gotta Know You
03 Instant Love
04 Car Of Love
05 Can't Get Ready (for losing you)
06 Comes The Night
07 Who You Really Are
08 Half A Chance
09 Many Women In My Life

Лог проверки качества

AUDIOCHECKER v2.0 beta (build 457) - by Dester - opdester@freemail.hu~~~~~~~~~~~~~~~~~~~~~~~~~~~~~~~~~~
Начато: суббота, 13. 02. 2016. - 12:51.10Найдено файлов: 9
1 -===- C:\1977 - Music Maximus [RCA]\01 The Laughing Song.flac Извлечение успешно выполнено Заключение: этот трек - CDDA с вероятностью 100% Временный файл удалён.
2 -===- C:\1977 - Music Maximus [RCA]\02 I Gotta Know You.flac Извлечение успешно выполнено Заключение: этот трек - CDDA с вероятностью 99% Временный файл удалён.
3 -===- C:\1977 - Music Maximus [RCA]\03 Instant Love.flac Извлечение успешно выполнено Заключение: этот трек - CDDA с вероятностью 100% Временный файл удалён.
4 -===- C:\1977 - Music Maximus [RCA]\04 Car Of Love.flac Извлечение успешно выполнено Заключение: этот трек - CDDA с вероятностью 100% Временный файл удалён.
5 -===- C:\1977 - Music Maximus [RCA]\05 Can't Get Ready (for losing you).flac Извлечение успешно выполнено Заключение: этот трек - CDDA с вероятностью 100% Временный файл удалён.
6 -===- C:\1977 - Music Maximus [RCA]\06 Comes The Night.flac Извлечение успешно выполнено Заключение: этот трек - CDDA с вероятностью 100% Временный файл удалён.
7 -===- C:\1977 - Music Maximus [RCA]\07 Who You Really Are.flac Извлечение успешно выполнено Заключение: этот трек - CDDA с вероятностью 100% Временный файл удалён.
8 -===- C:\1977 - Music Maximus [RCA]\08 Half A Chance.flac Извлечение успешно выполнено Заключение: этот трек - CDDA с вероятностью 100% Временный файл удалён.
9 -===- C:\1977 - Music Maximus [RCA]\09 Many Women In My Life.flac Извлечение успешно выполнено Заключение: этот трек - CDDA с вероятностью 100% Временный файл удалён.
Завершено: суббота, 13. 02. 2016. - 12:54.01 (Время операции: 0:02.50)

2008 - Shame On The World / I Only Have Eyes For You (01:14:11)

1981 - Only Have Eyes For You
01 Evening Of Love
02 I Only Have Eyes For You
03 Party People
04 Rediscover Me
05 Save Me
06 Just Once
07 Only
08 All Because Of You
09 Rediscover Me (Reprise)
1975 - Shame On The World
10 Shame On The World
11 Put Your Love In My Hands
12 Let Me Prove My Love To You
13 Old Greyhound
14 Jamaica (Let Me Go Home)
15 Over You
16 Lillian
17 If I'm Gonna Be Sad
18 Spoiled (Bonus Track 1980)

Лог создания рипа

Exact Audio Copy V0.99 prebeta 5 from 4. May 2009
EAC extraction logfile from 8. June 2010, 16:50
The Main Ingredient / Shame On The World + I Only Have Eyes For You
Used drive : TSSTcorpCDDVDW SH-S223F Adapter: 1 ID: 1
Read mode : SecureUtilize accurate stream : YesDefeat audio cache : YesMake use of C2 pointers : No
Read offset correction : 6Overread into Lead-In and Lead-Out : NoFill up missing offset samples with silence : YesDelete leading and trailing silent blocks : NoNull samples used in CRC calculations : YesUsed interface : Native Win32 interface for Win NT & 2000Gap handling : Appended to previous track
Used output format : User Defined EncoderSelected bitrate : 320 kBit/sQuality : HighAdd ID3 tag : NoCommand line compressor : C:\Programme\Exact Audio Copy\Flac\flac.exeAdditional command line options : -V -8 -T "artist=%a" -T "title=%t" -T "album=%g" -T "date=%y" -T "tracknumber=%n" -T "genre=%m" %s
TOC of the extracted CD
Track | Start | Length | Start sector | End sector --------------------------------------------------------- 1 | 0:00.00 | 7:23.00 | 0 | 33224 2 | 7:23.00 | 3:50.41 | 33225 | 50515 3 | 11:13.41 | 5:15.45 | 50516 | 74185 4 | 16:29.11 | 4:21.48 | 74186 | 93808 5 | 20:50.59 | 4:20.69 | 93809 | 113377 6 | 25:11.53 | 5:12.47 | 113378 | 136824 7 | 30:24.25 | 4:13.74 | 136825 | 155873 8 | 34:38.24 | 4:05.31 | 155874 | 174279 9 | 38:43.55 | 1:04.53 | 174280 | 179132 10 | 39:48.33 | 4:13.33 | 179133 | 198140 11 | 44:01.66 | 2:52.19 | 198141 | 211059 12 | 46:54.10 | 3:41.07 | 211060 | 227641 13 | 50:35.17 | 4:05.48 | 227642 | 246064 14 | 54:40.65 | 3:18.61 | 246065 | 260975 15 | 57:59.51 | 4:20.40 | 260976 | 280515 16 | 62:20.16 | 3:55.21 | 280516 | 298161 17 | 66:15.37 | 4:02.28 | 298162 | 316339 18 | 70:17.65 | 3:52.60 | 316340 | 333799
Track 1
Filename H:\Eac Ripps\01. Evening Of Love.wav
Pre-gap length 0:00:02.00
Peak level 89.1 % Track quality 100.0 % Test CRC 3E7A3A88 Copy CRC 3E7A3A88 Track not present in AccurateRip database Copy OK
Track 2
Filename H:\Eac Ripps\02. I Only Have Eyes For You.wav
Pre-gap length 0:00:01.94
Peak level 100.0 % Track quality 100.0 % Test CRC 928564A7 Copy CRC 928564A7 Track not present in AccurateRip database Copy OK
Track 3
Filename H:\Eac Ripps\03. Party People.wav
Pre-gap length 0:00:01.94
Peak level 94.4 % Track quality 100.0 % Test CRC 7B594D5E Copy CRC 7B594D5E Track not present in AccurateRip database Copy OK
Track 4
Filename H:\Eac Ripps\04. Rediscover Me.wav
Pre-gap length 0:00:01.94
Peak level 100.0 % Track quality 99.9 % Test CRC 9D7C832A Copy CRC 9D7C832A Track not present in AccurateRip database Copy OK
Track 5
Filename H:\Eac Ripps\05. Save Me.wav
Pre-gap length 0:00:01.94
Peak level 89.1 % Track quality 100.0 % Test CRC EDC74ADA Copy CRC EDC74ADA Track not present in AccurateRip database Copy OK
Track 6
Filename H:\Eac Ripps\06. Just Once.wav
Pre-gap length 0:00:01.94
Peak level 99.8 % Track quality 100.0 % Test CRC 6874862B Copy CRC 6874862B Track not present in AccurateRip database Copy OK
Track 7
Filename H:\Eac Ripps\07. Only.wav
Pre-gap length 0:00:01.94
Peak level 89.1 % Track quality 100.0 % Test CRC 97194ACB Copy CRC 97194ACB Track not present in AccurateRip database Copy OK
Track 8
Filename H:\Eac Ripps\08. All Because Of You.wav
Pre-gap length 0:00:01.94
Peak level 100.0 % Track quality 100.0 % Test CRC 5CA4D0DC Copy CRC 5CA4D0DC Track not present in AccurateRip database Copy OK
Track 9
Filename H:\Eac Ripps\09. Rediscover Me (Reprise).wav
Peak level 70.7 % Track quality 100.0 % Test CRC 22F9BD9C Copy CRC 22F9BD9C Track not present in AccurateRip database Copy OK
Track 10
Filename H:\Eac Ripps\10. Shame On The World.wav
Pre-gap length 0:00:02.94
Peak level 100.0 % Track quality 100.0 % Test CRC 204DE5FE Copy CRC 204DE5FE Track not present in AccurateRip database Copy OK
Track 11
Filename H:\Eac Ripps\11. Put Your Love In My Hands.wav
Pre-gap length 0:00:01.94
Peak level 100.0 % Track quality 100.0 % Test CRC 63B74E64 Copy CRC 63B74E64 Track not present in AccurateRip database Copy OK
Track 12
Filename H:\Eac Ripps\12. Let Me Prove My Love To You.wav
Pre-gap length 0:00:01.94
Peak level 100.0 % Track quality 100.0 % Test CRC 1AE997A2 Copy CRC 1AE997A2 Track not present in AccurateRip database Copy OK
Track 13
Filename H:\Eac Ripps\13. Old Greyhound.wav
Pre-gap length 0:00:01.94
Peak level 100.0 % Track quality 100.0 % Test CRC C3CC82D8 Copy CRC C3CC82D8 Track not present in AccurateRip database Copy OK
Track 14
Filename H:\Eac Ripps\14. Jamaica (Let Me Go Home).wav
Pre-gap length 0:00:01.94
Peak level 100.0 % Track quality 100.0 % Test CRC E7465F8E Copy CRC E7465F8E Track not present in AccurateRip database Copy OK
Track 15
Filename H:\Eac Ripps\15. Over You.wav
Pre-gap length 0:00:01.94
Peak level 100.0 % Track quality 100.0 % Test CRC 6BA2F1F6 Copy CRC 6BA2F1F6 Track not present in AccurateRip database Copy OK
Track 16
Filename H:\Eac Ripps\16. Lillian.wav
Pre-gap length 0:00:01.94
Peak level 100.0 % Track quality 100.0 % Test CRC A276F07F Copy CRC A276F07F Track not present in AccurateRip database Copy OK
Track 17
Filename H:\Eac Ripps\17. If I'm Gonna Be Sad.wav
Pre-gap length 0:00:01.94
Peak level 100.0 % Track quality 100.0 % Test CRC 3BECC00E Copy CRC 3BECC00E Track not present in AccurateRip database Copy OK
Track 18
Filename H:\Eac Ripps\18. Spoiled.wav
Pre-gap length 0:00:01.94
Peak level 100.0 % Track quality 99.9 % Test CRC C03C559C Copy CRC C03C559C Track not present in AccurateRip database Copy OK
None of the tracks are present in the AccurateRip database
No errors occurred
End of status report

Содержание индексной карты (.CUE)

REM GENRE SoulREM DATE 2008REM DISCID 04116212REM COMMENT "ExactAudioCopy v0.99pb5"PERFORMER "The Main Ingredient"TITLE "Shame On The World + I Only Have Eyes For You"FILE "01 Evening Of Love.wav" WAVE TRACK 01 AUDIO TITLE "Evening Of Love" PERFORMER "The Main Ingredient" INDEX 01 00:00:00 TRACK 02 AUDIO TITLE "I Only Have Eyes For You" PERFORMER "The Main Ingredient" INDEX 00 07:21:04FILE "02 I Only Have Eyes For You.wav" WAVE INDEX 01 00:00:00 TRACK 03 AUDIO TITLE "Party People" PERFORMER "The Main Ingredient" INDEX 00 03:48:45FILE "03 Party People.wav" WAVE INDEX 01 00:00:00 TRACK 04 AUDIO TITLE "Rediscover Me" PERFORMER "The Main Ingredient" INDEX 00 05:13:49FILE "04 Rediscover Me.wav" WAVE INDEX 01 00:00:00 TRACK 05 AUDIO TITLE "Save Me" PERFORMER "The Main Ingredient" INDEX 00 04:19:52FILE "05 Save Me.wav" WAVE INDEX 01 00:00:00 TRACK 06 AUDIO TITLE "Just Once" PERFORMER "The Main Ingredient" INDEX 00 04:18:73FILE "06 Just Once.wav" WAVE INDEX 01 00:00:00 TRACK 07 AUDIO TITLE "Only" PERFORMER "The Main Ingredient" INDEX 00 05:10:51FILE "07 Only.wav" WAVE INDEX 01 00:00:00 TRACK 08 AUDIO TITLE "All Because Of You" PERFORMER "The Main Ingredient" INDEX 00 04:12:03FILE "08 All Because Of You.wav" WAVE INDEX 01 00:00:00FILE "09 Rediscover Me (Reprise).wav" WAVE TRACK 09 AUDIO TITLE "Rediscover Me (Reprise)" PERFORMER "The Main Ingredient" INDEX 01 00:00:00 TRACK 10 AUDIO TITLE "Shame On The World" PERFORMER "The Main Ingredient" INDEX 00 01:01:57FILE "10 Shame On The World.wav" WAVE INDEX 01 00:00:00 TRACK 11 AUDIO TITLE "Put Your Love In My Hands" PERFORMER "The Main Ingredient" INDEX 00 04:11:37FILE "11 Put Your Love In My Hands.wav" WAVE INDEX 01 00:00:00 TRACK 12 AUDIO TITLE "Let Me Prove My Love To You" PERFORMER "The Main Ingredient" INDEX 00 02:50:23FILE "12 Let Me Prove My Love To You.wav" WAVE INDEX 01 00:00:00 TRACK 13 AUDIO TITLE "Old Greyhound" PERFORMER "The Main Ingredient" INDEX 00 03:39:11FILE "13 Old Greyhound.wav" WAVE INDEX 01 00:00:00 TRACK 14 AUDIO TITLE "Jamaica (Let Me Go Home)" PERFORMER "The Main Ingredient" INDEX 00 04:03:52FILE "14 Jamaica (Let Me Go Home).wav" WAVE INDEX 01 00:00:00 TRACK 15 AUDIO TITLE "Over You" PERFORMER "The Main Ingredient" INDEX 00 03:16:65FILE "15 Over You.wav" WAVE INDEX 01 00:00:00 TRACK 16 AUDIO TITLE "Lillian" PERFORMER "The Main Ingredient" INDEX 00 04:18:44FILE "16 Lillian.wav" WAVE INDEX 01 00:00:00 TRACK 17 AUDIO TITLE "If I'm Gonna Be Sad" PERFORMER "The Main Ingredient" INDEX 00 03:53:25FILE "17 If I'm Gonna Be Sad.wav" WAVE INDEX 01 00:00:00 TRACK 18 AUDIO TITLE "Spoiled" PERFORMER "The Main Ingredient" INDEX 00 04:00:32FILE "18 Spoiled.wav" WAVE INDEX 01 00:00:00

2018 - Brotherly Love (The RCA Anthology) (02:29:43)

CD1 - You've Been My Inspiration (01:17:46)

01 You’ve Been My Inspiration
02 Can’t Stand Your Love
03 I Was Born To Lose You
04 Brotherly Love
05 Life Won’t Be The Same (Without You)
06 I’m Better Off Without You
07 I’m So Proud
08 Make It With You
09 Spinning Around (I Must Be Falling In Love)
10 I’m Leaving This Time
11 Baby Don’t Change Your Mind
12 Movin’ On
13 Black Seeds Keep On Growing
14 Why Can’t We All Unite
15 Everybody Plays The Fool
16 You’ve Got To Take It (If You Want It)
17 Superwoman
18 Where Were You When I Needed You
19 Girl Blue
20 Goodbye My Love
21 You Can Call Me Rover
22 Have You Ever Tried It
23 Summer Breeze

Лог проверки качества

AUDIOCHECKER v2.0 beta (build 457) - by Dester - opdester@freemail.hu~~~~~~~~~~~~~~~~~~~~~~~~~~~~~~~~~~
Started at: среда, 03. 10. 2018. - 10:03.5923 files found
01 -===- C:\2018 - Brotherly Love The RCA Anthology [SoulMusic]\CD1\01 You’ve Been My Inspiration.flac Extracted successfully Conclusion: this track is CDDA with probability 100% Tempfile successfully deleted.
02 -===- C:\2018 - Brotherly Love The RCA Anthology [SoulMusic]\CD1\02 Can’t Stand Your Love.flac Extracted successfully Conclusion: this track is CDDA with probability 100% Tempfile successfully deleted.
03 -===- C:\2018 - Brotherly Love The RCA Anthology [SoulMusic]\CD1\03 I Was Born To Lose You.flac Extracted successfully Conclusion: this track is CDDA with probability 100% Tempfile successfully deleted.
04 -===- C:\2018 - Brotherly Love The RCA Anthology [SoulMusic]\CD1\04 Brotherly Love.flac Extracted successfully Conclusion: this track is CDDA with probability 100% Tempfile successfully deleted.
05 -===- C:\2018 - Brotherly Love The RCA Anthology [SoulMusic]\CD1\05 Life Won’t Be The Same (Without You).flac Extracted successfully Conclusion: this track is CDDA with probability 100% Tempfile successfully deleted.
06 -===- C:\2018 - Brotherly Love The RCA Anthology [SoulMusic]\CD1\06 I’m Better Off Without You.flac Extracted successfully Conclusion: this track is CDDA with probability 100% Tempfile successfully deleted.
07 -===- C:\2018 - Brotherly Love The RCA Anthology [SoulMusic]\CD1\07 I’m So Proud.flac Extracted successfully Conclusion: this track is CDDA with probability 100% Tempfile successfully deleted.
08 -===- C:\2018 - Brotherly Love The RCA Anthology [SoulMusic]\CD1\08 Make It With You.flac Extracted successfully Conclusion: this track is CDDA with probability 100% Tempfile successfully deleted.
09 -===- C:\2018 - Brotherly Love The RCA Anthology [SoulMusic]\CD1\09 Spinning Around (I Must Be Falling In Love).flac Extracted successfully Conclusion: this track is CDDA with probability 100% Tempfile successfully deleted.
10 -===- C:\2018 - Brotherly Love The RCA Anthology [SoulMusic]\CD1\10 I’m Leaving This Time.flac Extracted successfully Conclusion: this track is CDDA with probability 99% Tempfile successfully deleted.
11 -===- C:\2018 - Brotherly Love The RCA Anthology [SoulMusic]\CD1\11 Baby Don’t Change Your Mind.flac Extracted successfully Conclusion: this track is CDDA with probability 100% Tempfile successfully deleted.
12 -===- C:\2018 - Brotherly Love The RCA Anthology [SoulMusic]\CD1\12 Movin’ On.flac Extracted successfully Conclusion: this track is CDDA with probability 100% Tempfile successfully deleted.
13 -===- C:\2018 - Brotherly Love The RCA Anthology [SoulMusic]\CD1\13 Black Seeds Keep On Growing.flac Extracted successfully Conclusion: this track is CDDA with probability 100% Tempfile successfully deleted.
14 -===- C:\2018 - Brotherly Love The RCA Anthology [SoulMusic]\CD1\14 Why Can’t We All Unite.flac Extracted successfully Conclusion: this track is CDDA with probability 100% Tempfile successfully deleted.
15 -===- C:\2018 - Brotherly Love The RCA Anthology [SoulMusic]\CD1\15 Everybody Plays The Fool.flac Extracted successfully Conclusion: this track is CDDA with probability 100% Tempfile successfully deleted.
16 -===- C:\2018 - Brotherly Love The RCA Anthology [SoulMusic]\CD1\16 You’ve Got To Take It (If You Want It).flac Extracted successfully Conclusion: this track is CDDA with probability 100% Tempfile successfully deleted.
17 -===- C:\2018 - Brotherly Love The RCA Anthology [SoulMusic]\CD1\17 Superwoman.flac Extracted successfully Conclusion: this track is CDDA with probability 100% Tempfile successfully deleted.
18 -===- C:\2018 - Brotherly Love The RCA Anthology [SoulMusic]\CD1\18 Where Were You When I Needed You.flac Extracted successfully Conclusion: this track is CDDA with probability 100% Tempfile successfully deleted.
19 -===- C:\2018 - Brotherly Love The RCA Anthology [SoulMusic]\CD1\19 Girl Blue.flac Extracted successfully Conclusion: this track is CDDA with probability 100% Tempfile successfully deleted.
20 -===- C:\2018 - Brotherly Love The RCA Anthology [SoulMusic]\CD1\20 Goodbye My Love.flac Extracted successfully Conclusion: this track is CDDA with probability 100% Tempfile successfully deleted.
21 -===- C:\2018 - Brotherly Love The RCA Anthology [SoulMusic]\CD1\21 You Can Call Me Rover.flac Extracted successfully Conclusion: this track is CDDA with probability 100% Tempfile successfully deleted.
22 -===- C:\2018 - Brotherly Love The RCA Anthology [SoulMusic]\CD1\22 Have You Ever Tried It.flac Extracted successfully Conclusion: this track is CDDA with probability 100% Tempfile successfully deleted.
23 -===- C:\2018 - Brotherly Love The RCA Anthology [SoulMusic]\CD1\23 Summer Breeze.flac Extracted successfully Conclusion: this track is CDDA with probability 100% Tempfile successfully deleted.
Finished at: среда, 03. 10. 2018. - 10:08.08 (operation time: 0:04.09)

CD2 - Happiness Is Just Around The Bend (01:11:57)

01 California My Way
02 Happiness Is Just Around The Bend
03 Looks Like Rain
04 Don’t You Worry ’bout A Thing
05 Just Don’t Want To Be Lonely
06 Rolling Down A Mountainside
07 The Good Old Days
08 I Want To Make You Glad
09 You And Me - Me And You
10 Family Man
11 Shame On The World
12 Lillian
13 Let Me Prove My Love To You
14 Instant Love
15 Think Positive (12” Single Version)
16 Spoiled
17 What Can A Miracle Do
18 Party People (12" Single Version)

Лог проверки качества

AUDIOCHECKER v2.0 beta (build 457) - by Dester - opdester@freemail.hu~~~~~~~~~~~~~~~~~~~~~~~~~~~~~~~~~~
Started at: среда, 03. 10. 2018. - 10:08.5018 files found
01 -===- C:\2018 - Brotherly Love The RCA Anthology [SoulMusic]\CD2\01 California My Way.flac Extracted successfully Conclusion: this track is CDDA with probability 100% Tempfile successfully deleted.
02 -===- C:\2018 - Brotherly Love The RCA Anthology [SoulMusic]\CD2\02 Happiness Is Just Around The Bend.flac Extracted successfully Conclusion: this track is CDDA with probability 100% Tempfile successfully deleted.
03 -===- C:\2018 - Brotherly Love The RCA Anthology [SoulMusic]\CD2\03 Looks Like Rain.flac Extracted successfully Conclusion: this track is CDDA with probability 100% Tempfile successfully deleted.
04 -===- C:\2018 - Brotherly Love The RCA Anthology [SoulMusic]\CD2\04 Don’t You Worry ’bout A Thing.flac Extracted successfully Conclusion: this track is CDDA with probability 100% Tempfile successfully deleted.
05 -===- C:\2018 - Brotherly Love The RCA Anthology [SoulMusic]\CD2\05 Just Don’t Want To Be Lonely.flac Extracted successfully Conclusion: this track is CDDA with probability 100% Tempfile successfully deleted.
06 -===- C:\2018 - Brotherly Love The RCA Anthology [SoulMusic]\CD2\06 Rolling Down A Mountainside.flac Extracted successfully Conclusion: this track is CDDA with probability 100% Tempfile successfully deleted.
07 -===- C:\2018 - Brotherly Love The RCA Anthology [SoulMusic]\CD2\07 The Good Old Days.flac Extracted successfully Conclusion: this track is CDDA with probability 100% Tempfile successfully deleted.
08 -===- C:\2018 - Brotherly Love The RCA Anthology [SoulMusic]\CD2\08 I Want To Make You Glad.flac Extracted successfully Conclusion: this track is CDDA with probability 100% Tempfile successfully deleted.
09 -===- C:\2018 - Brotherly Love The RCA Anthology [SoulMusic]\CD2\09 You And Me - Me And You.flac Extracted successfully Conclusion: this track is CDDA with probability 100% Tempfile successfully deleted.
10 -===- C:\2018 - Brotherly Love The RCA Anthology [SoulMusic]\CD2\10 Family Man.flac Extracted successfully Conclusion: this track is CDDA with probability 100% Tempfile successfully deleted.
11 -===- C:\2018 - Brotherly Love The RCA Anthology [SoulMusic]\CD2\11 Shame On The World.flac Extracted successfully Conclusion: this track is CDDA with probability 100% Tempfile successfully deleted.
12 -===- C:\2018 - Brotherly Love The RCA Anthology [SoulMusic]\CD2\12 Lillian.flac Extracted successfully Conclusion: this track is CDDA with probability 100% Tempfile successfully deleted.
13 -===- C:\2018 - Brotherly Love The RCA Anthology [SoulMusic]\CD2\13 Let Me Prove My Love To You.flac Extracted successfully Conclusion: this track is CDDA with probability 100% Tempfile successfully deleted.
14 -===- C:\2018 - Brotherly Love The RCA Anthology [SoulMusic]\CD2\14 Instant Love.flac Extracted successfully Conclusion: this track is CDDA with probability 100% Tempfile successfully deleted.
15 -===- C:\2018 - Brotherly Love The RCA Anthology [SoulMusic]\CD2\15 Think Positive (12” Single Version).flac Extracted successfully Conclusion: this track is CDDA with probability 100% Tempfile successfully deleted.
16 -===- C:\2018 - Brotherly Love The RCA Anthology [SoulMusic]\CD2\16 Spoiled.flac Extracted successfully Conclusion: this track is CDDA with probability 100% Tempfile successfully deleted.
17 -===- C:\2018 - Brotherly Love The RCA Anthology [SoulMusic]\CD2\17 What Can A Miracle Do.flac Extracted successfully Conclusion: this track is CDDA with probability 100% Tempfile successfully deleted.
18 -===- C:\2018 - Brotherly Love The RCA Anthology [SoulMusic]\CD2\18 Party People (12” Single Version).flac Extracted successfully Conclusion: this track is CDDA with probability 99% Tempfile successfully deleted.
Finished at: среда, 03. 10. 2018. - 10:12.46 (operation time: 0:03.56)


[islamvillage.com]_t_5170586.torrent
Торрент: Зарегистрирован ·  [ 2019-01-06 19:01 ] ·  4615c402a82f12a59f3c168bcf3322b62acad812

33 KB

Статус: проверено
Скачан: 0 раз
Размер: 2.73 GB
Оценка: 
(Голосов: 0)
Сказали спасибо: 0  Спасибо
Похожие темы
[Профиль]    [ЛС]
Показать сообщения:    
Ответить на тему

Текущее время: Сегодня 22:31

Часовой пояс: GMT + 7



Вы не можете начинать темы
Вы не можете отвечать на сообщения
Вы не можете редактировать свои сообщения
Вы не можете удалять свои сообщения
Вы не можете голосовать в опросах
Вы не можете прикреплять файлы к сообщениям
Вы можете скачивать файлы


GENIE 580XCD Aktenvernichter Cross Cut Partikelschnitt Papier Schredder Shredder | Order History | 1x896 Acacias 38