(JRock/Metal) [CD] DIMLIM - VARIOUS (Limited Edition) - 2017, FLAC (tracks+.cue), lossless

Ответить на тему
Статистика раздачи [Обновить пиров]
Размер:  185 MB   |    Зарегистрирован:  9 дней   |    Скачан:  0 раз

Полного источника не было: Никогда

 
   
 
 
 
Автор Сообщение

islamvillage.com

Создавать темы 06-Янв-2019 19:51

[Цитировать]

DIMLIM / VARIOUS (Limited Edition)
Жанр: JRock/Metal
Носитель: CD
Страна-производитель диска (релиза): Japan
Год издания: 2017
Издатель (лейбл): Ultimate Illuminati
Номер по каталогу: DMLM-0001
Страна исполнителя (группы): Japan
Аудиокодек: FLAC (*.flac)
Тип рипа: tracks+.cue
Битрейт аудио: lossless
Продолжительность: 00:23:31
Источник (релизер): собственный диск
Наличие сканов в содержимом раздачи: нет
Треклист:
1.アハレワタ
2.THE INVISIBLE
3.limit of reverse
4.MASSACRE
5.Regret
6.「初潮」

Лог создания рипа

Exact Audio Copy V1.3 from 2. September 2016
EAC extraction logfile from 25. December 2018, 20:09
DIMLIM / VARIOUS (Limited Edition)
Used drive : PIONEER BD-RW BDR-209D Adapter: 1 ID: 0
Read mode : SecureUtilize accurate stream : YesDefeat audio cache : YesMake use of C2 pointers : No
Read offset correction : 667Overread into Lead-In and Lead-Out : NoFill up missing offset samples with silence : YesDelete leading and trailing silent blocks : NoNull samples used in CRC calculations : YesUsed interface : Native Win32 interface for Win NT & 2000Gap handling : Appended to previous track
Used output format : User Defined EncoderSelected bitrate : 896 kBit/sQuality : HighAdd ID3 tag : NoCommand line compressor : C:\Program Files (x86)\Exact Audio Copy\Flac\flac.exeAdditional command line options : -V -8 -T "Genre=%genre%" -T "Artist=%artist%" -T "Title=%title%" -T "Album=%albumtitle%" -T "Date=%year%" -T "Tracknumber=%tracknr%" -T "Comment=%comment%" %source%
TOC of the extracted CD
Track | Start | Length | Start sector | End sector --------------------------------------------------------- 1 | 0:00.00 | 4:25.33 | 0 | 19907 2 | 4:25.33 | 4:08.22 | 19908 | 38529 3 | 8:33.55 | 3:25.44 | 38530 | 53948 4 | 11:59.24 | 3:30.63 | 53949 | 69761 5 | 15:30.12 | 3:16.66 | 69762 | 84527 6 | 18:47.03 | 4:44.00 | 84528 | 105827
Track 1
Filename D:\Flac\Новая папка\01 アハレワタ.wav
Pre-gap length 0:00:02.00
Peak level 100.0 % Extraction speed 5.0 X Track quality 100.0 % Test CRC 10A48AEC Copy CRC 10A48AEC Copy OK
Track 2
Filename D:\Flac\Новая папка\02 THE INVISIBLE.wav
Peak level 100.0 % Extraction speed 4.8 X Track quality 99.9 % Test CRC A406219B Copy CRC A406219B Copy OK
Track 3
Filename D:\Flac\Новая папка\03 limit of reverse.wav
Peak level 100.0 % Extraction speed 5.7 X Track quality 100.0 % Test CRC 5C12A6BA Copy CRC 5C12A6BA Copy OK
Track 4
Filename D:\Flac\Новая папка\04 MASSACRE.wav
Peak level 100.0 % Extraction speed 5.2 X Track quality 99.9 % Test CRC 9583AF23 Copy CRC 9583AF23 Copy OK
Track 5
Filename D:\Flac\Новая папка\05 Regret.wav
Peak level 100.0 % Extraction speed 5.4 X Track quality 99.9 % Test CRC 211899EC Copy CRC 211899EC Copy OK
Track 6
Filename D:\Flac\Новая папка\06 「初潮」.wav
Peak level 100.0 % Extraction speed 6.9 X Track quality 100.0 % Test CRC 5CE40938 Copy CRC 5CE40938 Copy OK
No errors occurred
End of status report
==== Log checksum A051139CA57ECA5EBFD53D3AFCBDD5CA0EB6B3CDFA6AEDB7A21C880EE4CEC380 ====

Содержание индексной карты (.CUE)

REM GENRE JRockREM DATE 2017REM DISCID 41058306REM COMMENT "ExactAudioCopy v1.3"PERFORMER "DIMLIM"TITLE "VARIOUS (Limited Edition)"REM COMPOSER ""FILE "01 ......wav" WAVE TRACK 01 AUDIO TITLE "..... " PERFORMER "DIMLIM" REM COMPOSER "" INDEX 01 00:00:00FILE "02 THE INVISIBLE.wav" WAVE TRACK 02 AUDIO TITLE "THE INVISIBLE " PERFORMER "DIMLIM" REM COMPOSER "" INDEX 01 00:00:00FILE "03 limit of reverse.wav" WAVE TRACK 03 AUDIO TITLE "limit of reverse " PERFORMER "DIMLIM" REM COMPOSER "" INDEX 01 00:00:00FILE "04 MASSACRE.wav" WAVE TRACK 04 AUDIO TITLE "MASSACRE " PERFORMER "DIMLIM" REM COMPOSER "" INDEX 01 00:00:00FILE "05 Regret.wav" WAVE TRACK 05 AUDIO TITLE "Regret " PERFORMER "DIMLIM" REM COMPOSER "" INDEX 01 00:00:00FILE "06 .....wav" WAVE TRACK 06 AUDIO TITLE "...." PERFORMER "DIMLIM" REM COMPOSER "" INDEX 01 00:00:00
Торрент файл перезалит в связи с заменой материала на рип с собственного CD.


[islamvillage.com]_t_5470736.torrent
Торрент: Зарегистрирован ·  [ 2019-01-06 19:01 ] ·  c164d1d9aa4abe04259acccc32ce324d29893e52

15 KB

Статус: проверено
Скачан: 0 раз
Размер: 185 MB
Оценка: 
(Голосов: 0)
Сказали спасибо: 0  Спасибо
Похожие темы
[Профиль]    [ЛС]
Показать сообщения:    
Ответить на тему

Текущее время: Сегодня 15:06

Часовой пояс: GMT + 7



Вы не можете начинать темы
Вы не можете отвечать на сообщения
Вы не можете редактировать свои сообщения
Вы не можете удалять свои сообщения
Вы не можете голосовать в опросах
Вы не можете прикреплять файлы к сообщениям
Вы можете скачивать файлы


Thám Tử Lừng Danh Conan chap 923 | Abelssoft FileFusion 2019 2.04 Build 168 Multilingual | Powerless HDTV 720p AC3 5.1