(JRock/Metal) [CD] DIMLIM - VARIOUS [Regular Edition] - 2017, FLAC (tracks+.cue), lossless

Ответить на тему
Статистика раздачи [Обновить пиров]
Размер:  191 MB   |    Зарегистрирован:  9 дней   |    Скачан:  0 раз

Полного источника не было: Никогда

 
   
 
 
 
Автор Сообщение

islamvillage.com

Создавать темы 06-Янв-2019 19:51

[Цитировать]

DIMLIM / VARIOUS [Regular Edition]
Жанр: JRock/Metal
Носитель: CD
Страна-производитель диска (релиза): Japan
Год издания: 2017
Издатель (лейбл): Ultimate Illuminati
Номер по каталогу: DMLM-0002
Страна исполнителя (группы): Japan
Аудиокодек: FLAC (*.flac)
Тип рипа: tracks+.cue
Битрейт аудио: lossless
Продолжительность: 00:24:34
Источник (релизер): собственный диск
Наличие сканов в содержимом раздачи: нет
Треклист:
1.アハレワタ
2.THE INVISIBLE
3.虚妄の歌
4.浄土の花
5.Regret
6.「初潮」

Лог создания рипа

Exact Audio Copy V1.3 from 2. September 2016
EAC extraction logfile from 14. December 2018, 23:48
DIMLIM / VARIOUS (Regular Edition)
Used drive : PIONEER BD-RW BDR-209D Adapter: 1 ID: 0
Read mode : SecureUtilize accurate stream : YesDefeat audio cache : YesMake use of C2 pointers : No
Read offset correction : 667Overread into Lead-In and Lead-Out : NoFill up missing offset samples with silence : YesDelete leading and trailing silent blocks : NoNull samples used in CRC calculations : YesUsed interface : Native Win32 interface for Win NT & 2000Gap handling : Appended to previous track
Used output format : User Defined EncoderSelected bitrate : 896 kBit/sQuality : HighAdd ID3 tag : NoCommand line compressor : C:\Program Files (x86)\Exact Audio Copy\Flac\flac.exeAdditional command line options : -V -8 -T "Genre=%genre%" -T "Artist=%artist%" -T "Title=%title%" -T "Album=%albumtitle%" -T "Date=%year%" -T "Tracknumber=%tracknr%" -T "Comment=%comment%" %source%
TOC of the extracted CD
Track | Start | Length | Start sector | End sector --------------------------------------------------------- 1 | 0:00.00 | 4:25.33 | 0 | 19907 2 | 4:25.33 | 4:08.23 | 19908 | 38530 3 | 8:33.56 | 3:51.48 | 38531 | 55903 4 | 12:25.29 | 4:08.21 | 55904 | 74524 5 | 16:33.50 | 3:16.66 | 74525 | 89290 6 | 19:50.41 | 4:44.01 | 89291 | 110591
Track 1
Filename D:\Flac\Новая папка\01 アハレウタ.wav
Pre-gap length 0:00:02.00
Peak level 100.0 % Extraction speed 5.0 X Track quality 100.0 % Test CRC 10A48AEC Copy CRC 10A48AEC Copy OK
Track 2
Filename D:\Flac\Новая папка\02 THE INVISIBLE.wav
Peak level 100.0 % Extraction speed 4.8 X Track quality 99.9 % Test CRC AE80A416 Copy CRC AE80A416 Copy OK
Track 3
Filename D:\Flac\Новая папка\03 虚妄の歌.wav
Peak level 100.0 % Extraction speed 5.8 X Track quality 100.0 % Test CRC 17D1D706 Copy CRC 17D1D706 Copy OK
Track 4
Filename D:\Flac\Новая папка\04 浄土の花.wav
Peak level 100.0 % Extraction speed 6.2 X Track quality 100.0 % Test CRC BD01C8C2 Copy CRC BD01C8C2 Copy OK
Track 5
Filename D:\Flac\Новая папка\05 Regret.wav
Peak level 100.0 % Extraction speed 5.5 X Track quality 99.9 % Test CRC 4FFC4CB0 Copy CRC 4FFC4CB0 Copy OK
Track 6
Filename D:\Flac\Новая папка\06 「初潮」.wav
Peak level 100.0 % Extraction speed 7.0 X Track quality 100.0 % Test CRC 8BE3B9C7 Copy CRC 8BE3B9C7 Copy OK
No errors occurred
End of status report
==== Log checksum B2F4FE91CF481AEC47C4AB21213FBBBB8410188B3A8C06BF1CD2897E0E80D862 ====

Содержание индексной карты (.CUE)

REM GENRE JRockREM DATE 2017REM DISCID 5205C206REM COMMENT "ExactAudioCopy v1.3"PERFORMER "DIMLIM "TITLE "VARIOUS (Regular Edition)"REM COMPOSER ""FILE "01 ......wav" WAVE TRACK 01 AUDIO TITLE "....." PERFORMER "DIMLIM " REM COMPOSER "" INDEX 01 00:00:00FILE "02 THE INVISIBLE.wav" WAVE TRACK 02 AUDIO TITLE "THE INVISIBLE" PERFORMER "DIMLIM " REM COMPOSER "" INDEX 01 00:00:00FILE "03 .....wav" WAVE TRACK 03 AUDIO TITLE "...." PERFORMER "DIMLIM " REM COMPOSER "" INDEX 01 00:00:00FILE "04 .....wav" WAVE TRACK 04 AUDIO TITLE "...." PERFORMER "DIMLIM " REM COMPOSER "" INDEX 01 00:00:00FILE "05 Regret.wav" WAVE TRACK 05 AUDIO TITLE "Regret" PERFORMER "DIMLIM " REM COMPOSER "" INDEX 01 00:00:00FILE "06 .....wav" WAVE TRACK 06 AUDIO TITLE "...." PERFORMER "DIMLIM " REM COMPOSER "" INDEX 01 00:00:00
DIMLIM is a new band with ex-members from D.I.D., Deviloof and Airish.
Торрент файл перезалит в связи с заменой материала на рип с собственного CD.


[islamvillage.com]_t_5452337.torrent
Торрент: Зарегистрирован ·  [ 2019-01-06 19:01 ] ·  d6375f7c3eb1436ad5da011554885b21993ebca6

16 KB

Статус: проверено
Скачан: 0 раз
Размер: 191 MB
Оценка: 
(Голосов: 0)
Сказали спасибо: 0  Спасибо
Похожие темы
[Профиль]    [ЛС]
Показать сообщения:    
Ответить на тему

Текущее время: Сегодня 14:52

Часовой пояс: GMT + 7



Вы не можете начинать темы
Вы не можете отвечать на сообщения
Вы не можете редактировать свои сообщения
Вы не можете удалять свои сообщения
Вы не можете голосовать в опросах
Вы не можете прикреплять файлы к сообщениям
Вы можете скачивать файлы


illusion | Aventure | 2017 Fall Embroidere Ken Paris Tiger Sweater Eyes €23,22 Gekauft von 100+