(JRock) [CD] Fushiana - Fushiana - 2018, FLAC (tracks+.cue), lossless

Ответить на тему
Статистика раздачи [Обновить пиров]
Размер:  195 MB   |    Зарегистрирован:  9 дней   |    Скачан:  0 раз

Полного источника не было: Никогда

 
   
 
 
 
Автор Сообщение

islamvillage.com

Создавать темы 06-Янв-2019 19:51

[Цитировать]

Fushiana / Fushiana
Жанр: JRock
Носитель: CD
Страна-производитель диска (релиза): Japan
Год издания: 2018
Издатель (лейбл): MANUKE.co
Номер по каталогу: FSAN-1021
Страна исполнителя (группы): Japan
Аудиокодек: FLAC (*.flac)
Тип рипа: tracks+.cue
Битрейт аудио: lossless
Продолжительность: 00:25:37
Источник (релизер): собственный диск
Наличие сканов в содержимом раздачи: нет
Треклист:
01 白璧の微瑕
02 タスクライン
03 誰も気付いてくれない
04 警告、ガス漏れ中につき。
05 恍惚と焦燥
06 BAD×スプラッターガール
07 不信

Лог создания рипа

Exact Audio Copy V1.3 from 2. September 2016
EAC extraction logfile from 15. December 2018, 0:03
フシアナ / 『節穴』
Used drive : PIONEER BD-RW BDR-209D Adapter: 1 ID: 0
Read mode : SecureUtilize accurate stream : YesDefeat audio cache : YesMake use of C2 pointers : No
Read offset correction : 667Overread into Lead-In and Lead-Out : NoFill up missing offset samples with silence : YesDelete leading and trailing silent blocks : NoNull samples used in CRC calculations : YesUsed interface : Native Win32 interface for Win NT & 2000Gap handling : Appended to previous track
Used output format : User Defined EncoderSelected bitrate : 896 kBit/sQuality : HighAdd ID3 tag : NoCommand line compressor : C:\Program Files (x86)\Exact Audio Copy\Flac\flac.exeAdditional command line options : -V -8 -T "Genre=%genre%" -T "Artist=%artist%" -T "Title=%title%" -T "Album=%albumtitle%" -T "Date=%year%" -T "Tracknumber=%tracknr%" -T "Comment=%comment%" %source%
TOC of the extracted CD
Track | Start | Length | Start sector | End sector --------------------------------------------------------- 1 | 0:00.00 | 3:54.13 | 0 | 17562 2 | 3:54.13 | 3:16.27 | 17563 | 32289 3 | 7:10.40 | 3:08.07 | 32290 | 46396 4 | 10:18.47 | 4:31.12 | 46397 | 66733 5 | 14:49.59 | 3:43.11 | 66734 | 83469 6 | 18:32.70 | 3:37.00 | 83470 | 99744 7 | 22:09.70 | 3:27.05 | 99745 | 115274
Track 1
Filename D:\Flac\Новая папка\01 白璧の微瑕.wav
Pre-gap length 0:00:02.00
Peak level 93.3 % Extraction speed 4.6 X Track quality 100.0 % Test CRC 8E57DCCD Copy CRC 8E57DCCD Copy OK
Track 2
Filename D:\Flac\Новая папка\02 タスクライン.wav
Peak level 93.3 % Extraction speed 4.9 X Track quality 100.0 % Test CRC 7A216BE3 Copy CRC 7A216BE3 Copy OK
Track 3
Filename D:\Flac\Новая папка\03 誰も気付いてくれない.wav
Peak level 93.3 % Extraction speed 5.2 X Track quality 100.0 % Test CRC D946E4A5 Copy CRC D946E4A5 Copy OK
Track 4
Filename D:\Flac\Новая папка\04 警告、ガス漏れ中につき。.wav
Peak level 93.3 % Extraction speed 5.9 X Track quality 100.0 % Test CRC C534CBCB Copy CRC C534CBCB Copy OK
Track 5
Filename D:\Flac\Новая папка\05 恍惚と焦燥.wav
Peak level 93.3 % Extraction speed 6.0 X Track quality 100.0 % Test CRC CC620126 Copy CRC CC620126 Copy OK
Track 6
Filename D:\Flac\Новая папка\06 BAD×スプラッターガール.wav
Peak level 93.3 % Extraction speed 6.3 X Track quality 100.0 % Test CRC F7CAA6BC Copy CRC F7CAA6BC Copy OK
Track 7
Filename D:\Flac\Новая папка\07 不信.wav
Peak level 93.3 % Extraction speed 6.5 X Track quality 100.0 % Test CRC FF81D85A Copy CRC FF81D85A Copy OK
No errors occurred
End of status report
==== Log checksum C818F1A61FDFF21E11097ADC6EED51A16103A7B0194FF73278EFCFD548632DFF ====

Содержание индексной карты (.CUE)

REM GENRE JRockREM DATE 2018REM DISCID 3F060107REM COMMENT "ExactAudioCopy v1.3"PERFORMER "...."TITLE "...."REM COMPOSER ""FILE "01 ......wav" WAVE TRACK 01 AUDIO TITLE "....." PERFORMER "...." REM COMPOSER "" INDEX 01 00:00:00FILE "02 .......wav" WAVE TRACK 02 AUDIO TITLE "......" PERFORMER "...." REM COMPOSER "" INDEX 01 00:00:00FILE "03 ...........wav" WAVE TRACK 03 AUDIO TITLE ".........." PERFORMER "...." REM COMPOSER "" INDEX 01 00:00:00FILE "04 .............wav" WAVE TRACK 04 AUDIO TITLE "............" PERFORMER "...." REM COMPOSER "" INDEX 01 00:00:00FILE "05 ......wav" WAVE TRACK 05 AUDIO TITLE "....." PERFORMER "...." REM COMPOSER "" INDEX 01 00:00:00FILE "06 BAD...........wav" WAVE TRACK 06 AUDIO TITLE "BAD.........." PERFORMER "...." REM COMPOSER "" INDEX 01 00:00:00FILE "07 ...wav" WAVE TRACK 07 AUDIO TITLE ".." PERFORMER "...." REM COMPOSER "" INDEX 01 00:00:00


[islamvillage.com]_t_5659823.torrent
Торрент: Зарегистрирован ·  [ 2019-01-06 19:01 ] ·  748a12f9762949560b89880ca235ec8d0abb143a

16 KB

Статус: проверено
Скачан: 0 раз
Размер: 195 MB
Оценка: 
(Голосов: 0)
Сказали спасибо: 0  Спасибо
Похожие темы
[Профиль]    [ЛС]
Показать сообщения:    
Ответить на тему

Текущее время: Сегодня 15:10

Часовой пояс: GMT + 7



Вы не можете начинать темы
Вы не можете отвечать на сообщения
Вы не можете редактировать свои сообщения
Вы не можете удалять свои сообщения
Вы не можете голосовать в опросах
Вы не можете прикреплять файлы к сообщениям
Вы можете скачивать файлы


Ver Billy Elliot the Musical Live Pelicula Completa en Linea (2014) 9.3 | Ch.43 : Dragon Family | Social psychology seems to have many origins; critically discuss the historical and philosophical roots of modern social psychology