(Avant-Garde Metal) [CD] Archangel - In Tears the Angel Falls... - 1998, FLAC (image+.cue), lossless

Ответить на тему
Статистика раздачи [Обновить пиров]
Размер:  348 MB   |    Зарегистрирован:  11 дней   |    Скачан:  0 раз

Полного источника не было: Никогда

 
   
 
 
 
Автор Сообщение

islamvillage.com

Создавать темы 06-Янв-2019 19:52

[Цитировать]

Archangel / In Tears the Angel Falls...
Жанр: Avant-Garde Metal
Носитель: CD
Страна исполнителя: Italy
Год издания: 1998
Лейбл: Lucretia Records International
Номер по каталогу: LU 96010-2
Страна релиза: Italy
Аудиокодек: FLAC
Тип рипа: image+.cue
Битрейт аудио: lossless
Продолжительность: 00:47:14
Наличие сканов в содержимом раздачи: да
Источник (релизер): MeTaLMaDNeSS.TeaM (spiralarch)
Треклист:
01. In Tears the Angel Falls...
02. You Kill Yourself
03. Faith in the Fate
04. Dark Love
05. The Swan's Cry on Its Lake of Pain
06. Bleeding Heart
07. Straight to Hell
08. Devil as a Lover
09. Christ in Chains
10. Awakening
11. Love of Siddhartha Dies

Лог создания рипа

Exact Audio Copy V1.0 beta 1 from 15. November 2010
EAC extraction logfile from 8. December 2010, 21:01
Archangel / In Tears The Angel Falls...(1998)
Used drive : Optiarc DVD RW AD-7240S Adapter: 2 ID: 0
Read mode : SecureUtilize accurate stream : YesDefeat audio cache : YesMake use of C2 pointers : No
Read offset correction : 48Overread into Lead-In and Lead-Out : NoFill up missing offset samples with silence : YesDelete leading and trailing silent blocks : NoNull samples used in CRC calculations : YesUsed interface : Native Win32 interface for Win NT & 2000
Used output format : Internal WAV RoutinesSample format : 44.100 Hz; 16 Bit; Stereo
TOC of the extracted CD
Track | Start | Length | Start sector | End sector --------------------------------------------------------- 1 | 0:00.32 | 1:26.28 | 32 | 6509 2 | 1:26.60 | 5:33.62 | 6510 | 31546 3 | 7:00.47 | 5:47.55 | 31547 | 57626 4 | 12:48.27 | 5:46.05 | 57627 | 83581 5 | 18:34.32 | 1:05.15 | 83582 | 88471 6 | 19:39.47 | 5:32.25 | 88472 | 113396 7 | 25:11.72 | 4:49.70 | 113397 | 135141 8 | 30:01.67 | 5:01.60 | 135142 | 157776 9 | 35:03.52 | 5:52.20 | 157777 | 184196 10 | 40:55.72 | 4:25.63 | 184197 | 204134 11 | 45:21.60 | 1:52.47 | 204135 | 212581
Range status and errors
Selected range
Filename D:\spiralarch\Archangel - In Tears The Angel Falls...(1998).wav
Peak level 95.5 % Extraction speed 0.1 X Range quality 100.0 % Test CRC 4A1B4053 Copy CRC 4A1B4053 Copy OK
No errors occurred
AccurateRip summary
Track 1 cannot be verified as accurate (confidence 1) [6F5BBB80], AccurateRip returned [632BF981]Track 2 cannot be verified as accurate (confidence 1) [83E55334], AccurateRip returned [CABF61AE]Track 3 cannot be verified as accurate (confidence 1) [2A8AC5D1], AccurateRip returned [10058792]Track 4 cannot be verified as accurate (confidence 1) [C68EA63C], AccurateRip returned [1707BE96]Track 5 cannot be verified as accurate (confidence 1) [26AEA5EE], AccurateRip returned [1E80C49C]Track 6 cannot be verified as accurate (confidence 1) [940A2293], AccurateRip returned [CBF95B13]Track 7 cannot be verified as accurate (confidence 1) [CBF3EB1B], AccurateRip returned [4ECE7C18]Track 8 cannot be verified as accurate (confidence 1) [7D2F0DBC], AccurateRip returned [602B98B9]Track 9 cannot be verified as accurate (confidence 1) [F0BB7F0E], AccurateRip returned [11F1FB04]Track 10 cannot be verified as accurate (confidence 1) [73A00ACC], AccurateRip returned [9897E196]Track 11 cannot be verified as accurate (confidence 1) [A7E72290], AccurateRip returned [C8C86A97]
No tracks could be verified as accurateYou may have a different pressing from the one(s) in the database
End of status report
==== Log checksum 9B7DB4CAB0FAC5D74A6A7F8572582CF40B6C7DC4310FD9835CDD9821C586D045 ====

Файл разметки

REM GENRE "Avant-Garde Metal"REM DATE 1998REM DISCID 7A0B120BREM COMMENT "ExactAudioCopy v1.0b1"PERFORMER "Archangel"TITLE "In Tears the Angel Falls..."FILE "Archangel - In Tears the Angel Falls.flac" WAVE TRACK 01 AUDIO TITLE "In Tears the Angel Falls..." PERFORMER "Archangel" INDEX 00 00:00:00 INDEX 01 00:00:32 TRACK 02 AUDIO TITLE "You Kill Yourself" PERFORMER "Archangel" INDEX 01 01:26:60 TRACK 03 AUDIO TITLE "Faith in the Fate" PERFORMER "Archangel" INDEX 01 07:00:47 TRACK 04 AUDIO TITLE "Dark Love" PERFORMER "Archangel" INDEX 01 12:48:27 TRACK 05 AUDIO TITLE "The Swan's Cry on Its Lake of Pain" PERFORMER "Archangel" INDEX 01 18:34:32 TRACK 06 AUDIO TITLE "Bleeding Heart" PERFORMER "Archangel" INDEX 01 19:39:47 TRACK 07 AUDIO TITLE "Straight to Hell" PERFORMER "Archangel" INDEX 01 25:11:72 TRACK 08 AUDIO TITLE "Devil as a Lover" PERFORMER "Archangel" INDEX 01 30:01:67 TRACK 09 AUDIO TITLE "Christ in Chains" PERFORMER "Archangel" INDEX 01 35:03:52 TRACK 10 AUDIO TITLE "Awakening" PERFORMER "Archangel" INDEX 01 40:55:72 TRACK 11 AUDIO TITLE "Love of Siddhartha Dies" PERFORMER "Archangel" INDEX 01 45:21:60

Folder.auCDtect.txt

-----------------------
DON'T MODIFY THIS FILE
-----------------------
PERFORMER: auCDtect Task Manager, ver. 1.6.0 RC1 build 1.6.0.1Copyright (c) 2008-2010 y-soft. All rights reservedhttp://y-soft.org
ANALYZER: auCDtect: CD records authenticity detector, version 0.8.2Copyright (c) 2004 Oleg Berngardt. All rights reserved.Copyright (c) 2004 Alexander Djourik. All rights reserved.
FILE: Archangel - In Tears the Angel Falls.flac Size: 348728473 Hash: 9FDE8610CAB141AC1416E76A232231D7 Accuracy: -m0 Conclusion: CDDA 100% Signature: FDF2AEAB4E4065CD459F60B55D1C38FB18A6A30C


[islamvillage.com]_t_5668452.torrent
Торрент: Зарегистрирован ·  [ 2019-01-06 19:01 ] ·  f12d37438008922dbcd5928a2fd2956c114cbb40

15 KB

Статус: проверено
Скачан: 0 раз
Размер: 348 MB
Оценка: 
(Голосов: 0)
Сказали спасибо: 0  Спасибо
Похожие темы
[Профиль]    [ЛС]
Показать сообщения:    
Ответить на тему

Текущее время: Сегодня 04:01

Часовой пояс: GMT + 7



Вы не можете начинать темы
Вы не можете отвечать на сообщения
Вы не можете редактировать свои сообщения
Вы не можете удалять свои сообщения
Вы не можете голосовать в опросах
Вы не можете прикреплять файлы к сообщениям
Вы можете скачивать файлы


Auto de collection: pièces | Michiel Huisman | Anti-Spy Peeping Privacy Tempered Glass Screen Protector For iPhone 8 / 8 Plus