Христос остановился в Эболи / Cristo si è fermato a Eboli (Франческо Рози / Francesco Rosi) [1979, Италия, Франция, драма, биографический, экранизация, Screener > DVD] [Советская прокатная копия] Dub (Мосфильм)

Ответить на тему
Статистика раздачи [Обновить пиров]
Размер:  4.35 GB   |    Зарегистрирован:  13 дней   |    Скачан:  0 раз

Полного источника не было: Никогда

 
   
 
 
 
Автор Сообщение

islamvillage.com

Создавать темы 06-Янв-2019 20:15

[Цитировать]

Христос остановился в Эболи / Cristo si è fermato a Eboli [Советская прокатная копия]- Страна: Италия, Франция
Жанр: драма, биографический, экранизация
Год выхода: 1979
Продолжительность: 02:09:34-Перевод: Профессиональный (дублированный) - Киностудия "Мосфильм"
Субтитры: нет-Режиссер: Франческо Рози / Francesco Rosi
В ролях: Джан Мария Волонте, Энцо Витале, Мария Антония Капоторто, Сильверио Блази, Паоло Боначелли, Аккурсио Ди Лео, Ален Кюни, Муцци Лоффредо, Леа Массари, Ирен Папас, Франсуа Симон, Луиджи Инфантино, Франческо Каллари, Ставрос Торнс, Рокко Систо- | : -Описание: Экранизация одноимённого произведения Карло Леви.
Эпоха Муссолини. Писатель Карло Леви отправлен в ссылку в маленький южный городок Эболи, затерянный в сердце Аппенин. Простодушные местные крестьяне бесконечно далеки от политической борьбы, ведь уклад их жизни не менялся тысячелетиями. Живя будто во времена Христа, герою приходится по-новому взглянуть на человеческие отношения, идеалы и цели современного мира.-Семпл: http://sendfile.su/1466243-Тип релиза: Screener
Формат файла: DVD-Video
Видео: PAL 720x576 (4:3) @ 768x576, 25.000 fps, MPEG-2 Video, ~4450 Kbps, 0.429 bits/pixel
Аудио: Русский, 48.0 KHz, AC3, 2 ch, 256 Kbps

DVDInfo

Title: Христос остановился в Эболи 1979 Dub МосфильмSize: 4.35 Gb ( 4 557 154,00 KBytes ) - DVD-5Enabled regions: 1, 2, 3, 4, 5, 6, 7, 8
VTS_01 : Play Length: 02:09:34 Video: PAL 4:3 (720x576) VBR Audio: Russian, AC3, 2/0 (L,R) ch, 256 kbps, Delay 0 mSec

MediaInfo

GeneralComplete name : \Христос остановился в Эболи 1979 Dub Мосфильм\VIDEO_TS\VTS_01_1.VOBFormat : MPEG-PSFile size : 1 024 MiBDuration : 29 min 48 sOverall bit rate mode : VariableOverall bit rate : 4 802 kb/s
VideoID : 224 (0xE0)Format : MPEG VideoFormat version : Version 2Format profile : Main@MainFormat settings : CustomMatrix / BVOPFormat settings, BVOP : YesFormat settings, Matrix : CustomFormat settings, GOP : M=3, N=15Duration : 29 min 48 sBit rate mode : VariableBit rate : 4 450 kb/sWidth : 720 pixelsHeight : 576 pixelsDisplay aspect ratio : 4:3Frame rate : 25.000 FPSStandard : PALColor space : YUVChroma subsampling : 4:2:0Bit depth : 8 bitsScan type : ProgressiveCompression mode : LossyBits/(Pixel*Frame) : 0.429Time code of first frame : 00:00:00:00Time code source : Group of pictures headerGOP, Open/Closed : OpenGOP, Open/Closed of first frame : ClosedStream size : 949 MiB (93%)
AudioID : 189 (0xBD)-128 (0x80)Format : AC-3Format/Info : Audio Coding 3Commercial name : Dolby DigitalMuxing mode : DVD-VideoDuration : 29 min 48 sBit rate mode : ConstantBit rate : 256 kb/sChannel(s) : 2 channelsChannel layout : L RSampling rate : 48.0 kHzFrame rate : 31.250 FPS (1536 SPF)Bit depth : 16 bitsCompression mode : LossyStream size : 54.6 MiB (5%)Service kind : Complete Main
Menu


[islamvillage.com]_t_5670236.torrent
Торрент: Зарегистрирован ·  [ 2019-01-06 19:01 ] ·  eb28b7165b5973977010f57dfad56827f71dd6ae

23 KB

Статус: проверено
Скачан: 0 раз
Размер: 4.35 GB
Оценка: 
(Голосов: 0)
Сказали спасибо: 0  Спасибо
Похожие темы
[Профиль]    [ЛС]
Показать сообщения:    
Ответить на тему

Текущее время: Сегодня 16:20

Часовой пояс: GMT + 7



Вы не можете начинать темы
Вы не можете отвечать на сообщения
Вы не можете редактировать свои сообщения
Вы не можете удалять свои сообщения
Вы не можете голосовать в опросах
Вы не можете прикреплять файлы к сообщениям
Вы можете скачивать файлы


mai 2017 | SPSS Statistics v24.0.0. | See more